#TITLE:CODENAME APRIL;
#SUBTITLE:;
#ARTIST:TOMOSUKE;
#TITLETRANSLIT:;
#SUBTITLETRANSLIT:;
#ARTISTTRANSLIT:;
#CREDIT:;
#BANNER:bn.png;
#BACKGROUND:bg.png;
#LYRICSPATH:;
#CDTITLE:;
#MUSIC:CODENAMEAPRIL.mp3;
#OFFSET:-5.857;
#SAMPLESTART:10.380;
#SAMPLELENGTH:12.000;
#SELECTABLE:YES;
#BPMS:0.000=190.000;
#STOPS:;
#BGCHANGES:;

//---------------dance-single - ----------------
#NOTES:
     dance-single:
     :
     Hard:
     7:
     0.374,0.571,0.106,0.345,0.057:
0000
0000
0000
0000
,
0000
0000
0000
0000
,
0000
0000
0000
0000
,
0000
0000
0000
0000
0000
0001
1000
0010
,
0100
0000
0000
0000
0000
0000
0000
0010
,
0000
0100
0001
0010
0001
1000
0100
0010
,
0001
0000
0000
0000
,
0000
0000
0000
0000
0000
0010
1000
0100
,
1000
0000
0000
0000
0000
0000
0000
0100
,
0000
1000
0100
0010
0100
1000
0010
0100
,
0001
0000
0000
0000
,
0000
0000
0000
0000
,
0001
0000
0100
0010
1000
0000
0020
0000
,
0200
0000
0000
0330
,
0100
0000
0100
1000
0100
0000
0200
0000
,
0002
0000
0000
0303
,
0002
0000
1003
0001
0010
0001
0010
0100
,
0001
0100
0010
1000
0010
0000
0100
0000
,
0020
0000
0100
0031
,
0110
0000
2002
0000
3003
0001
0010
0100
,
1000
0000
0000
0000
0000
0000
0000
0100
,
0000
1000
0100
0010
0100
0010
1000
0001
,
0100
0000
0000
0000
,
0000
0000
0000
0000
0000
0010
0010
0100
,
0001
0000
0000
0000
0000
0000
0000
0100
,
0000
0010
1000
0010
1000
0010
0100
0010
,
0001
0000
0000
0000
,
0000
0000
0000
0000
,
1000
0000
0100
1000
0010
0000
0200
0000
,
0020
0000
0000
0330
,
0010
0000
0010
1000
0001
0000
0020
0000
,
0200
0000
0000
0330
,
0100
0000
1000
0100
1000
0010
0100
0010
,
0100
0001
1000
0001
1000
0000
0001
0000
,
0200
0000
1000
0310
,
0110
0000
1001
0000
0001
0200
0000
0020
,
0000
0000
0330
0000
0010
2000
0000
0200
,
0000
0000
3300
0000
1000
0200
0000
0020
,
0000
0000
0330
0000
0010
0002
0000
0200
,
0000
0000
0303
0000
0001
0200
0000
0020
,
0000
0000
0330
0000
0010
2000
0000
0002
,
0000
0000
3003
0000
0001
0200
0000
0020
,
0000
0000
0330
0000
0100
0002
0000
0020
,
0000
0000
0000
0033
,
0000
0000
0001
0000
0100
0001
0000
0100
,
0000
0001
0000
0100
0001
0100
0001
0000
,
0000
0000
0100
0000
0010
0100
0000
0010
,
0000
0010
0000
0010
0100
0010
0100
0000
,
0000
0000
0100
0000
0010
1000
0000
0010
,
0000
1000
0000
0010
1000
0010
1000
0000
,
0000
0000
1000
0000
1000
0100
0000
0020
,
0000
0000
0030
0000
,
0100
0000
0000
0000
0000
0000
0000
1001
,
0000
0000
0000
0000
,
1100
0000
0000
1000
0000
0100
0000
0010
,
0000
0000
0000
0000
0000
0000
0000
0001
1000
0000
0000
0000
0000
0000
0000
0000
,
0001
0100
0010
1000
0001
0010
0001
1000
,
0100
0010
0100
1000
0001
0100
0010
1000
,
0100
1000
0001
0100
0000
0001
0100
1000
,
0100
0000
0100
0010
1000
0001
0000
0000
,
2100
0000
0000
0100
0000
0100
0000
0200
,
0000
0000
0000
3300
,
0102
0000
0000
0100
0000
0100
0000
0203
,
0000
0000
0000
0020
0000
0000
0330
0000
,
0120
0000
0000
1000
0000
1000
0000
2000
,
0000
0000
0000
0000
0000
3030
0000
0000
,
2100
0000
0000
0100
0000
0100
0000
0001
,
0000
0000
0000
0002
0000
0000
0000
3003
,
0001
0000
0000
0000
0000
0100
0000
0000
0000
0000
0000
0010
,
0000
0000
0000
0000
0000
0100
0000
0000
0100
0000
0000
0000
,
0010
0000
0000
1000
0000
0000
0001
0000
1000
0000
0000
0001
,
0000
0000
0000
0000
,
0100
0000
0000
0000
0000
0010
0000
0000
0000
0000
0000
0000
,
1000
0000
0000
0000
0000
0100
0000
0000
0000
0000
0000
0000
,
0000
0000
1000
0001
0000
1000
0001
0000
1000
0001
0000
1000
,
0001
1001
0000
0000
,
0110
0000
0000
0000
;

//---------------dance-single - ----------------
#NOTES:
     dance-single:
     :
     Medium:
     5:
     0.296,0.437,0.088,0.168,0.027:
0000
0000
0000
0000
,
0000
0000
0000
0000
,
0000
0000
0000
0000
,
0000
0000
0000
1000
,
0101
0000
0000
0000
0000
0000
0000
0001
,
0000
0001
0100
0000
0010
0000
1000
0010
,
1000
0000
0000
0000
,
0000
0000
0000
0010
,
1001
0000
0000
0000
0000
0000
0000
1000
,
0000
0001
0100
0000
0010
0000
1000
0100
,
1000
0000
0000
0000
,
0000
0000
0000
0000
,
1000
0000
0010
1000
0010
0000
0100
0000
,
0020
0000
0000
0030
,
0100
0000
0001
1000
0001
0000
0010
0000
,
0200
0000
0000
0300
,
1000
0000
0100
1000
0010
0000
0100
0010
,
0100
0000
0010
0100
0010
0000
0100
0000
,
0001
0000
1000
0001
,
0101
0000
0101
0000
0000
0000
0001
0100
,
0010
0000
0000
0000
0000
0000
0000
0100
,
0000
0010
1000
0000
0001
0000
0010
0100
,
1000
0000
0000
0000
,
0000
0000
0000
0010
,
0011
0000
0000
0000
0000
0000
0000
0001
,
0000
0001
0100
0000
0010
0000
0100
0010
,
1000
0000
0000
0000
,
0000
0000
0000
0000
,
1000
0010
0100
0001
,
0020
0000
0000
0030
,
0100
0000
1000
0100
1000
0000
0010
0000
,
0200
0000
0000
0300
,
0010
1000
0001
0010
,
1000
0010
0001
0100
,
0010
0000
0100
0010
,
1001
0000
1001
0000
0001
0100
0000
0020
,
0000
0000
0030
0000
0100
0010
0000
2000
,
0000
0000
3000
0000
0100
1000
0000
0200
,
0000
0000
0300
0000
1000
0100
0000
0020
,
0000
0000
0030
0000
0001
0010
0000
0002
,
0000
0000
0003
0000
0001
0100
0000
0020
,
0000
0000
0030
0000
0100
0010
0000
2000
,
0000
0000
3000
0000
0010
0100
0000
0020
,
0000
0000
0000
0030
,
0000
0100
0010
1000
,
0001
0000
1000
0000
0001
0100
0001
0000
,
0000
0001
0100
0010
,
1000
0000
0100
0000
0010
0100
0010
0000
,
0000
0100
1000
0010
,
0100
0000
0001
0000
0010
0100
0010
0000
,
0000
0000
0100
0000
1000
0100
0000
1000
,
0000
0000
0000
0000
,
1000
0000
0000
0000
0000
0000
0000
0100
,
0000
0000
0000
0000
,
1000
0000
0000
0001
0000
0001
0000
0001
,
0000
0000
0100
0000
,
0010
1000
0010
0001
,
0010
0100
1000
0100
,
0010
1000
0010
1000
0000
0001
0100
0001
,
0100
0000
0001
1000
0001
1000
0000
0000
,
0001
0000
0000
0100
0000
0020
0000
2000
,
0000
0000
0000
3030
,
0010
0000
0000
1000
0000
1000
0000
2000
,
0000
0000
0000
0002
0000
0000
3003
0000
,
0001
0000
0000
0100
0000
0100
0000
0200
,
0000
0000
0300
0000
,
0010
0000
0000
1000
0000
0010
0000
0200
,
0000
0000
0000
0020
0000
0000
0330
0000
,
0010
0000
0000
0000
0000
0100
0000
0000
0000
0000
0000
0000
,
0010
0000
0000
0000
0000
0100
0000
0000
0100
0000
0000
0000
,
1000
0000
0000
0001
0000
0000
1000
0000
0000
0000
0000
0001
,
0000
0000
0000
0000
,
0001
0000
0000
0000
0000
0100
0000
0000
0000
0000
0000
0000
,
0010
0000
0000
0000
0000
0100
0000
0000
0000
0000
0000
0000
,
0000
0010
1000
0001
,
1001
1001
0000
0000
,
0110
0000
0000
0000
;

//---------------dance-single - ----------------
#NOTES:
     dance-single:
     :
     Easy:
     3:
     0.186,0.403,0.080,0.159,0.000:
0000
0000
0000
0000
,
0000
0000
0000
0000
,
0000
0000
0000
0000
,
0000
0000
0000
0010
,
0100
0000
0000
0000
,
0010
1000
0010
0100
,
0100
0000
0000
0000
,
0000
0000
0000
0010
,
1000
0000
0000
0000
,
0001
0010
0001
0010
,
1000
0000
0000
0000
,
0000
0000
0000
0000
,
0010
0001
0100
0010
,
0200
0000
0000
0300
,
0010
1000
0010
0100
,
0002
0000
0000
0003
,
1000
0001
0100
0001
,
0010
0001
0100
1000
,
0100
0000
0010
1000
,
1001
1001
0000
0001
,
0110
0000
0000
0000
,
0010
0100
0001
1000
,
0100
0000
0000
0000
,
0000
0000
0000
0100
,
0010
0000
0000
0000
,
0100
1000
0010
0100
,
0001
0000
0000
0000
,
0000
0000
0000
0000
,
1000
0010
1000
0100
,
0020
0000
0000
0030
,
0100
1000
0001
0100
,
0002
0000
0000
0003
,
0001
0100
1000
0100
,
0010
1000
0001
0010
,
0100
0000
0010
0001
,
1001
1001
0001
0100
,
0020
0000
0000
0030
,
0200
0000
0000
0300
,
0020
0000
0000
0030
,
0200
0000
0000
0300
,
0002
0000
0000
0003
,
2000
0000
0000
3000
,
0002
0000
0000
0003
,
2000
0000
0000
3000
,
0000
0000
0000
0000
,
0000
0000
0000
0010
,
0000
0000
0000
0000
,
0000
0000
0000
0000
,
0000
0000
0100
0000
,
0000
0000
0000
0000
,
0000
0000
0000
0010
,
0000
0000
0000
0000
,
0100
0000
0000
0000
0000
0000
0000
0010
,
0000
0000
0000
0000
,
1000
0000
0000
0001
0000
0000
0000
1000
,
0000
0000
0010
0000
,
0100
0000
0010
0000
,
1000
0000
0001
0000
,
0010
0000
0010
0000
,
0001
0100
0100
0000
,
0020
0000
0000
0000
,
0000
0000
0030
0000
,
0200
0000
0000
0000
,
0000
0000
0300
0000
,
0002
0000
0000
0000
,
0000
0000
0003
0000
,
2000
0000
0000
0000
,
3000
0000
0000
0000
,
1001
0000
0000
0000
,
0010
0000
0000
0000
,
0100
0000
0010
0000
,
1000
0000
0000
0000
,
0001
0000
0000
0000
,
1000
0000
0000
0000
,
0010
0010
0100
0100
,
0110
0220
0000
0330
,
1001
0000
0000
0000
;

//---------------dance-single - ----------------
#NOTES:
     dance-single:
     :
     Beginner:
     1:
     0.096,0.168,0.009,0.000,0.000: // measure 1
0000
0000
0000
0000
,  // measure 2
0000
0000
0000
0000
,  // measure 3
0000
0000
0000
0000
,  // measure 4
0000
0000
0000
0000
,  // measure 5
0010
0000
0000
0000
,  // measure 6
0100
0000
0100
0000
,  // measure 7
0100
0000
0000
0000
,  // measure 8
0000
0000
0000
0000
,  // measure 9
0001
0000
0000
0000
,  // measure 10
1000
0000
1000
0000
,  // measure 11
1000
0000
0000
0000
,  // measure 12
0000
0000
0000
0000
,  // measure 13
0010
0000
0100
0000
,  // measure 14
0010
0000
0000
0000
,  // measure 15
0001
0000
1000
0000
,  // measure 16
0001
0000
0000
0000
,  // measure 17
0100
0000
0000
0000
,  // measure 18
0010
0000
0000
0000
,  // measure 19
1000
0000
1000
0000
,  // measure 20
0001
0001
0000
0000
,  // measure 21
0100
0000
0000
0000
,  // measure 22
0010
0000
0100
0000
,  // measure 23
0010
0000
0000
0000
,  // measure 24
0000
0000
0000
0000
,  // measure 25
1000
0000
0000
0000
,  // measure 26
0001
0000
0100
0000
,  // measure 27
0001
0000
0000
0000
,  // measure 28
0000
0000
0000
0000
,  // measure 29
0100
0000
0010
0000
,  // measure 30
1000
0000
0000
0000
,  // measure 31
1000
0000
0001
0000
,  // measure 32
0100
0000
0000
0000
,  // measure 33
0001
0000
0000
0000
,  // measure 34
0100
0000
0000
0000
,  // measure 35
0010
0000
0010
0000
,  // measure 36
0010
0010
0000
0000
,  // measure 37
0100
0000
0000
0000
,  // measure 38
0010
0000
0000
0000
,  // measure 39
1000
0000
0000
0000
,  // measure 40
0001
0000
0000
0000
,  // measure 41
0001
0000
0000
0000
,  // measure 42
1000
0000
0000
0000
,  // measure 43
0100
0000
0000
0000
,  // measure 44
0010
0000
0000
0000
,  // measure 45
0001
0000
0000
0000
,  // measure 46
0000
0000
0000
0000
,  // measure 47
1000
0000
0000
0000
,  // measure 48
0000
0000
0000
0000
,  // measure 49
0010
0000
0000
0000
,  // measure 50
0000
0000
0000
0000
,  // measure 51
0100
0000
0000
0000
,  // measure 52
0000
0000
0000
0000
,  // measure 53
0010
0000
0000
0000
,  // measure 54
0100
0000
0000
0000
,  // measure 55
0010
0000
0000
0000
,  // measure 56
1000
0000
1000
0000
,  // measure 57
0001
0000
0000
0000
,  // measure 58
0100
0000
0000
0000
,  // measure 59
0010
0000
0000
0000
,  // measure 60
0100
0000
0000
0000
,  // measure 61
0001
0000
0000
0000
,  // measure 62
0000
0000
0000
0000
,  // measure 63
1000
0000
0000
0000
,  // measure 64
0000
0000
0000
0000
,  // measure 65
0001
0000
0000
0000
,  // measure 66
0000
0000
0000
0000
,  // measure 67
0100
0000
0000
0000
,  // measure 68
0000
0000
0000
0000
,  // measure 69
0010
0000
0000
0000
,  // measure 70
0010
0000
0000
0000
,  // measure 71
0100
0000
0100
0000
,  // measure 72
0100
0000
0000
0000
,  // measure 73
0001
0000
0000
0000
,  // measure 74
1000
0000
0000
0000
,  // measure 75
0000
0000
0000
0000
,  // measure 76
0100
0100
0000
0000
,  // measure 77
1001
0000
0000
0000
;
