#TITLE:CLOUDY DAY;
#SUBTITLE:;
#ARTIST:BUZZMASTA;
#TITLETRANSLIT:;
#SUBTITLETRANSLIT:;
#ARTISTTRANSLIT:;
#CREDIT:;
#BANNER:bn.png;
#BACKGROUND:bg.png;
#LYRICSPATH:;
#CDTITLE:;
#MUSIC:CLOUDY DAY.mp3;
#OFFSET:-6.321;
#SAMPLESTART:84.760;
#SAMPLELENGTH:12.000;
#SELECTABLE:YES;
#BPMS:0.000=153.000;
#STOPS:;
#BGCHANGES:;

//---------------dance-single - ----------------
#NOTES:
     dance-single:
     :
     Hard:
     9:
     0.544,0.620,0.364,0.027,0.169:
1000
0001
0100
0001
0000
0100
0010
0100
,
0000
0010
1000
0010
0000
0100
0001
1000
,
0100
1000
0010
0100
0000
0010
1000
0001
,
0000
0010
0100
1000
0000
0100
1000
0010
,
0100
0010
1000
0010
0000
0100
0010
0100
,
0000
0010
1000
0010
0000
1000
0001
1000
,
0100
0001
0100
0010
0000
0010
0001
0100
,
0000
0010
1000
0001
0000
1000
0001
0100
,
0010
1000
0001
0010
0000
0010
1000
0001
,
0000
0001
0100
1000
0000
1000
0100
0010
,
0100
0010
1000
0001
0000
0001
0010
1000
,
0000
1000
0100
0010
0000
0010
0100
1000
,
0010
0100
0001
1000
0000
1000
0001
0010
,
0000
0001
0100
0010
0000
0010
1000
0001
,
0010
1000
0010
0001
0000
0001
0100
0010
,
0100
0010
1000
0001
0010
0001
1000
0100
,
1000
0000
0001
0001
0000
0000
0100
0100
,
0000
0000
0010
0010
0000
0000
1000
1000
,
0100
1000
0010
0010
0000
0000
0100
0100
,
0000
0000
0010
0010
0000
0000
0100
0100
,
0001
1000
0100
0100
0000
0000
1000
1000
,
0000
0000
0100
0100
0000
0000
1000
1000
,
0010
0100
0001
0001
0000
0000
1000
1000
,
0000
0000
0001
0001
0000
0000
0001
0001
,
1000
0001
0100
0100
0000
0010
1000
1000
,
0000
0010
0100
0100
0000
0010
1000
1000
,
0001
0010
0100
0100
0000
0010
1000
1000
,
0000
0010
0100
0100
0000
0100
1000
1000
,
0100
1000
0010
0010
0000
0100
0010
0010
,
0000
1000
0001
0001
0000
1000
0100
0100
,
1000
0010
0100
0100
0000
0010
1000
1000
,
0002
0000
0000
0000
0020
0003
0000
0000
,
0130
0000
0010
0000
0001
0000
1000
0001
,
0100
0100
0001
0001
,
1000
0000
0010
0000
0100
0000
0010
1000
,
0010
0100
0100
0010
,
1000
0000
0001
0000
0001
0000
1000
0100
,
1000
0010
0100
0001
,
1000
0000
0001
0000
0001
0000
0100
0010
,
0100
0010
1000
0001
,
0011
0000
0000
0001
0000
0000
0100
0000
0100
0000
0000
0010
0000
0000
1000
0000
,
1000
0000
0000
0010
0000
0000
0100
0000
0100
0000
0000
0010
0000
0000
1000
0000
,
1000
0000
0000
0001
0000
0000
0010
0000
0010
0000
0000
0001
0000
0000
0010
0000
,
0010
0000
0000
0001
0000
0000
0100
0000
0100
0000
0000
0001
0000
0000
0010
0000
,
0100
0000
0000
1000
0000
0000
0100
0000
1000
0000
0000
0010
0000
0000
0001
0000
,
0010
0000
0000
1000
0000
0000
0100
0000
0001
0000
0000
0100
0000
0000
0010
0000
,
0001
0000
0000
0100
0000
0000
0001
0000
0001
0000
0000
0100
0000
0000
0010
0000
,
1000
0000
0000
0001
0000
0000
0010
0000
0100
0000
0000
1000
0000
0000
0001
0000
,
0100
0100
0100
0100
,
0010
1000
0010
1000
0010
1000
0010
1000
0010
1000
0010
1000
0010
1000
0010
0000
,
1010
0000
1001
0000
0101
0000
0001
0100
,
0110
0000
0000
0010
0000
0000
1000
0000
1010
0000
0000
0010
0000
0000
0100
0000
,
0110
0000
1001
0000
1100
0000
1000
0100
,
0110
0000
0000
0100
0000
0000
1000
0000
1001
0000
0000
0001
0000
0000
0100
0000
,
0101
0000
1100
0000
0101
0000
0001
0100
,
0110
0000
0000
0010
0000
0000
1000
0000
1100
0000
0000
0000
1000
0000
0010
0000
,
0110
0000
1001
0000
0101
0000
0001
0100
,
0110
0000
0000
0010
0000
0000
1000
0000
1100
0000
0000
0100
0000
0000
0010
0000
,
0110
0000
1100
0000
0110
0000
0010
0100
,
1001
0000
0000
0001
0000
0000
0100
0000
0101
0000
0000
0001
0000
0000
0100
0000
,
0110
0000
1001
0000
0101
0000
0001
0100
,
0110
0000
0000
0010
0000
0000
1000
0000
1100
0000
0000
1000
0000
0000
0001
0000
,
0101
0000
1100
0000
0101
0000
0001
0001
,
0011
0000
0000
0010
0000
0000
0100
0000
0110
0000
0000
0010
0000
0000
0001
0000
,
0101
0000
1100
0000
1010
0000
0010
0010
,
0110
0000
0000
0001
0000
0000
1000
0000
0101
0000
0000
0001
0000
0000
1000
0000
,
0200
0000
0300
0000
;

//---------------dance-single - ----------------
#NOTES:
     dance-single:
     :
     Medium:
     7:
     0.383,0.410,0.027,0.062,0.142:
0000
0000
1000
0001
0000
0000
0001
1000
,
0000
0000
1000
0001
0000
0000
0001
0100
,
0010
0100
0010
1000
0000
0000
1000
0010
,
0000
0000
0010
0100
0000
0000
0100
0010
,
1000
0001
0010
0100
0000
0000
0100
1000
,
0000
0000
0100
0010
0000
0000
0010
0001
,
1000
0001
0100
0001
0000
0000
0001
0100
,
0000
0000
0100
0010
0000
0000
0010
1000
,
0001
1000
0100
0001
0000
0000
0001
0100
,
0000
0000
0100
1000
0000
0000
1000
0010
,
0001
0010
0100
0010
0000
0000
0010
1000
,
0000
0000
0010
0100
0000
0000
0100
0010
,
1000
0001
0010
0100
0000
0000
0100
0010
,
0000
0000
0100
0010
0000
0000
0100
0010
,
0001
1000
0010
1000
0000
0000
1000
0010
,
0000
0000
0010
0100
0000
0000
0010
1000
,
0001
1000
0000
0001
,
0000
0100
0000
0010
,
1000
0100
0000
0010
,
0000
0100
0000
1000
,
0010
0001
0000
0100
,
0000
0001
0000
0010
,
1000
0010
0000
0100
,
0000
0010
0000
0001
,
1000
0001
0000
0001
,
0000
1000
0000
0001
,
1000
0010
0000
0100
,
0000
0010
0000
1000
,
0010
0100
0000
0001
,
0000
1000
0000
0100
,
0001
0100
0000
1000
,
0020
0000
0000
0000
2000
0030
0000
0000
,
3100
1000
0100
0100
,
0010
0010
0100
0100
,
0010
0001
1000
0010
,
0010
1000
1000
0001
,
0010
0100
0100
0010
,
0001
1000
0010
1000
,
0001
0001
1000
1000
,
0001
0100
0010
1000
,
0001
0000
0000
1000
0000
0000
0100
0000
0001
0000
0000
0100
0000
0000
1000
0000
,
0010
0000
0000
0100
0000
0000
0010
0000
1000
0000
0000
0001
0000
0000
0010
0000
,
0100
0000
0000
1000
0000
0000
0100
0000
1000
0000
0000
0010
0000
0000
0100
0000
,
0010
0000
0000
1000
0000
0000
0001
0000
0010
0000
0000
1000
0000
0000
0010
0000
,
0100
0000
0000
0100
0000
0000
0100
0000
0010
0000
0000
0010
0000
0000
0010
0000
,
0001
0000
0000
0001
0000
0000
0001
0000
1000
0000
0000
1000
0000
0000
1000
0000
,
1000
0000
0000
0010
0000
0000
0100
0000
0001
0000
0000
0010
0000
0000
0100
0000
,
1000
0000
0000
0100
0000
0000
0010
0000
0001
0000
0000
1000
0000
0000
0010
0000
,
0220
0000
0000
0000
0000
0000
0330
0010
,
2000
0000
3002
0000
2000
0000
0000
3003
,
1001
0000
1000
0000
0010
0000
0100
0010
,
1000
0000
0000
1000
0000
0000
1000
0000
0001
0000
0000
0001
0000
0000
0001
0000
,
0010
0000
0010
0000
0100
0000
0100
0010
,
0001
0000
0000
0001
0000
0000
1000
0000
0010
0000
0000
0010
0000
0000
1000
0000
,
0001
0000
1000
0000
0100
0000
1000
0010
,
0100
0000
0000
0100
0000
0000
0100
0000
0001
0000
0000
0001
0000
0000
0001
0000
,
0010
0000
0100
0000
1000
0000
0100
1000
,
0010
0000
0000
0010
0000
0000
0010
0000
0100
0000
0000
0100
0000
0000
0100
0000
,
0010
0000
1000
0000
0001
0000
1000
0100
,
0010
0000
0000
0100
0000
0000
1000
0000
0010
0000
0000
0100
0000
0000
0001
0000
,
0010
0000
0001
0000
0010
0000
0001
0010
,
0100
0000
0000
0010
0000
0000
0001
0000
1000
0000
0000
0010
0000
0000
0100
0000
,
0001
0000
0001
0000
1000
0000
0001
0100
,
1000
0000
0000
0100
0000
0000
0010
0000
1000
0000
0000
0001
0000
0000
0010
0000
,
0100
0000
0100
0000
0100
0000
0100
0010
,
0001
0000
0000
1000
0000
0000
0010
0000
0100
0000
0000
0001
0000
0000
1000
0000
,
1001
0000
0000
0000
;

//---------------dance-single - ----------------
#NOTES:
     dance-single:
     :
     Easy:
     4:
     0.288,0.410,0.160,0.302,0.000:
0000
1000
0000
0001
,
0000
1000
0000
0010
,
0100
0001
0000
1000
,
0000
0100
0000
1000
,
0010
0001
0000
0010
,
0000
0001
0000
0001
,
0010
0100
0000
0010
,
0000
1000
0000
0001
,
1000
0100
0000
1000
,
0000
0010
0000
0100
,
0010
1000
0000
0001
,
0000
0010
0000
0001
,
0010
0100
0000
0010
,
0000
0001
0000
1000
,
0010
1000
0000
0010
,
0100
0100
0010
0010
,
2000
0000
0000
0000
,
0000
0000
0000
0000
,
3002
0000
0000
0000
,
0000
0000
0000
0000
,
0203
0000
0000
0000
,
0000
0000
0000
0000
,
0302
0000
0000
0000
,
2003
0000
0000
0000
,
3200
0000
0000
0000
,
0000
0000
0000
0000
,
0320
0000
0000
0000
,
0000
0000
0230
0000
,
2300
0000
0000
0000
,
0000
0000
0000
0000
,
3020
0000
0000
0000
,
0230
0000
0302
0000
,
0013
0001
0001
0010
,
0100
0100
0010
0010
,
0100
1000
0010
0100
,
0100
0010
0010
1000
,
0001
1000
0010
1000
,
1000
0001
0001
1000
,
0010
1000
0100
1000
,
0010
0100
0010
0100
,
0101
0000
1100
0000
,
0110
0000
1001
0000
,
0101
0000
1100
0000
,
0110
0000
0011
0000
,
1001
0000
0101
0000
,
0110
0000
1010
0000
,
0110
0000
1001
0000
,
0110
0000
1100
0000
,
0022
0000
0000
0000
,
0033
0000
0000
0000
,
0002
0000
0203
0000
0310
0000
0100
0010
,
0100
0100
0010
0010
,
2000
0000
3020
0000
0130
0000
0010
1000
,
0010
1000
0001
0010
,
0200
0000
0320
0000
0031
0000
0001
1000
,
0010
1000
0010
0100
,
0020
0000
2030
0000
3100
0000
0010
0001
,
0010
0001
0010
0100
,
0200
0000
0320
0000
0032
0000
1003
0001
,
0100
0100
0010
0010
,
2000
0000
3020
0000
0230
0000
0310
1000
,
0001
1000
0100
1000
,
0020
0000
2030
0000
3200
0000
1300
0100
,
0010
0100
1000
0010
,
0200
0000
0302
0000
0023
0000
0031
0010
,
1000
0010
0100
1000
,
1001
0000
0000
0000
;

//---------------dance-single - ----------------
#NOTES:
     dance-single:
     :
     Beginner:
     1:
     0.132,0.205,0.036,0.000,0.000: // measure 1
0010
0000
0000
0000
,  // measure 2
0000
0000
0000
0000
,  // measure 3
1000
0000
0000
0000
,  // measure 4
0000
0000
0001
0000
,  // measure 5
0100
0000
0000
0000
,  // measure 6
0000
0000
0000
0000
,  // measure 7
0010
0000
0000
0000
,  // measure 8
1000
0000
0001
0000
,  // measure 9
0010
0000
0000
0000
,  // measure 10
0000
0000
0000
0000
,  // measure 11
0100
0000
0000
0000
,  // measure 12
1000
0000
1000
0000
,  // measure 13
0001
0000
0000
0000
,  // measure 14
0000
0000
0000
0000
,  // measure 15
0100
0000
0000
0000
,  // measure 16
0001
0000
1000
0000
,  // measure 17
0010
0000
0000
0000
,  // measure 18
0000
0000
0000
0000
,  // measure 19
0100
0000
0000
0000
,  // measure 20
0000
0000
0010
0000
,  // measure 21
1000
0000
0000
0000
,  // measure 22
0000
0000
0000
0000
,  // measure 23
0001
0000
0000
0000
,  // measure 24
1000
0000
1000
0000
,  // measure 25
0000
0001
0000
0001
,  // measure 26
0000
0001
0000
0000
,  // measure 27
0000
1000
0000
1000
,  // measure 28
0000
1000
0000
0000
,  // measure 29
0000
0010
0000
0010
,  // measure 30
0000
0010
0000
0000
,  // measure 31
0000
0100
0000
0100
,  // measure 32
1001
0000
0000
0000
,  // measure 33
0110
0000
0000
0000
,  // measure 34
0010
0000
0000
0000
,  // measure 35
1000
0000
0000
0000
,  // measure 36
0001
0000
0000
0000
,  // measure 37
0100
0000
0000
0000
,  // measure 38
0001
0000
0000
0000
,  // measure 39
1000
0000
0000
0000
,  // measure 40
0010
0000
0000
0000
,  // measure 41
1001
0000
1000
0000
,  // measure 42
0001
0000
1000
0000
,  // measure 43
0001
0000
1000
0000
,  // measure 44
0001
0000
1000
0000
,  // measure 45
0010
0000
0100
0000
,  // measure 46
0010
0000
0100
0000
,  // measure 47
0010
0000
0100
0000
,  // measure 48
0010
0000
0100
0000
,  // measure 49
0001
0000
0000
0000
,  // measure 50
0000
0000
0000
0000
,  // measure 51
1000
1000
1000
0000
,  // measure 52
0100
0000
0100
0000
,  // measure 53
0010
0010
0010
0000
,  // measure 54
0001
0000
0001
0000
,  // measure 55
0100
0100
0100
0000
,  // measure 56
0010
0000
1000
0000
,  // measure 57
0001
0001
0001
0000
,  // measure 58
1000
0000
0010
0000
,  // measure 59
0100
0100
0100
0000
,  // measure 60
0010
0000
1000
0000
,  // measure 61
0001
0001
1000
0000
,  // measure 62
0100
0000
1000
0000
,  // measure 63
0100
0100
0010
0000
,  // measure 64
0100
0000
1000
0000
,  // measure 65
0001
0001
0100
0000
,  // measure 66
0010
0000
1000
0000
,  // measure 67
1001
0000
0000
0000
;
