#TITLE:C64;
#SUBTITLE:;
#ARTIST:ADSRe;
#TITLETRANSLIT:;
#SUBTITLETRANSLIT:;
#ARTISTTRANSLIT:;
#CREDIT:;
#BANNER:bn.png;
#BACKGROUND:bg.png;
#LYRICSPATH:;
#CDTITLE:;
#MUSIC:C64.mp3;
#OFFSET:0.014;
#SAMPLESTART:30.824;
#SAMPLELENGTH:12.000;
#SELECTABLE:YES;
#BPMS:0.000=140.160;
#STOPS:;
#BGCHANGES:0.000=c64mov.avi=1.000=0=0=1,
99999=-nosongbg-=1.000=0=0=0 // don't automatically add -songbackground-
;

//---------------dance-single - ----------------
#NOTES:
     dance-single:
     :
     Hard:
     7:
     0.355,0.460,0.178,0.229,0.021:
0000
0000
0000
0000
,
0000
0000
0000
0000
,
0000
0000
0000
0000
,
0000
0000
0000
0000
,
2000
0000
0000
3000
0000
0000
0001
0000
1000
0000
0100
0000
,
2000
3001
0200
0310
,
2000
0000
0000
3000
0000
0000
0001
0000
0001
0000
0100
0000
,
0020
1030
0020
0130
,
1001
0000
0101
0000
,
1010
0100
0001
0000
,
0010
0000
0101
0000
0001
0100
0010
0000
,
0100
0000
0010
0000
0100
0010
1000
0100
,
0010
0000
0100
0000
1000
0010
0100
0000
,
0002
0000
0020
0033
,
1100
0000
0010
0000
0100
0010
0001
0100
,
2000
0000
3100
0000
0100
0001
0100
0001
,
0010
0000
0100
0000
0100
1000
0010
0100
,
0002
0000
0003
0000
,
1000
0010
0100
0000
0010
1000
0100
0000
,
1000
0000
0001
0010
0000
0001
0100
0010
,
1000
0000
0000
1000
0000
0000
2000
0000
0000
0000
0000
0000
3001
0000
0000
0000
,
0110
0000
0010
0100
0010
0100
1000
0100
,
0010
0101
0010
0101
,
0001
0100
1000
0100
0000
0100
1000
0100
,
0020
0000
1030
0000
1000
0001
0010
0000
,
0010
0001
0100
0010
1000
0000
0101
0000
,
0022
0000
0000
0000
,
0033
0000
0000
0000
,
0001
0000
0001
0000
,
0010
0000
0010
0000
,
0001
0000
0001
0000
,
0100
0000
0100
0000
,
0010
0000
0010
0000
,
1000
0000
1000
0000
,
0001
0000
0001
0000
,
0001
0000
0100
0000
,
0001
0010
0200
0000
0000
0000
0000
0000
,
0310
0000
0010
0000
,
0010
0100
2000
0000
0000
0000
0000
0000
,
3001
0000
0001
0000
,
0100
0010
2000
0000
0000
0000
0000
0000
,
3100
0000
0010
0000
,
0001
0010
2000
0000
0000
0000
3000
0000
,
0010
0000
0001
0000
,
0110
0010
1000
0001
,
0010
0100
0010
0001
,
0001
0010
0100
0010
,
1000
0100
0010
0100
,
1000
0001
0100
0010
,
1000
0100
0010
0100
,
1000
0001
0100
0010
,
0200
0000
0002
0303
,
0001
0100
1000
0100
,
0001
0010
0100
0000
0100
0001
0010
0000
,
0100
1000
0100
0001
,
0100
1000
0010
0000
0100
0001
0010
0000
,
0010
0001
0100
0001
,
1000
0100
0001
0000
0001
0100
1000
0000
,
1000
0010
0100
0010
,
1000
0001
0010
0000
0100
1000
0010
0000
,
1010
0000
0010
1000
0100
0000
0010
0000
,
0102
0013
0120
1030
,
1001
0000
0001
0100
0001
0000
0100
0000
,
1020
0130
2100
3001
,
0110
0000
0010
1000
0001
0000
0010
0000
,
2100
3010
0102
0013
,
1100
0000
1000
0001
0100
0000
0010
0000
,
0200
0001
1000
0001
,
0300
0000
0000
0000
;

//---------------dance-single - ----------------
#NOTES:
     dance-single:
     :
     Medium:
     6:
     0.331,0.460,0.245,0.288,0.000:
0000
0000
0000
0000
,
0000
0000
0000
0000
,
0000
0000
0000
0000
,
0000
0000
0000
0000
,
0010
0000
0010
0000
,
0100
0010
1000
0100
,
0010
0000
0010
0000
,
0010
0100
1000
0001
,
0101
0000
1010
0000
,
0101
1010
1100
0000
,
1001
0000
0001
0000
1000
0000
0100
1000
,
0010
0000
0100
0000
0010
0000
0100
0001
,
1000
0000
0001
0000
0100
0000
0010
1000
,
0200
0000
0000
0000
,
1300
0000
0010
0000
0100
0000
0001
0100
,
0020
0000
0130
0000
0010
0000
1000
0001
,
0200
0000
0301
0000
1000
0000
0100
1000
,
0020
0000
0000
0000
0200
0000
0000
0330
,
0010
0000
0110
0000
0010
1000
0001
0000
,
0001
1010
0001
1010
,
2000
3200
0320
0032
,
0013
0000
0001
0100
0010
1000
0100
0010
,
0001
1100
0001
1100
,
0010
0100
0001
0000
0100
0000
1001
0000
,
1000
1000
0001
0000
0100
0000
0010
0000
,
1000
0000
0100
0000
0001
0100
1000
0000
,
0020
0000
0000
0000
,
0000
0000
0000
0030
,
0100
0000
0100
0000
,
0100
0000
0100
0000
,
0010
0000
0010
0000
,
1000
0000
1000
0000
,
0001
0000
0001
0000
,
1000
0000
0010
0000
,
0100
0000
0100
0000
,
0010
0000
1000
0000
,
0002
0000
0000
0000
,
2000
0000
0000
3003
0000
0000
0000
0000
,
0020
0000
0000
0000
,
0200
0000
0000
0330
0000
0000
0000
0000
,
2000
0000
0000
0000
,
0020
0000
0000
3030
0000
0000
0000
0000
,
0200
0000
0000
0000
,
0020
0000
0000
0330
0000
0000
0000
0000
,
0110
0010
0010
0010
,
1001
0010
1001
0010
,
0110
0100
0100
0100
,
1001
0100
1001
0100
,
0101
0001
0001
0001
,
1010
0001
1010
0100
,
0110
0010
0010
0010
,
2000
0000
0200
3300
,
1000
0001
0100
0001
,
2000
3100
2000
3100
,
1000
0010
0100
0010
,
2000
3001
0002
0103
,
0001
0010
0001
0100
,
0020
0130
0200
0310
,
0100
0010
1000
0001
,
0020
0130
0200
1300
,
1100
1000
0010
0100
,
0002
0103
0002
0013
,
0110
0100
1000
0010
,
0200
0310
0020
1030
,
0101
0001
1000
0100
,
0020
0000
0130
0000
0200
0300
1000
0000
,
1100
0010
0110
0010
,
0101
0000
1010
0000
0001
0100
0010
1000
,
0001
0000
0000
0000
;

//---------------dance-single - ----------------
#NOTES:
     dance-single:
     :
     Easy:
     5:
     0.274,0.317,0.000,0.051,0.000:
0000
0000
0000
0000
,
0000
0000
0000
0000
,
0000
0000
0000
0000
,
0000
0000
0000
0000
,
0001
0000
0001
0000
,
0001
1000
0001
1000
,
0010
0000
0010
0000
,
0010
1000
0100
0010
,
0010
0000
0001
0000
,
0010
0001
0010
0001
,
0001
0001
0100
0010
,
0010
0010
1000
0100
,
0010
0100
1000
0010
,
0200
0000
0000
0300
,
0010
0010
1000
0001
,
0001
0001
0100
0010
,
0001
0001
0100
0010
,
2000
0000
0000
0000
3010
1000
0010
1000
,
0010
1000
0010
1000
,
0001
1000
0001
1000
,
0100
1000
0100
1000
,
0100
0010
0001
0010
,
0100
1000
0100
1000
,
0010
1000
0010
1000
,
0010
0100
0010
0100
,
0001
0000
0100
0000
0001
0100
0001
0000
,
0002
0000
0000
0000
,
0000
0000
0000
0003
,
0001
0000
0001
0000
,
0001
0000
0001
0000
,
0001
0000
0001
0000
,
0001
0000
0001
0000
,
1000
0000
1000
0000
,
1000
0000
1000
0000
,
1000
0000
1000
0000
,
1000
0000
1000
0000
,
1000
0000
0000
0000
,
0010
0100
0010
0100
0000
0000
0000
0000
,
0010
0000
0000
0000
,
0100
0001
0100
0001
0000
0000
0000
0000
,
1000
0000
0000
0000
,
1000
0100
1000
0100
0000
0000
0000
0000
,
0100
0000
0000
0000
,
0100
0010
0100
0010
0000
0000
0000
0000
,
0010
0001
0010
0001
,
0010
0001
0010
0001
,
0100
0010
0100
0010
,
0100
0010
0100
0010
,
1000
0010
1000
0010
,
1000
0010
1000
0010
,
1000
0100
1000
0100
,
2000
0000
0000
0000
3200
0000
0010
0010
,
0310
0001
0010
1000
,
0010
0010
0010
0010
,
0001
0100
1000
0100
,
0010
0000
0010
0000
0010
0000
0010
0100
,
0010
0010
1000
0001
,
0010
0010
0010
0010
,
0100
1000
0010
0100
,
0001
0100
0020
1030
,
0100
1000
0100
0010
,
0001
0000
0010
0000
0001
0000
0010
0001
,
0001
0100
0010
1000
,
0001
0000
1000
0000
0001
0000
0001
0100
,
0001
0001
0100
0001
,
0001
0000
0010
0000
0010
0000
0100
0100
,
0100
1000
0010
0100
,
0001
0000
0001
0000
0001
0100
0001
0100
,
0001
0000
0000
0000
;

//---------------dance-single - ----------------
#NOTES:
     dance-single:
     :
     Beginner:
     1:
     0.105,0.200,0.034,0.000,0.000:
0000
0000
0000
0000
,
0000
0000
0000
0000
,
0000
0000
0000
0000
,
0000
0000
0000
0000
,
0001
0000
0001
0000
,
0001
0000
0000
0000
,
1000
0000
1000
0000
,
1000
0000
0000
0000
,
0010
0000
0010
0000
,
0010
0010
0010
0000
,
0110
0000
0000
0000
,
1000
0000
0000
0000
,
0001
0000
0000
0000
,
0100
0000
0000
0000
,
0010
0000
0000
0000
,
1000
0000
0000
0000
,
0001
0000
0000
0000
,
0010
0000
0000
0000
,
0100
0000
0000
0000
,
1000
0000
0000
0000
,
0010
0000
0000
0000
,
0100
0000
0100
0000
,
0001
0000
0000
0000
,
1000
0000
0000
0000
,
0010
0000
0000
0000
,
0100
0000
0010
0000
,
1001
0000
0000
0000
,
0000
0000
0000
0000
,
0001
0000
0000
0000
,
1000
0000
0000
0000
,
0001
0000
0000
0000
,
1000
0000
0000
0000
,
0010
0000
0000
0000
,
0100
0000
0000
0000
,
0010
0000
0000
0000
,
0100
0000
0000
0000
,
0010
0000
0000
0000
,
1000
0000
0000
0000
,
0010
0000
0000
0000
,
0100
0000
0000
0000
,
0010
0000
0000
0000
,
0001
0000
0000
0000
,
0010
0000
0000
0000
,
0100
0000
0000
0000
,
1001
0000
0000
0000
,
0001
0000
1000
0000
,
0100
0000
0000
0000
,
0010
0000
0100
0000
,
0001
0000
0000
0000
,
0000
0000
0001
0000
,
0010
0000
0000
0000
,
0100
0000
0100
0000
,
0110
0000
0000
0000
,
0010
0000
0010
0000
,
0100
0000
0000
0000
,
1000
0000
0001
0000
,
1000
0000
0000
0000
,
0010
0000
0010
0000
,
0100
0000
0000
0000
,
0001
0000
1000
0000
,
0010
0000
0000
0000
,
1000
0000
0100
0000
,
0010
0000
0000
0000
,
0010
0000
0001
0000
,
0100
0000
0000
0000
,
0010
0000
1000
0000
,
0100
0000
1000
0000
,
0001
0001
0001
0000
;

//---------------dance-single - ----------------
#NOTES:
     dance-single:
     :
     Challenge:
     9:
     0.521,0.613,0.229,0.347,0.334: // measure 1
0000
0000
0000
0000
,  // measure 2
0000
0000
0000
0000
,  // measure 3
0000
0000
0000
0000
,  // measure 4
0000
0000
0000
0000
,  // measure 5
0020
0000
0000
0030
0000
0000
1000
0000
0001
0000
1000
0000
,  // measure 6
1010
0001
1100
0010
,  // measure 7
0200
0000
0000
0310
0000
0000
0100
0000
0010
0000
0001
0000
,  // measure 8
2000
3010
0200
0310
,  // measure 9
0101
0000
1010
0000
,  // measure 10
1001
0000
0011
0000
0001
0100
0110
0000
,  // measure 11
1001
0000
0000
0000
0010
0000
0000
0100
0000
0010
0000
1000
0001
1000
0001
0000
,  // measure 12
0101
0000
0000
0000
0000
0000
0000
0001
0000
1000
0000
1000
0100
1000
0100
0000
,  // measure 13
0110
0000
0000
0000
0000
0000
0000
0010
0000
0001
0000
0001
1000
0001
1000
0000
,  // measure 14
2002
0000
0000
0000
0000
0000
0000
3003
,  // measure 15
1001
0000
0000
0000
0001
0000
1000
0100
0000
0010
0000
0100
1000
0100
1000
0000
,  // measure 16
0020
0000
0000
0000
0030
0000
0100
0010
0000
1000
0000
0001
0100
0001
0100
0000
,  // measure 17
0110
0000
0000
0000
0000
0000
0010
0100
0000
0010
0000
1000
0010
1000
0010
0000
,  // measure 18
0200
0000
0000
0000
0000
0000
0000
0000
0310
1000
0100
0010
0001
0000
1000
0000
,  // measure 19
0010
0000
0000
1000
0000
0000
0100
0000
0010
0000
0100
0000
1000
0000
0001
0000
,  // measure 20
0100
0000
0000
0010
1000
0000
0100
0000
0000
0100
0010
0000
0010
0000
0001
0000
,  // measure 21
2001
0000
0000
0100
0000
0000
3020
0000
0000
0000
0000
0000
0001
0000
0000
0000
,  // measure 22
0130
0000
0010
1000
0001
0010
1000
0010
,  // measure 23
0100
0000
0000
0001
0000
0000
0010
0000
1000
0000
0100
0000
1000
0000
0010
0000
,  // measure 24
0100
0000
0000
0001
0010
0000
0001
0000
0000
0000
0000
0001
0100
0000
0010
0000
,  // measure 25
2010
0010
3010
0100
0001
0010
1000
0010
,  // measure 26
0001
0000
1000
0000
0001
1000
1001
0000
,  // measure 27
0210
0010
0010
0010
0010
0010
0010
0010
,  // measure 28
0010
0010
0010
0010
0010
0000
0000
0000
,  // measure 29
0320
0000
2030
0000
,  // measure 30
0100
0000
0100
3000
,  // measure 31
0002
0000
0203
0000
,  // measure 32
0010
0000
1000
0000
,  // measure 33
0320
0000
2030
0000
,  // measure 34
0001
0000
0001
0000
,  // measure 35
3002
0000
0203
0000
,  // measure 36
0302
0000
0023
0000
,  // measure 37
0130
1000
0020
0000
0000
0000
0000
0000
,  // measure 38
0130
0010
1000
0001
0000
0000
0000
0000
,  // measure 39
0001
0010
0200
0000
0000
0000
0000
0000
,  // measure 40
0310
0001
0010
1000
0000
0000
0000
0000
,  // measure 41
1000
0100
0020
0000
0000
0000
0000
0000
,  // measure 42
0130
1000
0010
0001
0000
0000
0000
0000
,  // measure 43
0001
0010
0200
0000
0000
0000
0000
0000
,  // measure 44
0310
1000
0001
1000
0000
1000
0000
0001
,  // measure 45
0101
0000
0000
0001
0100
0000
0000
0100
0010
0000
0000
0010
1000
0000
0000
1000
,  // measure 46
0001
0000
0000
0001
1000
0000
0000
1000
0001
0000
0000
0001
1000
0000
0000
1000
,  // measure 47
0010
0000
0000
0010
0100
0000
0000
0100
0001
0000
0000
0001
0010
0000
0000
0010
,  // measure 48
0100
0000
0000
0100
0010
0000
0000
0010
0100
0000
0000
0100
0010
0000
0000
0010
,  // measure 49
0100
0000
0000
0100
1000
0000
0000
1000
0010
0000
0000
0100
0001
0000
0000
0001
,  // measure 50
0010
0000
0000
0010
0001
0000
0000
0001
0010
0000
0000
0010
0001
0000
0000
0001
,  // measure 51
0100
0000
0000
0010
1000
0000
0000
1000
0100
0000
0000
0010
0001
0000
0000
0001
,  // measure 52
0200
0000
0000
0000
1000
0000
0000
0000
0320
0000
0000
0000
1030
0010
0100
0001
,  // measure 53
1000
0000
0000
1000
0100
0000
1000
0000
0010
0000
0100
0000
0001
0000
0010
0000
,  // measure 54
0002
0100
0010
1000
,  // measure 55
0103
0000
0000
0010
0100
0000
0001
0000
1000
0000
0100
0000
1000
0000
0010
0000
,  // measure 56
0200
1000
0010
1000
,  // measure 57
0310
0000
0000
0100
0001
0000
0010
0000
0001
0000
1000
0000
0100
0000
0010
0000
,  // measure 58
0002
0010
0100
1000
,  // measure 59
0013
0000
0000
0001
1000
0000
0100
0000
1000
0000
0001
0000
0010
0000
1000
0000
,  // measure 60
0020
0001
0230
2300
,  // measure 61
3010
0000
0000
0010
0100
0000
0001
0000
1000
0000
0100
0000
0010
0000
0001
0000
,  // measure 62
0021
0001
0031
0000
1002
1000
1003
0000
,  // measure 63
1010
0000
0000
0100
0001
0000
0010
0000
0001
0000
1000
0000
0100
0000
1000
0000
,  // measure 64
1020
1000
1030
0000
0210
0010
0310
0000
,  // measure 65
1001
0000
0000
0010
0100
0000
0001
0000
1000
0000
0100
0000
1000
0000
0010
0000
,  // measure 66
0201
0001
0301
0000
2010
0010
3010
0000
,  // measure 67
1001
0000
0000
0001
0100
0000
1000
0000
0100
0000
0010
0000
1000
0000
0001
0000
,  // measure 68
0010
0000
0000
0000
0010
0000
0000
0000
0010
0001
0100
1000
0100
0010
1000
0001
,  // measure 69
0020
0000
0000
0000
,  // measure 70
0030
0000
0000
0000
;
