#TITLE:Breaking the ground;
#SUBTITLE:;
#ARTIST:Art of Fighters;
#TITLETRANSLIT:;
#SUBTITLETRANSLIT:;
#ARTISTTRANSLIT:;
#CREDIT:;
#BANNER:bn.png;
#BACKGROUND:bg.png;
#LYRICSPATH:;
#CDTITLE:;
#MUSIC:2.15. Breaking the ground.mp3;
#OFFSET:-0.916;
#SAMPLESTART:70.280;
#SAMPLELENGTH:12.000;
#SELECTABLE:YES;
#BPMS:0.000=166.000;
#STOPS:28.000=1.084
;
#BGCHANGES:;

//---------------dance-single - ----------------
#NOTES:
     dance-single:
     :
     Hard:
     9:
     0.534,0.587,0.496,0.220,0.007: // measure 1
0000
0000
0000
0000
,  // measure 2
0000
0000
0000
0000
,  // measure 3
0000
0000
0000
0000
,  // measure 4
0000
0000
0000
0000
,  // measure 5
0001
1000
0010
1000
,  // measure 6
0001
1000
0100
1000
,  // measure 7
0010
1000
0001
0010
0001
1000
0100
0010
,  // measure 8
0001
0101
0011
0101
,  // measure 9
0011
0000
0101
0000
0011
0000
0101
0100
,  // measure 10
0010
1000
1100
0000
0110
0000
0011
0000
,  // measure 11
0110
0000
1100
0000
0110
0000
0010
0001
,  // measure 12
0100
0010
1000
1100
0110
0000
0011
0000
,  // measure 13
0110
0000
1001
0000
0101
0000
1010
1010
,  // measure 14
0000
1000
1001
0000
0101
0000
0011
0000
,  // measure 15
0110
2100
0100
0020
,  // measure 16
3030
0000
0010
1000
0000
1000
0100
0001
,  // measure 17
0000
0001
0100
0010
0000
0100
0010
0001
,  // measure 18
0000
0001
0100
1000
0000
1000
0010
0001
,  // measure 19
0000
0001
0010
0100
0000
0100
0010
1000
,  // measure 20
0000
1000
0001
0010
0000
0010
0100
1000
,  // measure 21
0000
1000
0100
0001
0000
0100
1000
0010
,  // measure 22
0000
0100
0010
0001
0000
0001
0010
0100
,  // measure 23
0000
0100
0010
2000
0000
0001
0002
0000
,  // measure 24
3003
2100
0000
0000
,  // measure 25
0000
0000
0000
0000
,  // measure 26
0000
3020
0000
0000
,  // measure 27
0000
0230
0000
0000
,  // measure 28
0000
0320
0000
0000
,  // measure 29
0000
0000
0000
0000
,  // measure 30
0000
0230
0000
0000
,  // measure 31
0000
0302
0000
0000
,  // measure 32
0000
1003
1000
0010
,  // measure 33
0100
0001
0010
1000
,  // measure 34
0010
0001
0100
0000
0001
0000
1000
0000
,  // measure 35
0001
0100
0001
0010
1000
0100
0010
0000
,  // measure 36
0010
0100
1000
0000
0010
0000
1000
0000
,  // measure 37
0010
0100
0001
0010
,  // measure 38
0001
0100
0010
0000
1000
0000
0010
0000
,  // measure 39
1000
0001
0100
0001
0010
0100
1000
0000
,  // measure 40
0100
0000
0210
0000
0000
1000
0000
0010
,  // measure 41
0000
0310
0020
0000
0000
0001
0000
1000
,  // measure 42
0000
0031
1000
0010
1000
0010
0000
0100
,  // measure 43
0000
0000
0010
0020
0000
1000
2000
0000
,  // measure 44
3030
0001
0001
0001
,  // measure 45
0001
0001
0001
0001
,  // measure 46
0001
0000
0002
0000
2003
0002
3000
0023
,  // measure 47
0000
0230
2000
0300
3020
0000
0200
0000
,  // measure 48
0330
0000
0001
1000
0001
0100
0001
1000
,  // measure 49
0001
0100
0001
1000
0100
1000
0001
1000
,  // measure 50
0100
1000
0010
0100
0010
1000
0010
0100
,  // measure 51
0010
1000
0001
0010
0100
0010
0022
0000
,  // measure 52
0000
0033
0001
1000
0100
1000
0010
0100
,  // measure 53
0001
0010
0001
1000
0100
1000
0010
0100
,  // measure 54
0001
0010
0100
1000
0010
0100
0001
1000
,  // measure 55
0100
0000
0001
0000
0100
0000
0000
0100
0000
0000
0100
0000
0010
0000
0000
0010
,  // measure 56
0000
0010
0100
1000
0010
0100
0001
1000
,  // measure 57
0100
1000
0010
1000
0100
0010
0001
0002
,  // measure 58
0000
1003
0100
0010
0001
0010
0100
1000
,  // measure 59
0010
1000
0010
0001
0100
0010
1000
0100
,  // measure 60
0010
0100
1000
0001
1000
0010
1000
0100
,  // measure 61
1000
1000
0001
0100
0001
1000
0001
0010
,  // measure 62
0001
0001
0100
1000
0100
0001
0100
1000
,  // measure 63
0100
0010
1000
0001
1000
0001
1000
0100
,  // measure 64
0010
0001
0011
0000
0010
0000
0010
0000
,  // measure 65
0010
0100
0100
0100
,  // measure 66
0100
1000
1000
1000
,  // measure 67
1000
0001
1000
0010
,  // measure 68
0100
0000
0001
0100
0010
1000
0001
0100
,  // measure 69
0010
1000
0001
0100
0010
1000
0001
0100
,  // measure 70
0010
1000
0001
0010
0100
1000
0100
0010
,  // measure 71
0001
0100
2020
0000
0000
0000
0000
0000
,  // measure 72
3030
1010
0101
0011
,  // measure 73
0110
1100
0110
0011
,  // measure 74
0001
0100
0110
0000
1001
0000
0110
0000
,  // measure 75
0001
0100
0010
1000
0100
0010
0001
0000
,  // measure 76
0010
0001
0011
0000
1100
0000
1001
0000
,  // measure 77
1100
0110
1001
0101
,  // measure 78
0001
0100
0110
0000
1001
0000
0110
0000
,  // measure 79
0001
0100
0010
1000
0100
0010
0001
0100
,  // measure 80
1000
0100
0110
0000
0110
0000
1001
0000
,  // measure 81
1001
0101
1010
1100
,  // measure 82
0100
0010
0011
0000
0110
0000
1100
0000
,  // measure 83
0100
1000
0010
0100
0001
1000
0001
1000
,  // measure 84
0001
0100
0101
0000
0101
0000
0101
0000
,  // measure 85
0101
1100
1100
1100
,  // measure 86
1100
0000
0100
1000
0001
0020
0000
0200
,  // measure 87
0330
0000
0100
0200
0000
0010
0020
0000
,  // measure 88
0330
1001
0000
0000
;

//---------------dance-single - ----------------
#NOTES:
     dance-single:
     :
     Medium:
     7:
     0.468,0.557,0.907,0.078,0.000:
0000
0000
0000
0000
,
0000
0000
0000
0000
,
0000
0000
0000
0000
,
0000
0000
0000
0000
,
0001
0001
1000
1000
,
0001
0001
1000
1000
,
0010
0100
0010
0100
0000
0100
0000
0000
,
1001
0101
1100
0101
,
1100
0101
1100
0101
,
1100
0101
1100
0101
,
1100
0101
1100
1001
,
0110
0011
1010
0011
,
1010
0011
1010
0011
,
1010
0000
0010
0000
0100
0010
0000
1000
,
0000
0001
0010
0000
0100
0000
2000
0000
,
0000
0000
3100
1000
0000
0000
0100
1000
,
0000
0000
1000
0010
0000
0000
0010
0100
,
0000
0000
0010
1000
0000
0000
0010
0100
,
0000
0000
0010
1000
0000
0000
1000
0001
,
0000
0000
0001
0010
0000
0000
0010
0100
,
0000
0000
0100
1000
0000
0000
1000
0100
,
0000
0000
1000
0000
0100
0001
0000
0100
,
0000
0000
0001
0100
0000
0100
0010
0000
,
0000
2002
0000
0000
,
0000
0000
0000
0000
,
0000
3000
0000
0000
,
0000
0003
0000
0000
,
0000
0200
0000
0000
,
0000
0000
0000
0000
,
0000
0320
0000
0000
,
0000
2030
0000
0000
,
0000
3100
1000
0100
,
0010
0001
0010
0100
,
1000
0001
1000
0000
0001
0000
0100
0000
,
0001
0100
0010
0000
0100
0000
0010
0000
,
1000
0010
0100
0000
0100
0000
0010
0000
,
0010
1000
1000
0001
,
1000
1000
0001
0000
0100
0000
0010
0000
,
0100
0100
0010
0000
1000
0000
0001
0010
,
0100
0000
0110
0000
0000
0001
0000
1000
,
0000
0010
0010
0000
0000
1000
0000
0001
,
0000
0010
0010
0100
1000
0100
0000
1000
,
0000
0000
0100
0010
0000
0010
0001
0000
,
0000
1000
1000
1000
,
1000
1000
1000
1000
,
1000
0202
0000
0000
,
0000
0000
0000
0303
,
0000
1001
1010
1001
,
0011
1001
1010
1001
,
0011
1001
1010
1001
,
0011
1001
0110
1001
,
0110
1001
0101
1001
,
1100
1001
0101
1001
,
1100
1001
0101
1001
,
1100
0000
1001
0000
0110
0000
0001
0100
,
1000
0100
0010
0000
0110
0000
1010
0000
,
0110
1010
0110
0011
,
0110
1001
0101
1100
,
0110
0011
0110
1001
,
0110
0101
1010
1100
,
0110
1100
0110
1001
,
0110
0101
1010
1100
,
0011
1001
1001
0110
,
0110
0000
0010
0000
0000
1000
0000
1000
,
0000
0001
0001
0000
0000
1000
0000
0100
,
0000
0010
0010
0000
0000
0100
0000
1000
,
0000
0100
1000
0000
0010
0000
0100
0000
,
0001
0000
1000
0001
1000
0001
1000
0001
,
1000
0001
1000
0001
1000
0001
1000
0001
,
1000
0001
1000
0001
0100
1000
0000
0100
,
0000
0220
0000
0000
,
0330
0110
1010
1010
,
0110
1001
0011
1100
,
0100
1000
1100
0000
0110
0000
0011
0000
,
0110
1001
0110
1001
,
0110
1001
0101
1010
,
0101
1010
0101
0110
,
0010
0100
0110
0000
1010
0000
0110
0000
,
0110
0000
1001
0000
1100
0000
1000
0100
,
0010
0001
1100
0001
,
0101
0010
1001
0110
,
0001
0100
0010
0000
1001
0000
0010
0000
,
1100
0000
0010
0001
0010
0100
1000
0000
,
0100
1000
0010
0000
0101
0000
0010
0000
,
1100
0100
0011
0100
,
1010
0000
0010
1000
0001
0010
0000
0100
,
0000
0000
1000
1000
0000
0001
0002
0000
,
0000
0103
0000
0000
;

//---------------dance-single - ----------------
#NOTES:
     dance-single:
     :
     Easy:
     5:
     0.312,0.557,0.191,0.113,0.000:
0000
0000
0000
0000
,
0000
0000
0000
0000
,
0000
0000
0000
0000
,
0000
0000
0000
0000
,
1000
0001
1000
0001
,
1000
0001
1000
0001
,
0100
0100
0010
0010
,
1001
0001
1000
0010
,
0100
0010
1000
0001
,
1000
0001
1000
0000
0001
0000
0100
0000
,
0010
1000
0100
1000
,
0100
0000
0000
1000
1000
0000
0100
0000
,
1000
0000
0010
0000
0100
0000
0010
0100
,
0000
0010
1000
0001
,
0010
0110
0110
0110
,
0000
0010
0000
0100
,
0000
1000
0000
0001
,
0000
0100
0000
0010
,
0000
1000
0000
0001
,
0000
1000
0000
0001
,
0000
0100
0000
1000
,
0000
0100
0010
1000
,
0001
0100
0000
0000
,
0000
0220
0000
0000
,
0000
0000
0000
0000
,
0000
0300
0000
0000
,
0000
0030
0000
0000
,
0000
2002
0000
0000
,
0000
0000
0000
0000
,
0000
0003
0000
0000
,
0000
3000
0000
0000
,
0000
0010
1000
0010
,
1000
0010
1000
0010
,
1000
0001
1000
0001
,
1000
0100
0010
0100
,
1000
0001
0100
0001
,
0100
0001
0100
0001
,
0100
0100
0010
1000
,
0001
0010
0010
0001
,
1000
2002
0000
0000
,
3000
0200
0000
0000
,
0300
0020
0000
0000
,
0003
0200
0000
0000
,
0330
0010
0010
0010
,
0010
0010
0010
0010
,
0010
2002
0000
0000
,
0000
0000
0000
3003
,
0000
0001
1000
0010
,
1000
0100
1000
0010
,
0100
0010
0100
0000
0010
0000
1000
0000
,
0001
0000
0010
0000
0100
0000
1000
1000
,
0000
1000
1000
0000
0001
0000
0100
0000
,
0010
0010
0100
0010
,
1000
0001
1000
0000
0001
0000
0100
0000
,
0010
1010
0010
0110
,
0010
1001
1000
0100
,
1000
0000
0100
0000
0001
0000
0100
0010
,
0000
0010
0100
0000
0100
0000
1000
0000
,
1000
1000
0100
0010
,
0001
0010
0001
0000
0100
0000
0010
0000
,
1000
0001
1000
0100
,
1000
0000
0010
0000
0100
0000
0010
1000
,
0010
0100
0010
1000
,
0001
0010
0000
0000
,
0000
0100
0000
0000
,
0000
1000
0000
0000
,
0000
0001
0000
1000
,
0000
1001
1001
1001
,
1001
1001
1001
1001
,
1001
0101
1100
0101
,
1100
2002
0000
0000
,
3003
0001
0001
1000
,
1000
0010
1000
0010
,
0100
0010
0100
0000
0010
0000
1000
0000
,
0001
0010
0100
0000
1000
0000
0100
0000
,
1000
0100
0010
0000
0100
0000
1000
0000
,
0010
0100
0010
1000
,
0001
0100
0001
0000
0100
0000
0010
0000
,
1000
0010
0100
0000
0010
0000
0110
0000
,
1001
0110
0010
0010
,
0100
0100
1000
0100
,
1000
1000
0100
0000
1000
0000
0010
0000
,
0100
0010
1000
0000
0001
0000
0010
0000
,
0100
1000
0010
0000
0010
0000
0010
0000
,
0010
0010
0010
0010
,
0010
0200
0000
0000
,
0000
0302
0000
2003
,
0000
3100
0000
0000
;

//---------------dance-single - ----------------
#NOTES:
     dance-single:
     :
     Beginner:
     1:
     0.140,0.155,0.071,0.000,0.000:
0000
0000
0000
0000
,
0000
0000
0000
0000
,
0000
0000
0000
0000
,
0000
0000
0000
0000
,
0010
0000
0000
0000
,
0010
0000
0000
0000
,
0100
0000
0010
0000
,
1001
0001
0000
0000
,
0000
1000
0000
0000
,
0010
0010
0000
0000
,
0000
0100
0000
0010
,
1000
0000
0001
0000
,
0000
1000
0000
0000
,
0000
0001
0000
1000
,
0000
0010
0010
0010
,
0000
0100
0000
0000
,
0000
0001
0000
0000
,
0000
1000
0000
0000
,
0000
0100
0000
1000
,
0000
0010
0000
0000
,
0000
0100
0000
0000
,
0000
0001
0000
1000
,
0000
1001
0000
0000
,
0000
0110
0000
0000
,
0000
0000
0000
0000
,
0000
0000
0000
0000
,
0000
0000
0000
0000
,
0000
0000
0000
0000
,
0000
0000
0000
0000
,
0000
0000
0000
0000
,
0000
0000
0000
0000
,
0000
0001
0000
0000
,
0000
1000
0000
0000
,
0001
0001
0000
0000
,
1000
1000
0000
0001
,
0000
0110
0000
0000
,
0000
0100
0000
0000
,
0010
0010
0000
0000
,
0100
0100
0000
0010
,
0000
1001
0000
0000
,
0000
0100
0000
0000
,
0000
0001
0000
1000
,
0000
0010
0010
0010
,
0000
0100
0000
0100
,
0000
0100
0000
0100
,
0000
1001
0000
0000
,
0000
0000
0000
0000
,
0000
0100
0000
0000
,
0000
0010
0000
0000
,
0000
1000
0000
0000
,
0000
0001
0000
1000
,
0000
0010
0000
0000
,
0000
1000
0000
0000
,
0000
0001
0000
0000
,
0000
0100
0000
0010
,
0000
1001
0000
0000
,
0000
0100
0000
0000
,
0000
0010
0000
0000
,
0000
1000
0000
0001
,
0000
1000
0000
0000
,
0000
0010
0000
0000
,
0000
1000
0000
0000
,
0000
0001
0000
1000
,
0000
0010
0000
0000
,
0000
0100
0000
0000
,
0000
0001
0000
0000
,
0000
1000
0000
0001
,
0000
0100
0000
0010
,
0000
1000
0000
0001
,
0000
1000
1000
1000
,
0000
0110
0000
0000
,
0000
1001
0000
0100
,
0000
0010
0010
0010
,
0000
0100
0000
0001
,
0000
1000
1000
1000
,
0000
0001
0000
1000
,
0000
0010
0010
0010
,
0000
1000
0000
0001
,
0000
0010
0010
0010
,
0000
0100
0000
0010
,
0000
0001
0001
0001
,
0000
1000
0000
0010
,
0000
0100
0100
0100
,
0000
0010
0000
1000
,
0000
0001
0001
0001
,
0000
1000
0000
0000
,
0000
0001
0000
1000
,
0000
1001
0000
0000
;
