#TITLE:Blackout City;
#SUBTITLE:;
#ARTIST:Anamanaguchi;
#TITLETRANSLIT:;
#SUBTITLETRANSLIT:;
#ARTISTTRANSLIT:;
#CREDIT:;
#BANNER:bn.png;
#BACKGROUND:bg.png;
#LYRICSPATH:;
#CDTITLE:;
#MUSIC:Blackout City.mp3;
#OFFSET:-0.132;
#SAMPLESTART:82.040;
#SAMPLELENGTH:12.000;
#SELECTABLE:YES;
#BPMS:0.000=187.500;
#STOPS:;
#BGCHANGES:0.000=movie 1.avi=1.000=1=1=0,
384.000=bg.png=1.000=0=0=1,
99999=-nosongbg-=1.000=0=0=0 // don't automatically add -songbackground-
;

//---------------dance-single - ----------------
#NOTES:
     dance-single:
     :
     Hard:
     9:
     0.671,0.694,0.271,0.032,0.012:
0000
0000
0000
0000
,
0000
0000
0000
0000
,
0000
0000
0000
0000
,
0000
0000
0000
0000
,
0001
0100
0010
0000
0100
0010
1000
0000
,
0001
0010
0100
1000
0000
0100
1000
0010
,
0100
0001
0010
0000
0010
0100
0010
0100
,
0000
0100
1000
0100
0001
0100
0010
0001
,
0100
0010
1000
0000
0001
0010
0100
0000
,
0010
0001
0100
0001
0000
0001
1000
0001
,
0010
0000
0001
0100
1000
0100
0010
1000
,
0000
1000
0001
1000
0100
0010
0100
1000
,
0001
1000
0001
0000
0100
0010
0100
0000
,
0100
0010
1000
0100
0000
0100
0010
0100
,
1000
0000
0001
0000
0100
1000
0100
0010
,
0000
0100
1000
0100
0001
0010
1000
0010
,
0100
0000
0010
0001
0100
0001
0010
0001
,
0000
0001
1000
0001
1000
0001
0100
0001
,
0010
0100
1000
0100
0010
0100
1000
0010
,
0200
0000
0000
0000
,
0310
0010
0100
0001
0000
0001
0000
1000
,
0000
1000
0000
1000
0010
0000
0100
0000
,
0000
0000
0100
0001
0000
0010
0000
0001
,
0000
0001
0000
0001
0010
0000
0100
0000
,
1100
0011
0101
1010
,
1001
0000
0110
0000
1001
0000
0001
0100
,
0110
0101
0011
0110
,
1000
0100
0001
0100
1000
0100
0010
0100
,
1000
0001
1000
0001
1000
1000
0000
0010
,
1000
1000
0010
1000
0001
0010
0100
0010
,
0001
0100
1000
0100
0010
0100
1000
0100
,
0010
1000
0100
0010
0001
1000
0100
0010
,
0001
0010
0001
0010
0001
0001
0000
0001
,
0010
0100
0100
1000
0010
0100
0010
1000
,
0001
0010
0100
0010
0001
1000
0010
1000
,
0100
0000
0100
0000
0100
0000
0100
0000
0000
0010
0000
0000
,
0001
0100
0001
1000
0100
1000
0000
0010
,
0000
0100
0010
1000
0001
0010
0100
0010
,
0001
0100
0010
1000
0001
0100
0010
1000
,
0001
0010
0100
0010
0100
1000
0100
0000
,
1000
0100
0010
0001
0010
0100
0000
0100
,
0000
0100
0010
0001
0010
1000
0010
0001
,
0100
0001
1000
0010
0100
0001
1000
0010
,
1000
0000
0000
1000
0000
0000
1000
0000
0000
0000
0000
0000
0000
0000
0000
0000
,
0001
1000
0010
1000
0100
1000
0100
0010
,
0000
0100
0000
0010
0000
0010
0000
0000
,
0010
0100
1000
0100
0010
0001
0010
0100
,
0000
0010
1000
0010
0000
0100
0100
0000
,
0010
0000
1000
0010
0001
0010
1000
0010
,
0001
0010
0100
1000
1000
0100
0001
0010
,
0100
0000
0000
0000
0100
0000
0010
0001
,
0000
0001
0010
0100
0000
1000
0000
0010
,
0010
0100
1000
0100
0001
0100
0001
0100
,
0000
0001
0000
1000
0000
1000
0000
0000
,
1000
0001
0100
0001
1000
0010
1000
0001
,
0000
0001
0100
1000
0000
1000
0100
0000
,
0010
0000
0100
1000
0100
0010
0100
0001
,
0010
1000
0010
0001
1000
0010
0001
0010
,
1000
0000
0000
0000
0100
0000
0010
0100
,
0000
0010
1000
1000
0000
0010
0000
1000
,
0100
0100
0100
0100
,
0100
0100
0100
0100
,
0100
0100
0100
0100
,
0100
0000
0100
0000
0100
0010
0100
0010
,
1000
0010
0100
0000
0010
0100
0001
0000
,
1000
0100
0010
0001
0000
0010
0001
0100
,
0010
1000
0100
0000
0100
0010
0100
0010
,
0000
0010
0001
0010
1000
0010
0100
1000
,
0010
0100
0001
0000
1000
0100
0010
0000
,
0100
1000
0010
1000
0000
1000
0001
1000
,
0100
0000
1000
0010
0001
0010
0100
0001
,
0000
0001
1000
0001
0010
0100
0010
0001
,
1000
0001
1000
0000
0010
0100
0010
0000
,
0010
0100
0001
0010
0000
0010
0100
0010
,
0001
0000
1000
0000
0010
0001
0010
0100
,
0000
0010
0001
0010
1000
0100
0001
0100
,
0010
0000
0100
1000
0010
1000
0100
1000
,
0000
1000
0001
1000
0001
1000
0010
1000
,
0100
0010
0001
0010
0100
0010
0001
0100
,
0020
0000
0000
0000
,
0130
0100
0010
1000
0000
0001
0000
0010
,
0000
0100
0000
0010
0001
0000
0100
0000
,
0000
0000
0010
0010
0000
0100
0000
0010
,
0000
0100
0000
0100
0010
0000
1000
0000
,
1001
0011
0110
1100
,
1001
0000
0101
0000
0110
0000
0010
1000
,
1010
0011
1100
0101
,
0001
0010
0100
1000
0001
0010
0100
1000
,
0001
1000
0001
0010
0000
0100
0000
0010
,
0000
0001
0000
0001
0100
0000
0100
0000
,
0000
0000
0010
1000
0000
1000
0000
0001
,
0000
0010
0000
0100
1000
0000
0100
0000
,
1100
0110
0011
0101
,
1010
0000
1001
0000
1100
0000
1000
0100
,
0110
0011
0110
1100
,
0100
0010
0001
0010
1000
0010
0001
0100
,
2002
0000
0000
3003
;

//---------------dance-single - ----------------
#NOTES:
     dance-single:
     :
     Medium:
     7:
     0.477,0.656,0.032,0.239,0.000:
0000
0000
0000
0000
,
0000
0000
0000
0000
,
0000
0000
0000
0000
,
0000
0000
0000
0000
,
0100
0001
0010
0001
,
0100
1000
0100
0010
,
1000
1000
0001
0001
,
0000
0001
0100
0001
0100
0001
0100
0001
,
0100
0010
1000
0010
,
0001
0010
0100
1000
,
0100
0010
1000
0001
,
1000
1000
0001
0001
,
0100
0001
0010
0001
,
0100
1000
0100
0010
,
1000
0001
0010
0100
,
0000
0100
1000
0100
1000
0100
1000
0100
,
1000
0010
0100
0010
,
1000
0001
0010
0001
,
0100
0100
0100
0100
,
0200
0000
0000
0300
,
0010
0100
0000
0010
0000
1000
0000
0001
,
0000
0000
0000
0001
1000
0000
0100
0000
,
0000
0000
1000
0100
0000
0100
0000
0100
,
0000
0000
0000
0100
1000
0000
0010
0000
,
0100
0010
1000
0001
,
0010
0000
0100
0000
1000
0000
0100
1000
,
0100
0010
0001
0100
,
0001
0100
0010
1000
0001
0100
0010
1000
,
0001
0001
1000
0000
,
1000
0001
0100
1000
,
0100
0100
0010
0010
,
0100
0001
0100
0001
0100
0000
0000
0000
,
0001
0100
1000
0100
,
0010
1000
0001
0010
,
0100
0100
1000
1000
,
2200
0000
0000
3300
,
1000
0000
0001
0000
0100
0001
0000
0100
,
0000
0010
0100
0000
0010
0000
1000
0000
,
0001
1000
0001
0000
1000
0001
1000
0000
,
0010
0100
0010
0000
0100
0010
0100
0000
,
0010
0000
1000
0000
0010
0100
0000
0001
,
0000
0010
0100
0000
0100
1000
0100
0000
,
1000
0010
0100
0000
0100
0010
1000
0000
,
2002
0000
3003
0000
,
0001
0000
0100
0000
0010
0000
0100
0100
,
0000
0001
0000
0010
0000
0200
0000
0000
,
1300
0000
0100
0000
1000
0000
0010
0010
,
0000
0100
0010
1000
0000
0001
1000
0000
,
2000
3200
0320
0032
,
0023
0230
2300
3002
,
0203
0000
0000
0000
0310
0000
0100
0020
,
0000
1000
0000
1000
0000
1000
0000
1030
,
0001
0000
1000
0000
0100
0000
1000
0100
,
0000
0010
0000
0001
0000
0010
0000
0000
,
0001
0000
0100
0000
1000
0000
0100
0010
,
0000
0010
0100
0010
0000
0010
1000
0000
,
0002
2003
3020
2030
,
3020
2030
3002
0023
,
0230
0000
0000
0000
1000
0300
1000
0200
,
0000
1000
0000
0010
0000
0001
0000
0020
,
0000
0000
0000
0000
,
0000
0000
0300
0100
,
0200
0000
0000
0000
,
0330
0000
1001
1001
,
0001
1000
0001
0000
0100
0000
0010
0000
,
0100
0010
1000
0001
,
0010
0100
1000
0100
,
0000
0010
0001
0010
0001
0010
0001
0010
,
0001
0100
1000
0100
,
0010
1000
0001
0010
,
0001
0000
0100
0000
0010
0000
1000
0010
,
0000
0100
0000
0010
1000
0000
0001
0000
,
1000
0001
0010
0001
,
1000
0100
1000
0010
,
0100
0001
0010
0100
,
0000
0010
0001
0010
0001
0010
0001
0010
,
0001
0010
0100
0100
,
0010
0001
1000
1000
,
0010
0100
0001
0010
,
0200
0000
0000
0300
,
1000
0100
1000
0100
0000
1000
0000
0010
,
0000
0000
0000
0100
0010
0000
1000
0000
,
0000
0000
0001
0001
0000
1000
0000
0010
,
0000
0000
0000
0100
0010
0000
1000
0000
,
0010
1000
0010
0001
,
0010
0000
1000
0000
0100
0000
0001
0100
,
1000
0010
0001
0010
,
0100
0010
0100
0010
0100
0010
0100
0010
,
0100
0010
1000
0001
,
0010
0100
0010
0010
,
0000
0100
1000
0010
,
0100
0001
1000
1000
,
0001
1000
0001
1000
,
0001
0000
1000
0000
0001
0000
1000
0001
,
1000
0001
0100
0010
,
1000
0100
0010
0001
0010
0100
1000
0010
,
0200
0000
0000
0300
;

//---------------dance-single - ----------------
#NOTES:
     dance-single:
     :
     Easy:
     5:
     0.375,0.386,0.040,0.016,0.000:
0000
0000
0000
0000
,
0000
0000
0000
0000
,
0000
0000
0000
0000
,
0000
0000
0000
0000
,
0010
0100
0010
0010
,
0100
0001
1000
1000
,
0001
1000
0100
0100
,
1000
0100
0010
0001
,
0010
0100
1000
1000
,
0100
0010
0100
0100
,
1000
0001
1000
0001
,
0010
0010
0010
0010
,
0001
0100
0001
0100
,
0010
0100
0010
0100
,
0010
1000
0010
1000
,
0010
1000
0001
0010
,
0100
0010
0001
1000
,
0001
0100
0010
1000
,
0100
0100
0100
0100
,
0200
0000
0000
0300
,
1100
0000
0100
0000
,
0010
0010
0001
0000
,
0101
0000
0100
0000
,
0010
1000
0001
0000
,
1000
0001
1000
0001
,
1000
0001
1000
0001
,
0100
0100
0100
0100
,
0010
0010
0010
0010
,
0100
0001
1000
0000
,
1000
0001
0010
0000
,
0100
0100
1000
1000
,
0100
1000
0100
1000
,
0010
0100
0001
0000
,
1000
0001
0010
0000
,
0100
0100
0010
0010
,
0110
0000
0000
0000
,
0010
0001
0100
1000
,
0100
0010
1000
0001
,
1000
1000
0001
0001
,
1000
1000
0001
0001
,
0100
0010
0100
0010
,
0001
1000
0001
0100
,
0010
0010
0100
0100
,
1001
0000
0000
0000
,
0001
0100
0010
1000
,
0100
0100
0100
0100
,
1000
0010
0100
0001
,
0010
0010
0010
0010
,
0001
0100
1000
0100
,
0001
0010
1000
0010
,
0001
0000
0100
0000
,
0010
1000
0001
0010
,
0100
0010
0100
0010
,
1000
0001
1000
0001
,
0100
0001
0100
0001
,
0100
0010
1000
0001
,
1000
1000
0001
0001
,
1000
0001
1000
0001
,
1000
0000
0010
0000
,
0100
0001
0010
0100
,
1000
0000
0000
0000
,
0000
0000
0000
0010
,
0010
0000
0000
0000
,
0100
0000
0010
0000
,
1001
0001
1000
0100
,
1000
0001
1000
0010
,
1000
0001
1000
0100
,
1000
1000
0001
0001
,
1000
0001
1000
0010
,
0100
0010
0100
0001
,
0100
1000
0100
0010
,
1000
0001
0010
0100
,
1000
0001
0100
0010
,
0001
0010
0100
1000
,
0100
1000
0010
0100
,
0001
0001
1000
1000
,
0001
0100
0001
0010
,
0001
0100
0010
1000
,
0100
0100
0100
0100
,
0100
0000
0000
0000
,
0010
0000
0001
0000
,
1000
0001
0100
0000
,
0010
0000
1000
0000
,
0010
1000
0010
0000
,
1000
0100
0010
0001
,
1000
0100
0010
0001
,
0010
0010
0010
0010
,
0100
0100
0100
0100
,
0010
0001
1000
0000
,
0001
1000
0100
0000
,
0100
0010
0001
0000
,
0001
0001
0010
0000
,
0001
0100
0010
1000
,
0001
0100
0010
1000
,
0001
0100
0010
1000
,
0100
0100
0100
0100
,
0200
0000
0000
0300
;

//---------------dance-single - ----------------
#NOTES:
     dance-single:
     :
     Beginner:
     2:
     0.147,0.306,0.072,0.008,0.000: // measure 1
0000
0000
0000
0000
,  // measure 2
0000
0000
0000
0000
,  // measure 3
0000
0000
0000
0000
,  // measure 4
0000
0000
0000
0000
,  // measure 5
0010
0000
0000
0000
,  // measure 6
1000
0000
0000
0000
,  // measure 7
0001
0000
0001
0000
,  // measure 8
0001
0000
0000
0000
,  // measure 9
0100
0000
0000
0000
,  // measure 10
0010
0000
0000
0000
,  // measure 11
0100
0000
0001
0000
,  // measure 12
1000
1000
1000
0000
,  // measure 13
0001
0000
0000
0000
,  // measure 14
1000
0000
0000
0000
,  // measure 15
0010
0000
0010
0000
,  // measure 16
0010
0000
0000
0000
,  // measure 17
0100
0000
0000
0000
,  // measure 18
0001
0000
0000
0000
,  // measure 19
1000
0000
1000
0000
,  // measure 20
1000
0000
0000
0000
,  // measure 21
0110
0000
0000
0000
,  // measure 22
0000
0000
0000
0000
,  // measure 23
0001
0000
0000
0000
,  // measure 24
0000
0000
0000
0000
,  // measure 25
1000
0000
1000
0000
,  // measure 26
1000
0000
1000
0000
,  // measure 27
0001
0000
0001
0000
,  // measure 28
0001
0001
0001
0000
,  // measure 29
0110
0000
0000
0000
,  // measure 30
0000
0000
0000
0000
,  // measure 31
0100
0000
0100
0000
,  // measure 32
0010
0000
0000
0000
,  // measure 33
1000
0000
0000
0000
,  // measure 34
0001
0000
0000
0000
,  // measure 35
0100
0000
0010
0000
,  // measure 36
0110
0000
0000
0000
,  // measure 37
1001
0000
0000
0000
,  // measure 38
0001
0000
0000
0000
,  // measure 39
1000
0000
1000
0000
,  // measure 40
0001
0000
0001
0000
,  // measure 41
0110
0000
0000
0000
,  // measure 42
0010
0000
0010
0000
,  // measure 43
0100
0000
0100
0000
,  // measure 44
0020
0000
0030
0000
,  // measure 45
0100
0000
0000
0000
,  // measure 46
0000
0000
0000
0000
,  // measure 47
0001
0000
0000
0000
,  // measure 48
0000
0000
0000
0000
,  // measure 49
1000
0000
0010
0000
,  // measure 50
0100
0000
0001
0000
,  // measure 51
1001
0000
0000
0000
,  // measure 52
0010
0000
0010
0000
,  // measure 53
0100
0000
0000
0000
,  // measure 54
0000
0000
0000
0000
,  // measure 55
0010
0000
0000
0000
,  // measure 56
0000
0000
0000
0000
,  // measure 57
0010
0000
0100
0000
,  // measure 58
0001
0000
1000
0000
,  // measure 59
0001
0000
0000
0000
,  // measure 60
1000
0000
0010
0000
,  // measure 61
0100
0000
0000
0000
,  // measure 62
0000
0000
0000
0000
,  // measure 63
0000
0000
0000
0000
,  // measure 64
0000
0000
0000
0000
,  // measure 65
0010
0000
0000
0000
,  // measure 66
0100
0000
0000
0000
,  // measure 67
0001
0000
0001
0000
,  // measure 68
1000
0000
0000
0000
,  // measure 69
0010
0000
0000
0000
,  // measure 70
0010
0000
0000
0000
,  // measure 71
0100
0000
0100
0000
,  // measure 72
0100
0000
0000
0000
,  // measure 73
0001
0000
0000
0000
,  // measure 74
1000
0000
0000
0000
,  // measure 75
1000
0000
1000
0000
,  // measure 76
1000
0000
0000
0000
,  // measure 77
0010
0000
0000
0000
,  // measure 78
0100
0000
0000
0000
,  // measure 79
0010
0000
0010
0000
,  // measure 80
0010
0000
0000
0000
,  // measure 81
1001
0000
0000
0000
,  // measure 82
0000
0000
0000
0000
,  // measure 83
0010
0000
0000
0000
,  // measure 84
0000
0000
0000
0000
,  // measure 85
0100
0000
0100
0000
,  // measure 86
0010
0000
0010
0000
,  // measure 87
0100
0000
0001
0000
,  // measure 88
1000
1000
1000
0000
,  // measure 89
1001
0000
0000
0000
,  // measure 90
0010
0000
0010
0000
,  // measure 91
0010
0000
0000
0000
,  // measure 92
0100
0000
0100
0000
,  // measure 93
0010
0000
0000
0000
,  // measure 94
1000
0000
0000
0000
,  // measure 95
0001
0000
1000
0000
,  // measure 96
0010
0010
0010
0010
,  // measure 97
1001
0000
0000
0000
;
