#TITLE:Beethoven Unleashed;
#SUBTITLE:;
#ARTIST:Beautiful Day;
#TITLETRANSLIT:;
#SUBTITLETRANSLIT:;
#ARTISTTRANSLIT:;
#CREDIT:;
#BANNER:bn2.png;
#BACKGROUND:bg.png;
#LYRICSPATH:;
#CDTITLE:;
#MUSIC:Song.mp3;
#OFFSET:-0.621;
#SAMPLESTART:12.000;
#SAMPLELENGTH:12.000;
#SELECTABLE:YES;
#BPMS:0.000=160.000,128.000=80.000,136.000=160.000;
#STOPS:192.000=1.835
,290.000=0.188
;
#BGCHANGES:;

//---------------dance-single - ----------------
#NOTES:
     dance-single:
     :
     Hard:
     10:
     0.743,1.000,0.432,0.203,0.551: // measure 1
0000
0000
0000
0000
,  // measure 2
0000
0000
0000
0000
,  // measure 3
0000
0000
0000
0000
,  // measure 4
0000
1100
0101
0011
,  // measure 5
0001
0100
0010
0000
0000
0000
0100
0000
0002
0000
0000
1000
0000
0000
0103
0000
,  // measure 6
0000
0000
0010
0100
0010
0000
0100
0000
0020
0000
0000
1000
0000
0000
0130
0000
,  // measure 7
0000
0000
0010
1000
0010
0000
1000
0000
0001
0000
0000
0010
0000
0000
0001
0000
,  // measure 8
0100
0000
0000
1000
0000
0000
0100
0000
0010
0000
1000
0000
0100
0000
0010
0000
,  // measure 9
0011
0000
0001
0100
0010
0000
0010
0100
,  // measure 10
0010
0000
0000
0000
0100
0000
0010
1000
0010
0000
1000
0000
0100
0000
0010
0000
,  // measure 11
0100
1000
0001
0010
0110
0000
1001
0000
,  // measure 12
0220
0000
0000
0000
0330
0000
0010
0001
,  // measure 13
0100
0010
0100
0010
0100
0010
0100
0010
0100
0000
0000
0000
0010
0000
1000
0000
,  // measure 14
0100
1000
0100
1000
0100
1000
0100
1000
0100
0000
0000
0000
1000
0000
0010
0000
,  // measure 15
0110
0000
0010
1000
1001
0000
0001
0010
,  // measure 16
0110
0000
1100
0000
1001
0001
0100
0010
,  // measure 17
1020
0000
0130
0001
0020
0000
0130
1000
,  // measure 18
0002
0000
0000
0000
0103
0000
0010
1000
0010
0000
0100
0000
0001
0000
0010
0000
,  // measure 19
0100
0010
0001
1000
1010
0000
0101
0000
,  // measure 20
0022
0000
0000
0000
0033
0000
0001
1000
,  // measure 21
0010
1000
0010
1000
0010
1000
0010
1000
0010
0000
0000
0000
0100
0000
0001
0000
,  // measure 22
0010
0100
0010
0100
0010
0100
0010
0100
0010
0000
0000
0000
0100
0000
1000
0000
,  // measure 23
1100
0000
1000
0010
0110
0000
0100
0001
,  // measure 24
0010
0100
1000
0001
0010
0100
1000
0001
0010
0000
0001
0000
0100
0000
1000
0000
,  // measure 25
0100
0010
1000
0001
0010
0001
1000
0100
,  // measure 26
1000
0010
0100
0001
0010
0100
1000
0100
,  // measure 27
1000
0010
0100
0001
1000
0001
0100
0010
,  // measure 28
1000
0100
0010
0001
0020
0000
0030
0000
,  // measure 29
0100
0100
0010
0001
0100
0100
0010
0010
,  // measure 30
0100
0010
1000
0001
0010
0010
1000
1000
,  // measure 31
0010
0001
0100
1000
0100
0100
0010
0010
,  // measure 32
0110
0000
0000
1001
0000
0000
1010
0000
,  // measure 33
1000
0000
0100
0000
0010
0000
0001
0000
0010
0000
0100
0000
1000
0000
0100
0000
0010
0001
0100
0010
1000
0001
0010
0001
0100
0010
1000
0100
0010
0001
0100
0001
,  // measure 34
1000
0000
0001
0000
0100
0000
0010
0000
1000
0000
0100
0000
0001
0000
0100
0000
0010
0001
0100
0001
1000
0001
1000
0010
1000
0100
1000
0010
0100
0001
0010
0001
,  // measure 35
1000
0000
0010
0000
1000
0000
0010
0100
0010
0000
0100
0000
0010
0000
1000
0001
,  // measure 36
1000
0000
0001
0000
0100
0000
0010
1000
0010
0000
1000
0000
0100
0000
0010
0000
,  // measure 37
0011
0001
0100
0110
0010
1000
1001
0001
,  // measure 38
0010
0000
0110
0000
0100
0000
1000
0001
0100
0000
1010
0000
0101
0000
0000
0000
,  // measure 39
1001
0000
0001
0100
0010
0000
0110
0000
0010
1000
0100
0000
1100
0000
1000
0100
,  // measure 40
0010
0000
0011
0000
0001
0000
1000
0001
0100
0000
0110
0000
1001
0000
0000
0001
,  // measure 41
1000
0000
0000
1000
0100
0000
0000
0100
0010
0000
0000
0010
0001
0000
0000
0001
,  // measure 42
0010
0000
0000
0010
0100
0000
0000
0100
1000
0000
0000
1000
0010
0000
0000
0010
,  // measure 43
0100
0000
0000
0100
0001
0000
0000
0001
0010
0000
0000
0010
0100
0000
0000
0100
,  // measure 44
1000
0000
0000
1000
0001
0000
0000
0001
0100
0000
0000
0100
0010
0000
0000
0010
,  // measure 45
1000
0000
0000
1000
0100
0000
0000
0100
0010
0000
0000
0010
0001
0000
0000
0001
,  // measure 46
0010
0000
0000
0010
0100
0000
0000
0100
1000
0000
0000
1000
0010
0000
0000
0100
,  // measure 47
0001
0000
0000
0001
0010
0000
0000
0010
0100
0000
0000
0100
0010
0000
0000
0010
,  // measure 48
0001
0000
0000
0001
0100
0000
0000
0100
0010
0000
0000
0010
1000
0000
0000
1000
,  // measure 49
0100
0000
1001
0000
0001
0100
0020
0000
,  // measure 50
0130
0000
0001
0000
2000
0000
0000
0000
3001
0000
0010
0001
0010
0000
0100
0000
,  // measure 51
1000
0001
0100
0010
1000
0001
0011
0000
,  // measure 52
1100
2002
0000
3003
,  // measure 53
0001
0000
1000
0000
0100
0010
0100
0010
0100
0010
0100
0010
0100
0000
0000
0000
,  // measure 54
0010
0000
0001
0000
0100
0001
0100
0001
0100
0001
0100
0001
0100
0000
0000
0000
,  // measure 55
0001
0100
0110
0000
0010
1000
1100
0000
,  // measure 56
1000
0001
1001
0000
0110
0000
1001
0001
,  // measure 57
0100
0010
1020
0000
0000
1000
2000
0000
,  // measure 58
0030
0000
0100
0000
0200
0000
0000
0000
3300
0000
1000
0001
0010
0000
0001
0000
,  // measure 59
0100
0010
1000
0001
0010
0001
0101
0000
,  // measure 60
1010
2002
0000
3003
,  // measure 61
0001
0000
1000
0000
0100
1000
0100
1000
0100
1000
0100
1000
0100
0000
0000
0000
,  // measure 62
0100
0000
0010
0000
0001
0010
0001
0010
0001
0010
0001
0010
0001
0000
0000
0000
,  // measure 63
0001
0100
1010
0000
1000
0100
0110
0000
,  // measure 64
0010
0001
0200
0000
0301
0000
0200
0000
,  // measure 65
1300
0000
0100
0010
1000
0001
0010
0100
,  // measure 66
1000
0100
1000
0000
1010
0000
0000
0000
,  // measure 67
0101
0000
0000
0001
0010
0100
1000
0001
,  // measure 68
0010
0000
0100
0000
1000
0000
0000
0000
1000
0001
0100
0001
0010
0000
0000
0000
,  // measure 69
0001
1000
0100
1000
,  // measure 70
0010
0000
0100
0010
1000
0001
0010
0100
,  // measure 71
1000
0000
0001
0000
0001
0100
0010
1000
0001
0100
0010
1000
0001
0010
0001
0100
,  // measure 72
0001
1000
0100
1000
0020
0000
0000
0000
0000
0000
0000
0000
0000
0000
0000
0000
,  // measure 73
0000
0000
0000
0000
0030
2002
0000
0000
,  // measure 74
0000
0000
0000
0000
0000
3003
0000
0000
;

//---------------dance-single - ----------------
#NOTES:
     dance-single:
     :
     Medium:
     8:
     0.572,0.556,0.745,0.432,0.030:
0000
0000
0000
0000
,
0000
0000
0000
0000
,
0000
0000
0000
0000
,
0000
0101
1100
1001
,
0001
0000
0100
0000
0000
0000
0100
0000
0010
0000
0000
0010
0000
0000
0010
0000
,
0000
0000
0100
0000
0000
0000
0001
0000
1000
0000
0000
1000
0000
0000
1000
0000
,
0000
0000
0100
0000
0000
0000
1000
0000
0010
0000
0000
0100
0000
0000
0010
0000
,
1000
0000
0000
0100
0000
0000
0001
0000
0100
0000
0010
0000
0001
0000
0100
0000
,
0020
0000
0000
1030
0020
0000
0000
0130
,
0020
0000
0000
0130
0010
1000
0100
0010
,
0001
0010
0100
1000
1100
0000
1010
0000
,
2002
0000
0000
0000
3003
0000
0001
0010
,
0200
0000
0000
0000
0310
0000
0010
1000
,
0002
0000
0000
0000
0013
0000
0001
0100
,
0110
0000
0010
1000
1010
0000
0010
0100
,
0110
0000
1001
0000
0101
0000
0001
0100
,
0020
0000
0000
1030
0020
0000
0000
0130
,
0020
0000
0000
1030
0010
0100
0001
0010
,
0100
1000
0100
1000
1100
0000
0011
0000
,
2002
0000
0000
0000
3003
0000
0001
0010
,
0200
0000
0000
0000
0310
0000
0010
0100
,
2000
0000
0000
0000
3100
0000
1000
1000
,
1100
0000
0100
0100
0110
0000
0010
0010
,
0011
1100
0101
0100
,
0001
0010
0100
1000
0001
0010
0100
1000
,
0001
0010
0100
1000
0001
0010
0100
1000
,
0001
0010
0100
1000
0001
0010
0100
1000
,
0100
0010
0001
0010
0200
0000
0300
0000
,
0001
1000
0100
0010
0001
1000
0100
0010
,
0001
1000
0100
0010
0001
1000
0100
0010
,
0001
1000
0100
0010
0001
1000
0010
0100
,
0110
0000
0000
1010
0000
0000
1100
0000
,
1001
0000
0000
0000
0000
0000
0000
0001
1010
0000
0000
0000
0000
0000
0000
0000
,
0110
0000
0000
0010
0000
0000
0100
0001
1001
0000
0000
0000
1000
0000
0000
0000
,
1000
0100
0010
0100
1000
0001
0100
1000
,
0100
0010
1000
0001
0020
0000
0031
0000
,
0101
0000
0000
1010
0000
0000
0110
0000
,
0000
1001
0000
0001
0001
0100
0110
0000
,
0110
0000
0000
1001
0000
0000
1100
0000
,
0000
0110
0000
0001
0010
0100
1100
0000
,
0102
0013
0201
0310
,
2010
3100
0210
0301
,
0120
1030
1002
0103
,
2001
3100
1020
0130
,
0102
0013
0120
1030
,
2010
3001
0201
0310
,
2010
3001
0102
0103
,
0120
1030
1200
0310
,
1001
0000
0002
0000
0000
1003
0002
0000
,
0000
0013
0002
0000
0000
0003
0001
0010
,
0100
1000
0100
1000
0010
0100
0110
0000
,
1001
0202
0000
0303
,
0001
1000
0020
0000
0000
0000
0130
0000
,
0010
1000
0200
0000
0000
0000
0310
0000
,
0010
0001
0011
0000
0001
0100
0101
0000
,
0001
0100
0110
0000
1001
0000
0110
0000
,
0010
0000
2002
0000
0000
3000
2000
0000
,
0000
3000
2000
0000
3003
0001
1000
0010
,
1000
0100
1000
0010
0100
0001
0101
0000
,
1100
0220
0000
0330
,
0010
0001
0200
0000
0000
0000
0310
0000
,
0010
1000
0200
0000
0000
0000
1300
0000
,
1000
0100
1100
0000
0100
0010
0110
0000
,
0010
0001
0010
0000
0011
0000
0000
0000
,
0101
0000
0000
0001
0010
0100
1000
0001
,
0010
0100
1000
0000
1100
0000
0000
0000
,
1100
0000
0000
1000
0100
0010
0001
1000
,
0100
0010
0001
0000
0011
0000
1100
0000
,
0101
1010
0101
0110
,
1001
0011
0110
1100
,
0110
1001
0110
1001
,
0110
2002
0000
0000
,
0000
0000
0000
0000
3003
0220
0000
0000
,
0330
0000
0000
0000
;

//---------------dance-single - ----------------
#NOTES:
     dance-single:
     :
     Easy:
     6:
     0.405,0.431,0.534,0.178,0.000:
0000
0000
0000
0000
,
0000
0000
0000
0000
,
0000
0000
0000
0000
,
0000
1001
1001
1001
,
0001
0100
0010
0010
,
0100
0010
1000
1000
,
0010
0100
0001
0010
,
0100
0100
0010
0001
,
2000
0000
3002
0000
,
0200
0303
0001
0100
,
0010
1000
1100
0011
,
0220
0000
0000
0000
0330
0000
0010
0001
,
0020
0000
0000
0000
0031
0000
0001
0100
,
0002
0000
0103
0001
,
1010
0001
1010
0001
,
1010
0011
1001
0000
,
0110
0000
0010
0000
,
1000
0000
1000
0100
,
1000
0010
0110
0101
,
0022
0000
0000
0000
0033
0000
0001
0010
,
0002
0000
0000
0000
1003
0000
0010
1000
,
0020
0000
0130
0010
,
0110
0010
1001
0010
,
0101
1100
1001
0000
,
0001
1000
0100
1000
,
0001
0100
0001
1000
,
0100
1000
0001
0100
,
0001
0010
0100
1000
0200
0000
0300
0000
,
1000
0010
1000
0001
,
0010
0010
0001
1000
,
0010
1000
0001
0010
,
0110
0000
0000
1001
0000
0000
0101
0000
,
0110
0000
0101
0000
,
1100
0000
0110
0000
,
0011
0010
0100
1000
,
0100
0100
1000
0010
,
0110
0000
0000
0101
0000
0000
0011
0000
,
0000
0110
0000
0000
1100
0000
1001
0000
,
0101
0000
0000
1010
0000
0000
1100
0000
,
0000
0110
0000
0000
1100
0000
1001
0000
,
0001
0100
0010
1000
,
0010
0100
0010
1000
,
0001
0010
0001
0100
,
1000
0100
0001
0010
,
1000
0010
0001
0100
,
0010
1000
0100
0001
,
0100
0100
0010
0010
,
0001
0001
1000
1000
,
0110
1001
0001
0100
,
0001
0010
0001
0100
,
0010
1000
0100
0110
,
1001
2200
0000
3300
,
1000
0100
2000
0000
0000
0000
3010
0000
,
0100
0010
0200
0000
0000
0000
0301
0000
,
0001
1100
0001
1100
,
0001
1100
0101
1001
,
0000
0110
0000
1001
,
0000
0110
0000
0010
,
1000
0010
0001
0110
,
0101
0022
0000
0033
,
0001
1000
0020
0000
0000
0000
0130
0000
,
0010
1000
0200
0000
0000
0000
0310
0000
,
0100
1100
0010
0011
,
0001
0100
1001
0000
,
1001
0001
0100
0010
,
1000
0100
1100
0000
,
1100
0000
1000
0100
,
0010
0001
1000
0001
,
1000
0001
1000
0001
,
1000
0000
0001
1000
0001
1000
0001
1000
,
0001
1000
0001
1000
0001
1000
0001
1000
,
0001
1000
0002
0000
0000
0000
0000
0000
,
0000
0000
0000
0000
0003
1001
0000
0000
;

//---------------dance-single - ----------------
#NOTES:
     dance-single:
     :
     Beginner:
     3:
     0.188,0.338,0.271,0.076,0.000:
0000
0000
0000
0000
,
0000
0000
0000
0000
,
0000
0000
0000
0000
,
0000
0000
0000
0000
,
1000
0000
0000
0000
,
0001
0000
0000
0000
,
1000
0000
0000
0000
,
0100
0000
0100
0000
,
0110
0000
0000
0000
,
0010
0000
0000
0000
,
0001
0000
1000
1000
,
1000
0000
0000
0000
,
0020
0000
0030
0000
,
0020
0000
0030
0000
,
0110
0000
1001
0000
,
0110
0110
0110
0000
,
0100
0000
0000
0000
,
0010
0000
0000
0000
,
1000
0000
0001
0001
,
0001
0000
0000
0000
,
0200
0000
0300
0000
,
0200
0000
0300
0000
,
0110
0000
1001
0000
,
1001
1001
1001
0000
,
0001
0000
1000
1000
,
0000
0000
0001
0001
,
0000
0000
0100
0100
,
0100
0000
0000
0000
,
0110
0000
0010
0010
,
0000
0000
1000
1000
,
0000
0000
0001
0001
,
1001
0000
0000
0000
,
0110
0000
0010
0000
,
1001
0000
0100
0000
,
1001
0000
0000
0000
,
1000
0000
1000
0000
,
1001
0000
0000
0010
,
0000
0000
0100
0100
,
0100
0000
0000
0010
,
0000
0000
1000
1000
,
0001
0000
0000
0000
,
1000
0000
0000
0000
,
0010
0000
0000
0000
,
0100
0000
0100
0100
,
0010
0000
1000
0000
,
0100
0000
0010
0000
,
0001
0000
0000
0000
,
1000
0000
0010
0000
,
0110
1001
0000
0001
,
0000
0001
0000
0000
,
0000
1000
0000
0100
,
0100
0100
0000
0000
,
0000
0020
0000
0030
,
0000
0020
0000
0030
,
0000
0110
0000
1001
,
0000
0110
0110
0110
,
0000
1001
0000
0000
,
0000
1000
0000
0000
,
0000
0001
0000
0100
,
0100
0100
0000
0000
,
0000
0020
0000
0030
,
0000
0020
0000
0030
,
0000
0110
0000
1001
,
0000
0000
0110
0000
,
0110
0000
0000
0000
,
0000
0000
1001
0000
,
1001
0000
0000
0000
,
0000
1000
0000
0001
,
0000
1000
0000
0001
,
0000
1000
0001
1000
,
0001
2000
0000
0000
,
0000
3000
0000
0000
,
0000
0000
0000
0000
0000
1001
0000
0000
;
