#TITLE:Beat of the War;
#SUBTITLE:;
#ARTIST:BanYa;
#TITLETRANSLIT:;
#SUBTITLETRANSLIT:;
#ARTISTTRANSLIT:;
#CREDIT:;
#BANNER:Beat of the War-banner.png;
#BACKGROUND:Beat of the War-bg.png;
#LYRICSPATH:;
#CDTITLE:;
#MUSIC:Beat of the War.ogg;
#OFFSET:-0.036;
#SAMPLESTART:10.359;
#SAMPLELENGTH:18.000;
#SELECTABLE:YES;
#BPMS:0.000=186.000,128.000=174.000,129.000=173.000,133.000=140.000,169.000=202.000;
#STOPS:169.000=0.290
;
#BGCHANGES:-10000.000=songbackground=1.000=0=0=1,
0.000=Beat of the War.avi=1.000=0=0=1,
277.500=Beat of the War-bg.png=1.000=0=0=1,
99999=-nosongbg-=1.000=0=0=0 // don't automatically add -songbackground-
;

//---------------dance-single - ----------------
#NOTES:
     dance-single:
     :
     Hard:
     9:
     0.568,0.669,0.343,0.064,0.016:
0000
0000
0000
0000
,
0000
0000
0000
0000
,
0000
0000
0000
0000
,
0000
0000
0000
0000
,
0000
0000
0000
0000
,
0101
0100
0001
0010
,
0110
0010
0100
1000
,
1001
0010
1001
0100
,
0101
0000
0001
0010
0000
0100
0010
0001
,
1000
0000
0010
0100
0000
0010
0100
0001
,
1000
0000
0100
0010
0000
0010
0100
1000
,
0001
0100
0010
1000
0001
0100
0001
0000
,
0010
0000
0100
1000
0000
1000
0100
0010
,
0100
0000
1000
0010
0000
0100
0001
0010
,
0001
0000
1000
0001
0000
0001
0100
1000
,
0000
1000
0100
0001
0000
0001
0010
0000
,
0210
0010
0010
0010
,
0310
0000
0000
0000
,
0001
0100
0001
0010
0000
0001
0100
0000
,
0001
1000
0000
0001
0010
0000
0001
0010
,
0100
0000
0100
0010
0000
0010
0001
0000
,
0001
0100
0010
1000
0100
1000
0010
0100
,
0010
1000
0100
1000
0000
0100
0010
0000
,
0010
0100
0000
0100
1000
0000
1000
0001
,
0010
0000
0100
1000
0000
1000
0001
0000
,
0001
0010
0100
1000
0100
0010
0001
1000
,
0010
0010
0100
0001
0000
0001
0010
0000
,
0010
0100
0000
0100
1000
0000
1000
1000
,
0001
0000
0010
0100
0000
0010
0001
0000
,
0001
0100
0010
1000
0001
0100
0010
1000
,
0100
0000
0010
0001
0100
0000
0010
1000
,
0001
0000
1000
0000
0001
0001
0001
0000
,
2020
0000
0000
0000
,
0000
0000
0000
0000
,
3030
0000
1000
0100
0010
0001
0000
0001
,
0010
0000
0100
0000
0010
0000
0000
0001
0000
0000
0100
0000
0010
0000
0010
0000
,
1001
0000
0001
1000
0010
0000
0100
0100
,
0000
0000
0010
0000
1000
0000
0000
1000
0000
0000
0001
0000
0010
0000
0100
0000
,
1100
0000
1000
0010
1000
0001
0000
0001
,
0010
0000
0010
0000
0001
0000
0000
0001
0000
0000
0001
0000
0100
0000
1000
0000
,
0100
0000
0010
1000
0100
0000
0010
0010
,
0000
0100
1000
0001
0010
0100
0010
0001
,
1000
0001
0000
0000
,
0000
0000
0000
0000
,
1000
0001
0010
0100
0000
0100
1000
0000
,
1000
0010
0000
0100
0001
0000
0001
1000
,
0020
0000
0000
0000
,
0000
0000
0000
0030
,
0100
0010
1000
0001
0000
0001
0010
0000
,
0010
0100
0000
0100
1000
0000
1000
0001
,
0010
0000
0001
0000
0100
0010
1000
0000
,
1000
0001
0010
0100
0010
0001
1000
0000
,
0001
0100
0010
0000
0100
0010
1000
0000
,
1000
0001
0010
0001
1000
0010
1000
0000
,
0011
0000
0101
0000
0001
0001
0100
0000
,
0110
0000
1010
0000
1000
1000
0010
0000
,
0100
0010
1000
0001
0010
0100
0010
0001
,
0100
0010
1000
0001
0010
0001
1000
0100
,
0110
0011
0101
1010
,
1001
1100
1001
0101
,
0011
0001
0010
0000
0010
0100
1000
0000
,
0100
1000
0010
0000
0100
0001
1000
0000
,
1001
0101
0011
0110
,
1100
1010
1100
1010
,
1001
0000
0010
0000
0100
0100
0001
0000
,
0001
0000
0010
0000
0100
1000
0010
0000
,
0100
0001
0010
0000
0001
0010
1000
0000
,
1000
0010
0001
0100
1000
0100
0010
1000
,
0000
0000
0000
0220
0000
0000
0000
0000
,
0000
0000
0000
0330
0000
0000
0000
0000
;

//---------------dance-single - ----------------
#NOTES:
     dance-single:
     :
     Medium:
     6:
     0.436,0.632,0.278,0.043,0.000:
0000
0000
0000
0000
,
0000
0000
0000
0000
,
0000
0000
0000
0000
,
0000
0000
0000
0000
,
0000
0000
0000
0000
,
1001
0010
0010
0010
,
1001
0010
0010
0010
,
1001
0010
1001
0010
,
1001
0000
0000
0001
0000
0000
0001
0100
,
0010
0000
0000
0100
0000
0000
0010
1000
,
0100
0000
0000
1000
0000
0000
0000
1000
,
0100
0100
0010
0010
,
0001
0000
0000
1000
0000
0000
0010
0100
,
0001
0000
0000
1000
0000
0000
1000
0100
,
0010
0000
0000
0100
0000
0000
0000
1000
,
0000
0000
0000
0001
0000
0000
0000
0000
,
0200
0000
0000
0000
,
0310
0000
0000
0000
,
0010
1000
0010
0100
0000
0010
0000
0000
,
1000
0000
0000
0001
0000
0000
1000
0100
,
1000
0100
0010
0001
,
0001
0100
0010
0000
0100
0010
1000
0000
,
0001
1000
0001
0100
0000
0100
0000
0000
,
0010
0000
0000
1000
0000
0000
0001
0000
,
1000
0000
0000
0100
0000
0000
1000
0000
,
0100
1000
0100
0000
0100
0010
0100
0000
,
0010
0001
0010
0000
0000
0001
0000
0000
,
0100
0000
0000
0010
0000
0000
0100
0010
,
1000
1000
0010
0100
,
0010
1000
0001
0000
0001
0010
0100
0000
,
0010
0000
0001
0001
0010
0000
0000
0000
,
0001
0000
0100
0000
0010
1000
0001
0000
,
2002
0000
0000
0000
,
0000
0000
0000
0000
,
3003
0000
1000
0001
0100
0001
0000
0001
,
0100
0010
0100
0000
0100
0000
0100
0010
,
0110
0000
0010
0000
1000
0000
0010
1000
,
0000
1000
0100
0000
0010
0000
0010
0001
,
0110
0000
0010
0100
1000
0100
0010
0001
,
0010
0000
0001
0100
1000
0100
0010
0010
,
0010
0000
0100
0000
0010
0000
1000
0001
,
0000
1000
0001
0000
0100
0000
0010
1000
,
0001
1001
0000
0000
,
0000
0000
0000
0000
,
0001
0100
0001
0000
0100
0001
0100
0000
,
0001
0100
0001
0000
0001
0100
0001
0000
,
0110
0000
0000
0000
,
0000
0000
0000
0000
,
1000
0001
1000
0000
0001
1000
0001
0000
,
1000
0001
1000
0000
0001
1000
0001
0000
,
0001
0100
0010
0010
,
0100
0010
1000
0001
,
0010
0100
1000
0100
,
1000
0000
0010
0000
0100
0010
0100
0000
,
0010
1000
0001
0001
,
1000
1000
0010
0100
,
0001
0010
0100
1000
,
0100
0010
0100
1000
,
1001
1001
1001
1001
,
1001
1001
1001
1001
,
0001
0100
0001
0000
0100
0000
0010
0000
,
0100
0010
0100
0000
0010
0000
1000
0000
,
1010
1010
1010
1010
,
1010
1010
1010
1010
,
0010
1000
0010
0010
,
0100
0001
0010
0100
,
1000
0100
1000
0010
,
0100
0001
1000
0001
,
0000
0001
0010
0200
0000
0000
0000
0000
,
0000
0000
0000
0300
0000
0000
0000
0000
;

//---------------dance-single - ----------------
#NOTES:
     dance-single:
     :
     Easy:
     4:
     0.301,0.363,0.086,0.032,0.000:
0000
0000
0000
0000
,
0000
0000
0000
0000
,
0000
0000
0000
0000
,
0000
0000
0000
0000
,
0000
0000
0000
0000
,
1001
0000
0001
0000
,
0101
0000
0100
0000
,
0110
0000
1001
0000
,
0110
0000
0000
0010
,
1000
0000
0000
1000
,
0100
0000
0000
1000
,
0001
0001
1000
1000
,
0010
0000
0000
0100
,
0001
0000
0000
0010
,
0100
0000
0000
0000
0000
0000
0000
0100
,
0000
0000
0000
1000
0000
0000
0000
0000
,
2002
0000
0000
0000
,
3003
0000
0000
0000
,
0001
1000
0010
1000
,
0001
0010
0001
0100
,
0010
0010
0100
0100
,
0010
1000
0001
0010
,
0100
1000
0000
0100
,
0010
0000
0010
0001
,
1000
0001
0100
0001
,
0010
0010
0100
0100
,
1000
0000
0001
0000
,
0100
0000
0001
0000
,
0010
0100
1000
0010
,
0001
0010
0100
0010
,
0001
0000
1000
0000
,
0010
0000
0100
0010
,
1001
0000
0000
0000
,
0000
0000
0000
0000
,
0000
1000
0000
1000
,
0000
0000
0001
0000
1000
0000
0001
1000
,
0001
0100
0000
0010
,
0000
0000
0100
0000
0001
0000
0010
0100
,
1000
0100
0000
1000
,
0000
0000
0010
0000
0100
0000
0010
0010
,
0010
0100
0000
0010
,
0000
0000
1000
0000
0001
0000
1000
1000
,
1000
0001
0000
0000
,
0000
0000
0000
0000
,
0001
0100
0001
0100
,
0001
0100
0001
0100
,
0101
0000
0000
0000
,
0000
0000
0000
0000
,
0010
1000
0010
1000
,
0010
1000
0010
1000
,
0010
0010
0100
0100
,
0010
1000
0001
0010
,
0100
0010
0001
1000
,
0001
0100
0001
0000
,
0001
1000
0100
1000
,
0010
0100
0010
1000
,
0001
0010
0100
1000
,
0200
0000
0000
0300
,
1000
1000
1000
1000
,
1000
1000
1000
1000
,
0001
1000
0010
1000
,
0010
0100
0010
1000
,
0001
0001
0001
0001
,
0001
0001
0001
0001
,
1000
0001
0100
0001
,
0010
0001
0010
0100
,
0010
0001
0010
0100
,
1000
0100
1000
0010
;

//---------------dance-single - ----------------
#NOTES:
     dance-single:
     :
     Beginner:
     2:
     0.119,0.182,0.043,0.000,0.000: // measure 1
0000
0000
0000
0000
,  // measure 2
0000
0000
0000
0000
,  // measure 3
0000
0000
0000
0000
,  // measure 4
0000
0000
0000
0000
,  // measure 5
0000
0000
0000
0000
,  // measure 6
0001
0000
0000
0000
,  // measure 7
1000
0000
0000
0000
,  // measure 8
0001
0000
0001
0000
,  // measure 9
0001
0000
0000
0000
,  // measure 10
0100
0000
0000
0000
,  // measure 11
0010
0000
0000
0000
,  // measure 12
1000
0000
1000
0000
,  // measure 13
0001
0000
0000
0000
,  // measure 14
0100
0000
0000
0000
,  // measure 15
0010
0000
0000
0000
,  // measure 16
0100
0000
0000
0000
,  // measure 17
1001
0000
0000
0000
,  // measure 18
0010
0000
0000
0000
,  // measure 19
0100
0000
0000
0000
,  // measure 20
0000
0000
0000
0000
,  // measure 21
0010
0000
0010
0000
,  // measure 22
0010
0000
1000
0000
,  // measure 23
0001
0000
0000
0000
,  // measure 24
0000
0000
0000
0000
,  // measure 25
1000
0000
0100
0000
,  // measure 26
0010
0000
0001
0000
,  // measure 27
1000
0000
0000
0000
,  // measure 28
0000
0000
0000
0000
,  // measure 29
0001
0000
0100
0000
,  // measure 30
0001
0000
0100
0000
,  // measure 31
0010
0000
0000
0000
,  // measure 32
0000
0000
0000
0000
,  // measure 33
1001
0000
0000
0000
,  // measure 34
0000
0000
0000
0000
,  // measure 35
0000
1000
0000
0000
,  // measure 36
0000
0001
0000
1000
,  // measure 37
0000
0010
0000
0000
,  // measure 38
0000
0010
0010
0010
,  // measure 39
0000
0100
0000
0001
,  // measure 40
0000
1000
1000
1000
,  // measure 41
0000
0001
0000
1000
,  // measure 42
0000
0010
0010
0010
,  // measure 43
0000
1001
0000
0000
,  // measure 44
0000
0000
0000
0000
,  // measure 45
0010
0000
0000
0000
,  // measure 46
0000
0000
0000
0000
,  // measure 47
1001
0000
0000
0000
,  // measure 48
0000
0000
0000
0000
,  // measure 49
0100
0000
0000
0000
,  // measure 50
0000
0000
0000
0000
,  // measure 51
1000
0000
0000
0000
,  // measure 52
0001
0000
0000
0000
,  // measure 53
0010
0000
0010
0000
,  // measure 54
0010
0000
0000
0000
,  // measure 55
0001
0000
0000
0000
,  // measure 56
0100
0000
0000
0000
,  // measure 57
0010
0000
0010
0000
,  // measure 58
1000
0000
0000
0000
,  // measure 59
0001
0000
0000
0000
,  // measure 60
1000
0000
0000
0000
,  // measure 61
0001
0000
0000
0000
,  // measure 62
0100
0000
0000
0000
,  // measure 63
0010
0000
0000
0000
,  // measure 64
0100
0000
0000
0000
,  // measure 65
0010
0000
0000
0000
,  // measure 66
1000
0000
0000
0000
,  // measure 67
0001
0000
0000
0000
,  // measure 68
0010
0000
0000
0000
,  // measure 69
0100
0000
0000
0000
;
