#TITLE:Autumn Twilight;
#SUBTITLE:;
#ARTIST:Rhapsody of Fire;
#TITLETRANSLIT:;
#SUBTITLETRANSLIT:;
#ARTISTTRANSLIT:;
#CREDIT:;
#BANNER:bn.png;
#BACKGROUND:bg.png;
#LYRICSPATH:;
#CDTITLE:;
#MUSIC:Autumn Twilight.mp3;
#OFFSET:0.000;
#SAMPLESTART:109.300;
#SAMPLELENGTH:12.000;
#SELECTABLE:YES;
#BPMS:0.000=180.000;
#STOPS:;
#BGCHANGES:;

//---------------dance-single - ----------------
#NOTES:
     dance-single:
     :
     Hard:
     7:
     0.371,0.670,0.223,0.536,0.034:
0000
0000
0000
0000
,
0000
0000
0000
0000
,
0000
0000
0000
0000
,
0000
0000
0000
0000
,
0000
0000
0000
0000
,
0000
0000
0000
0000
,
0000
0000
0000
0000
,
0000
0000
0000
0000
,
0001
0000
0100
0000
0010
0000
1000
0000
0001
0000
0010
0000
,
0200
0000
0000
0000
,
0310
0001
0100
1000
,
0100
0010
1000
0001
,
0010
0001
1000
0010
,
0200
0000
0000
0300
,
0010
1000
0010
0100
,
0010
1000
0001
0010
,
0100
0010
0001
1000
,
0002
0000
0000
0003
,
2002
0000
0000
3003
,
0000
0202
0000
0000
0000
0000
0000
0000
0000
0000
0000
0000
0000
0000
0000
0000
0000
0000
0000
0000
0000
0000
0000
0000
0000
0000
0000
0000
0000
0000
0000
0000
0000
0000
0000
0000
0000
0000
0000
0000
0000
0000
0000
0000
0000
0000
0000
0000
0000
0000
0000
0000
0000
0000
0000
0000
0000
0000
0000
0000
0000
0000
0000
0000
0000
0000
0000
0000
0000
0000
0000
0000
0000
0000
0000
0000
0000
0000
0000
0000
0000
0000
0000
0000
0000
0000
0000
0000
0000
0000
0000
0000
0000
0000
0000
0000
0000
0000
0000
0000
0000
0000
0000
0000
0000
0000
0000
0000
0000
0000
0000
0000
0000
0000
0000
0000
0000
0000
0000
0000
0000
0000
0000
0000
0000
0000
0000
0000
0000
0000
0000
0000
0000
0000
0000
0000
0000
0000
0000
0000
0000
0000
0000
0000
0303
0000
0000
0000
0000
0000
0000
0000
0000
0000
0000
0000
0000
0000
0000
0000
0000
0000
0000
0000
0000
0000
0000
0000
0000
0000
0000
0000
0000
0000
0000
0000
0000
0000
0000
0000
0000
0000
0000
0000
0000
0000
0000
0000
0000
0000
0000
0000
,
0001
0000
0000
0100
0000
0000
0010
0000
,
1000
0000
0000
0100
0000
0000
0000
0000
,
1000
0000
0000
0100
0000
1000
0000
0000
,
2002
0000
0000
0000
,
0000
0000
0000
0000
0000
0000
0000
3003
,
1020
0000
0000
0130
0000
0000
0010
0000
,
2010
0000
0000
0100
0000
0000
3100
0000
,
0200
0000
0000
0310
0000
0000
0100
0000
,
2000
0000
0000
0002
0000
0000
3003
0000
,
0102
0000
0000
0013
0000
0000
0001
0000
,
0120
0000
0000
0200
0000
0000
0330
0000
,
2001
0000
0000
3100
0000
0000
0010
0000
,
0022
0000
0000
0033
,
0101
0000
0000
0000
0000
0000
0001
0100
,
1000
0000
0000
1000
,
0110
0000
0000
0010
0000
0000
1000
0000
,
1002
0000
0000
0000
2000
0000
0000
3003
,
1100
0000
0000
0000
0000
0000
1000
0100
,
0020
0000
0000
0230
0000
0000
2300
0000
,
0020
0000
0000
3000
0100
0000
0000
0000
,
0130
0000
0000
0010
0000
0000
1000
0000
,
1000
0000
0000
0001
0000
0000
0100
0000
,
0001
0000
0000
0010
0000
0000
0001
0000
,
0001
0010
0100
1000
0000
0100
1000
0100
,
1000
0000
0000
1000
0000
0000
0100
0000
,
1000
0000
0000
0010
0000
0000
0100
0000
,
0010
0000
0000
0010
0000
0000
0100
0000
,
0010
1000
0001
0010
0000
0001
0010
0000
,
0001
0000
0000
0100
0000
0000
1000
0000
,
0100
0000
0000
0010
0000
0000
1000
0000
,
1000
0000
0000
0001
0000
0000
1000
0000
,
1000
0100
0010
0001
0000
0001
0010
0100
,
1000
0000
0000
0100
0000
0000
1000
0000
,
0010
0000
0000
0100
0000
0000
0100
0000
,
0010
0000
0000
1000
0000
0000
0001
0000
,
1000
0100
0010
0001
0000
0001
0010
0000
,
0100
0000
0010
0000
0001
0000
1000
0000
0010
0000
1000
0000
,
2002
0000
0000
0000
0000
0000
0000
3003
,
0101
0000
0000
0000
,
1010
0000
0101
0000
,
1001
0000
0000
0000
,
1100
0000
0011
0000
,
2002
3003
0202
0303
,
2020
3030
0220
0330
,
2020
3030
0022
0033
,
2020
0000
0000
0000
,
0000
0000
0000
3030
,
1000
1000
1000
1000
,
0001
0001
0001
0001
,
1000
0001
1000
0001
,
1000
0100
0010
0001
,
0020
0000
0000
0100
0000
0000
0100
0000
,
0230
0000
0000
1000
0000
0000
1000
0000
,
2300
0000
0000
0001
0000
0000
0001
0000
,
3002
0000
0000
0000
0200
0000
0000
0003
,
0020
0000
0000
0000
0330
0000
0010
1000
,
0001
0010
0200
0000
0000
0000
0000
0000
,
0310
0000
0000
0011
0000
0000
0001
0000
,
0100
0000
0000
0100
0000
0000
0000
0000
,
0010
0000
0000
1000
0000
0001
0000
0000
,
2000
0000
0000
0000
,
0020
0000
0000
3030
,
0120
0000
0000
1000
0000
0000
1000
0000
,
2030
0000
0000
0001
0000
0000
0001
0000
,
3002
0000
0000
0100
0000
0000
0103
0000
,
0200
0000
0000
0310
0000
0000
0000
0000
,
0020
0000
0000
0100
0000
0000
0100
0000
,
0230
0000
0000
0010
0000
0000
0000
0000
,
0320
0000
0000
2030
0000
0000
0001
0000
,
0002
0000
0000
3003
,
0101
0000
0000
0000
0000
0000
0001
0100
,
0020
0000
0000
0100
,
0230
0000
0000
0010
0000
0000
0320
0000
,
2000
0030
0200
3000
,
0020
0000
0000
0000
0000
0030
0310
0100
,
2000
0000
0000
3200
0000
0000
2300
0000
,
3020
0000
0000
0000
,
0000
0000
0000
0000
0000
0000
0130
0002
,
2000
0000
0000
0000
,
0000
0000
0000
0000
,
3003
0000
0000
0000
;

//---------------dance-single - ----------------
#NOTES:
     dance-single:
     :
     Challenge:
     8:
     0.513,0.708,0.581,0.521,0.179:
0000
0000
0000
0000
,
0000
0000
0000
0000
,
0000
0000
0000
0000
,
0000
0000
0000
0000
,
0000
0000
0000
0000
,
0000
0000
0000
0000
,
0000
0000
0000
0000
,
0000
0000
0000
0000
,
1010
0000
0010
0000
0100
0000
0001
0000
0010
0000
0100
0000
,
2200
0000
0000
0000
0000
0000
0000
0000
0000
0000
0000
0000
3300
0000
0000
1000
,
0100
0000
0000
0100
0010
0000
0000
0010
0001
0000
0000
0001
0100
0000
0000
0100
,
0010
0000
0000
0010
1000
0000
0000
1000
0010
0000
0000
0010
0100
0000
0000
0100
,
0001
0000
0000
0001
0010
0000
0000
0010
0100
0000
0000
0100
1000
0000
0000
1000
,
0002
0000
0000
0000
0000
0000
0000
0000
0100
0000
0000
0000
0103
0000
0000
0100
,
0001
0000
0000
0001
0010
0000
0000
0010
0100
0000
0000
0100
1000
0000
0000
1000
,
0001
0000
0000
0001
0100
0000
0000
0100
0010
0000
0000
0010
1000
0000
0000
1000
,
0100
0000
0000
0100
0010
0000
0000
0010
0001
0000
0000
0001
0100
0000
0000
0100
,
0020
0000
0100
0130
,
2002
0000
0000
0000
0000
3003
0001
0100
,
1000
0100
0020
0000
0000
0000
0030
0000
,
1000
0000
0010
1000
0000
1000
0001
0000
,
0011
0000
0001
0010
0000
0010
0100
0000
,
1100
0000
0100
0010
0000
0010
0001
0000
,
0202
0000
0000
0000
,
0000
0000
0000
0303
,
1002
0000
0000
0103
0000
0000
2001
0000
,
3200
0000
0000
0010
0000
0000
0310
0000
,
0102
0000
0000
0103
0000
0000
1010
0000
,
0120
0000
0000
2000
0000
0000
3030
0000
,
1020
0000
0000
0130
0000
0000
1010
0000
,
2100
0000
0000
3100
0000
0000
0110
0000
,
0012
0000
0000
0013
0000
0000
0101
0000
,
0220
0000
0000
0330
,
2002
0000
0000
0000
0000
3003
0001
0100
,
0020
0000
0000
0000
0000
0000
0100
0030
,
0110
0000
0000
0010
0000
0000
1000
0100
,
0020
0000
0230
0000
,
1300
0000
0000
0000
0000
0000
1000
0100
,
0002
0000
0000
0203
0000
0000
0320
0000
,
0032
0000
2003
0000
,
3100
0000
0000
1100
0000
0000
0011
0000
,
0101
0000
0000
1010
0000
0000
0110
0000
,
1001
0000
0000
1100
0000
0000
0011
0000
,
0001
0010
0100
1000
0000
0001
0010
0100
,
0010
0000
0000
0110
0000
0000
1100
0000
,
0011
0000
0000
0101
0000
0000
0011
0000
,
0101
0000
0000
0110
0000
0000
1001
0000
,
0001
0001
1000
0100
0000
1000
0100
0000
,
0110
0000
0000
0011
0000
0000
1100
0000
,
1010
0000
0000
0110
0000
0000
1010
0000
,
0101
0000
0000
1100
0000
0000
0101
0000
,
0001
0100
1000
0100
0000
0001
0010
1000
,
0010
0000
0000
0110
0000
0000
0011
0000
,
1100
0000
0000
0011
0000
0000
0101
0000
,
1010
0000
0000
0110
0000
0000
1001
0000
,
0001
0010
0100
0010
0000
0001
0100
0000
,
0010
0000
1000
0000
0010
0000
0001
0000
0010
0000
0100
0000
,
2002
0000
0000
0000
0000
0000
0000
3003
,
1001
0000
0000
0000
,
0101
0000
1010
0000
,
1010
0000
0000
0000
,
0110
0000
1001
0000
,
1001
0000
0000
0000
0010
0000
0000
0100
0001
0000
0000
0000
0000
0000
0000
0000
,
0110
0000
0000
0000
1000
0000
0000
0010
1000
0000
0000
0000
0000
0000
0000
0000
,
1000
0001
0100
0010
1000
0001
0010
0100
1000
0100
1000
0010
,
0100
0001
0010
0100
0010
0001
0200
0000
0000
0000
0000
0000
,
0000
0000
0000
0300
,
1000
0001
0100
0001
0010
0001
0100
0010
,
1000
0100
0010
0100
1000
0010
0100
0001
,
1000
0001
0010
0001
0100
0001
0100
0010
,
1000
0001
0010
0100
1000
0100
0010
0001
,
0020
0000
0000
0001
0000
0000
1000
0000
,
0230
0000
0000
1000
0000
0000
0001
0000
,
2300
0000
0000
3020
0000
0000
0230
0000
,
0302
0000
0000
0000
2000
0000
0000
3003
,
0220
0000
0000
0000
0330
0000
0100
1000
,
0001
1000
0002
0000
0000
0000
0000
0000
,
0103
0000
0001
0100
0000
0100
0010
0000
,
0010
0000
0010
1000
0000
1000
0010
0000
,
0110
0000
0010
1000
0000
1000
0100
0000
,
0220
0000
0000
0000
0000
0000
0000
0300
,
0200
0000
0000
0330
,
0012
0000
0000
0103
0000
0000
1020
0000
,
0130
0000
0000
1020
0000
0000
0130
0000
,
2010
0000
0000
3100
0000
0000
0120
0000
,
0031
0000
0000
2002
0000
0000
3003
0000
,
0102
0000
0000
0013
0000
0000
0101
0000
,
1020
0000
0000
0200
0000
0000
0330
0000
,
2010
0000
0000
3100
0000
0000
0011
0000
,
0202
0000
0000
0303
,
2001
0000
0000
0000
0000
0000
3001
0100
,
0020
0000
0000
0100
,
0230
0000
0000
1000
0000
0000
0310
1000
,
0002
0000
0023
0000
,
0032
0000
0000
0000
0000
0000
0103
1000
,
0200
0000
0000
0320
0000
0000
2030
0000
,
0002
0000
0000
0000
,
0000
0000
0000
0000
0000
0003
3001
0010
,
0200
0000
0000
0000
,
0000
0000
0000
0000
,
0300
0000
0000
0000
;

//---------------dance-single - ----------------
#NOTES:
     dance-single:
     :
     Medium:
     5:
     0.297,0.410,0.186,0.119,0.000:
0000
0000
0000
0000
,
0000
0000
0000
0000
,
0000
0000
0000
0000
,
0000
0000
0000
0000
,
0000
0000
0000
0000
,
0000
0000
0000
0000
,
0000
0000
0000
0000
,
0000
0000
0000
0000
,
1010
0000
0101
0000
,
2002
0000
0000
3003
,
0001
0100
1000
0100
,
0010
1000
0010
0001
,
0010
0100
0001
1000
,
0002
0000
0100
0100
,
0103
0001
0010
0100
,
0010
0001
1000
0010
,
0100
0010
1000
0001
,
0020
0000
0000
0030
,
0200
0000
0000
0000
,
2000
0000
0000
3300
,
1000
0000
0000
0001
0000
0000
0100
0000
,
0001
0000
0000
0010
0000
0000
0000
0000
,
0100
0000
0000
1000
0000
0100
0000
0000
,
2000
0000
0000
0000
,
0000
0000
0000
3000
,
1001
0000
0000
0001
0000
0000
1000
0000
,
0010
0000
0000
0100
0000
0000
0100
0000
,
0010
0000
0000
1000
0000
0000
0100
0000
,
1000
0000
0000
1010
0000
0000
0000
0000
,
0010
0000
0000
0100
0000
0000
0001
0000
,
0001
0000
0000
2000
0000
0000
0000
0000
,
3100
0000
0000
1000
0000
0000
0010
0000
,
0200
0000
0000
0000
,
0301
0000
0000
0000
0000
0000
1000
0001
,
1000
0000
0000
0001
,
0100
0000
0000
0010
0000
0000
0100
0010
,
1000
0000
0001
0000
,
0010
0000
0000
0000
0000
0000
0100
1000
,
0010
0000
0000
0100
0000
0000
0010
0000
,
0100
0000
0001
0000
,
1000
0000
0000
0001
0000
0000
0100
0000
,
0001
0000
0000
0010
0000
0000
0100
0000
,
1000
0000
0000
0100
0000
0000
1000
0000
,
0100
0010
0001
0010
0000
0001
0010
0000
,
0001
0000
0000
0100
0000
0000
0100
0000
,
0010
0000
0000
0010
0000
0000
1000
0000
,
0001
0000
0000
0100
0000
0000
0010
0000
,
1000
0010
1000
0010
0000
0010
0100
0000
,
0010
0000
0000
1000
0000
0000
0001
0000
,
0010
0000
0000
0010
0000
0000
0001
0000
,
0010
0000
0000
0001
0000
0000
0100
0000
,
0010
1000
0010
0100
0000
0001
0010
0100
,
1000
0000
0000
1000
0000
0000
0100
0000
,
1000
0000
0000
0010
0000
0000
0100
0000
,
0001
0000
0000
1000
0000
0000
0001
0000
,
0010
0100
0001
1000
0000
0001
1100
0000
,
0001
0000
1000
0000
,
1100
0000
0000
0000
,
0110
0000
0000
0000
,
1001
0000
0110
0000
,
1001
0000
0000
0000
,
0110
0000
1001
0000
,
0101
0000
1010
0000
,
1100
0000
0011
0000
,
1100
0000
0011
0000
,
0110
0000
1001
0000
,
0000
0000
0000
0000
,
0100
0100
0100
0100
,
0001
0001
0001
0001
,
1000
1000
1000
1000
,
0010
0010
0010
0010
,
0100
0000
0000
0010
0000
0000
1000
0000
,
0001
0000
0000
0001
0000
0000
1000
0000
,
0010
0000
0000
0100
0000
0000
0010
0000
,
2000
0000
0200
3300
,
0011
0000
0000
0000
0000
0000
0001
0010
,
0001
0000
0000
0000
,
0101
0000
0000
0001
0000
0000
0100
0000
,
0010
0000
0000
0100
0000
0000
0000
0000
,
0001
0000
0000
1000
0000
1000
0000
0000
,
0020
0000
0000
0000
,
0230
0000
0000
0000
,
0301
0000
0000
1000
0000
0000
0010
0000
,
1000
0000
0000
1000
0000
0000
0010
0000
,
0100
0000
0000
0001
0000
0000
0010
0000
,
0100
0000
0000
0110
0000
0000
0000
0000
,
0010
0000
0000
0100
0000
0000
1000
0000
,
1000
0000
0000
0001
0000
0000
0000
0000
,
0100
0000
0000
0001
0000
0000
0100
0000
,
0200
0000
0000
0300
,
0110
0000
0000
0000
0000
0000
0010
0100
,
0010
0000
0000
0010
,
1000
0000
0000
0001
0000
0000
1000
0000
,
0100
0000
1000
0000
,
0001
0000
0000
0000
0000
0000
0001
0100
,
0010
0000
0000
1000
0000
0000
0010
0000
,
0200
0000
0000
0000
,
0000
0000
0000
0000
,
0002
0000
0000
0000
,
0000
0000
0000
0000
,
0303
0000
0000
0000
;

//---------------dance-single - ----------------
#NOTES:
     dance-single:
     :
     Easy:
     3:
     0.189,0.335,0.097,0.089,0.000:
0000
0000
0000
0000
,
0000
0000
0000
0000
,
0000
0000
0000
0000
,
0000
0000
0000
0000
,
0000
0000
0000
0000
,
0000
0000
0000
0000
,
0000
0000
0000
0000
,
0000
0000
0000
0000
,
1000
0000
0001
0000
,
0110
0000
0000
0000
,
0010
0000
1000
0000
,
0100
0000
1000
0000
,
0001
0000
0100
0100
,
0100
0000
0000
0000
,
0010
0000
1000
0000
,
0010
0000
0100
0000
,
0001
0000
1000
0001
,
0100
0000
0000
0000
,
0101
0000
0000
0000
,
1010
0000
0000
0000
,
0010
0000
0100
0000
,
0010
0000
1000
0000
,
0001
0000
1000
0100
,
2000
0000
0000
0000
,
0000
0000
0000
3000
,
0001
0000
0001
0000
,
0100
0000
0010
0000
,
1000
0000
0010
0000
,
0100
0010
1000
0000
,
0010
0000
1000
0000
,
0001
0000
0010
0000
,
0001
0000
0100
0000
,
0010
0000
0000
0000
,
0110
0000
0000
0000
,
0010
0000
0000
1000
,
1000
0000
0000
0001
0000
0000
1000
0000
,
0001
0000
0100
0000
,
0001
0000
0000
0000
,
1000
0000
0000
0000
,
0001
0000
0000
0000
,
0010
0000
0000
0001
,
0100
0000
0000
0010
,
1000
0000
0000
0010
,
0100
0000
0000
0010
,
1000
0000
0000
0001
,
0001
0000
0000
1000
,
0100
0000
0000
0010
,
0001
0000
0000
0000
,
0001
0000
0000
0100
,
0010
0000
0000
0010
,
1000
0000
0000
1000
,
0100
0000
0000
0000
,
0100
0000
0000
1000
0000
0000
0010
0000
,
0010
0000
0000
0100
,
0010
0000
0000
1000
0000
0000
0001
0000
,
0001
0000
0000
0000
,
1000
0000
0001
0000
,
0110
0000
0000
0000
,
0010
0000
0000
0000
,
0100
0000
0001
0000
,
1000
0000
0000
0000
,
0001
0000
1000
0000
,
0010
0000
0000
0000
,
0100
0000
0000
0000
,
0001
0000
1000
0000
,
0001
0000
0000
0000
,
0000
0000
0000
0000
,
1000
0001
1000
0001
,
1000
0001
1000
0001
,
1000
0001
1000
0001
,
1000
0001
1000
0001
,
0020
0000
0000
0030
,
0200
0000
0000
0300
,
2000
0000
0000
3000
,
0002
0000
2000
3003
,
0110
0000
0000
0000
,
0100
0000
0000
0000
,
0010
0000
1000
0000
,
0001
0000
1000
0000
,
0100
0000
1000
1000
,
0002
0000
0000
0000
,
0200
0000
0000
0303
,
0001
0000
0000
0100
,
0010
0000
0000
0000
,
1000
0000
0000
0010
,
0100
0000
0000
0000
,
0100
0000
0000
0001
,
0001
0000
0000
0000
,
1000
0000
0001
0000
,
0200
0000
0000
0300
,
0101
0000
0000
0000
,
1010
0000
0000
0000
,
0110
0000
0000
0000
,
1001
0000
0000
0000
,
0110
0000
0000
0000
,
1010
0000
0000
0000
,
0202
0000
0000
0000
,
0000
0000
0000
0000
0000
0300
0000
0000
,
0020
0000
0000
0000
,
0000
0000
0000
0000
,
0033
0000
0000
0000
;

//---------------dance-single - ----------------
#NOTES:
     dance-single:
     :
     Beginner:
     1:
     0.111,0.183,0.030,0.000,0.000: // measure 1
0000
0000
0000
0000
,  // measure 2
0000
0000
0000
0000
,  // measure 3
0000
0000
0000
0000
,  // measure 4
0000
0000
0000
0000
,  // measure 5
0000
0000
0000
0000
,  // measure 6
0000
0000
0000
0000
,  // measure 7
0000
0000
0000
0000
,  // measure 8
0000
0000
0000
0000
,  // measure 9
0010
0000
0000
0000
,  // measure 10
0100
0000
0000
0000
,  // measure 11
0001
0000
0000
0000
,  // measure 12
1000
0000
0000
0000
,  // measure 13
0100
0000
0100
0000
,  // measure 14
0100
0000
0000
0000
,  // measure 15
0001
0000
0000
0000
,  // measure 16
0100
0000
0000
0000
,  // measure 17
0001
0000
0001
0000
,  // measure 18
0001
0000
0000
0000
,  // measure 19
1001
0000
0000
0000
,  // measure 20
0010
0000
0000
0000
,  // measure 21
0100
0000
0000
0000
,  // measure 22
0010
0000
0000
0000
,  // measure 23
1000
0000
0001
0000
,  // measure 24
0100
0000
0000
0000
,  // measure 25
0000
0000
0000
0000
,  // measure 26
0001
0000
0000
0000
,  // measure 27
1000
0000
0000
0000
,  // measure 28
0100
0000
0000
0000
,  // measure 29
0010
0000
0000
0000
,  // measure 30
0100
0000
0000
0000
,  // measure 31
1000
0000
0000
0000
,  // measure 32
0001
0000
0000
0000
,  // measure 33
0100
0000
0000
0000
,  // measure 34
0010
0000
0000
0000
,  // measure 35
0100
0000
0000
0000
,  // measure 36
0100
0000
0000
0000
,  // measure 37
0010
0000
0010
0000
,  // measure 38
1000
0000
0000
0000
,  // measure 39
0001
0000
0000
0000
,  // measure 40
0001
0000
0001
0000
,  // measure 41
0100
0000
0000
0000
,  // measure 42
0001
0000
0000
0000
,  // measure 43
1000
0000
0000
0000
,  // measure 44
0100
0000
0000
0000
,  // measure 45
1000
0000
0000
0000
,  // measure 46
0010
0000
0000
0000
,  // measure 47
0100
0000
0000
0000
,  // measure 48
0001
0000
0000
0000
,  // measure 49
1000
0000
0000
0000
,  // measure 50
0001
0000
0000
0000
,  // measure 51
0001
0000
0000
0000
,  // measure 52
0100
0000
0000
0000
,  // measure 53
0001
0000
0000
0000
,  // measure 54
1000
0000
0000
0000
,  // measure 55
0100
0000
0000
0000
,  // measure 56
1000
0000
0000
0000
,  // measure 57
0010
0000
0100
0000
,  // measure 58
0010
0000
0000
0000
,  // measure 59
1000
0000
0000
0000
,  // measure 60
0001
0000
0001
0000
,  // measure 61
0001
0000
0000
0000
,  // measure 62
1000
0000
1000
0000
,  // measure 63
0010
0000
0000
0000
,  // measure 64
0100
0000
0000
0000
,  // measure 65
0010
0000
0010
0000
,  // measure 66
0010
0000
0000
0000
,  // measure 67
0000
0000
0000
0000
,  // measure 68
0100
0000
0000
0000
,  // measure 69
0001
0000
0000
0000
,  // measure 70
1000
0000
0000
0000
,  // measure 71
1000
0000
0000
0000
,  // measure 72
0001
0000
0000
0000
,  // measure 73
0100
0000
0000
0000
,  // measure 74
0001
0000
0000
0000
,  // measure 75
0010
0000
0100
0000
,  // measure 76
1000
0000
0000
0000
,  // measure 77
0001
0000
0000
0000
,  // measure 78
0100
0000
0000
0000
,  // measure 79
0001
0000
0000
0000
,  // measure 80
1000
0000
1000
0000
,  // measure 81
0010
0000
0000
0000
,  // measure 82
0000
0000
0000
0000
,  // measure 83
0100
0000
0000
0000
,  // measure 84
0010
0000
0000
0000
,  // measure 85
1000
0000
0000
0000
,  // measure 86
0100
0000
0000
0000
,  // measure 87
1000
0000
0000
0000
,  // measure 88
0001
0000
0000
0000
,  // measure 89
0100
0000
0000
0000
,  // measure 90
0001
0000
0000
0000
,  // measure 91
1001
0000
0000
0000
,  // measure 92
0010
0000
0000
0000
,  // measure 93
0100
0000
0100
0000
,  // measure 94
0100
0000
0000
0000
,  // measure 95
0110
0000
0000
0000
,  // measure 96
0010
0000
1000
0000
,  // measure 97
0001
0000
0000
0000
,  // measure 98
0000
0000
0000
0000
,  // measure 99
0110
0000
0000
0000
;
