#TITLE:Aegis;
#SUBTITLE:;
#ARTIST:IT medalion;
#TITLETRANSLIT:;
#SUBTITLETRANSLIT:;
#ARTISTTRANSLIT:;
#CREDIT:;
#BANNER:bn.png;
#BACKGROUND:bg.png;
#LYRICSPATH:;
#CDTITLE:;
#MUSIC:1.31. Aegis.mp3;
#OFFSET:1.080;
#SAMPLESTART:18.140;
#SAMPLELENGTH:12.000;
#SELECTABLE:YES;
#BPMS:0.000=162.000;
#STOPS:115.000=0.370
,122.000=0.370
,129.000=0.370
,136.500=0.370
,208.500=0.741
,248.000=0.185
,255.000=0.185
;
#BGCHANGES:0.000=Aegis _ IT medalion.avi=1.000=1=1=0,
99999=-nosongbg-=1.000=0=0=0 // don't automatically add -songbackground-
;

//---------------dance-single - ----------------
#NOTES:
     dance-single:
     :
     Hard:
     8:
     0.512,0.532,0.194,0.166,0.088:
0000
0000
0000
0000
,
0000
0000
0000
0000
,
0000
0000
0000
0000
,
0000
0000
0000
0000
,
0000
0000
0000
0000
,
1000
0001
0100
0000
0010
0000
1010
0000
,
1000
0000
0100
0000
0001
0000
0100
0001
,
0010
0001
0100
0000
0010
0000
1000
0000
,
0001
0000
0010
0000
0100
0000
0000
0000
0010
0000
0000
0001
0000
0000
1000
0000
,
0001
0100
0010
1000
0001
0010
0100
1000
,
0001
0001
1000
1000
,
1001
0010
1001
0010
,
0101
1100
1010
0200
,
0301
0010
0100
1000
0100
0010
0001
0000
,
1000
0001
0100
0010
1000
0001
0100
0000
,
0010
1000
0010
0001
0010
1000
0100
0000
,
1000
0000
0100
0000
0010
0000
0100
0000
1000
0000
0000
1000
0000
0000
0000
0000
,
0001
0100
0010
1000
0100
0010
0001
0000
,
0010
0001
0100
0010
1000
0001
0010
0000
,
0100
1000
0010
1000
0001
1000
0100
0000
,
0010
0000
0001
0000
0100
0000
0010
0000
1000
0000
0000
0001
0000
0000
0100
0000
,
0101
0000
0100
0000
0010
0000
1000
0010
,
0110
0000
0010
0000
1000
0000
0001
1000
,
1001
0000
1000
0000
0100
0000
0010
0001
,
0011
0000
0001
0000
0100
0000
0010
1000
,
1001
0000
0110
0000
1001
0000
0001
0100
,
0110
0000
1010
0000
0101
0000
0001
0010
,
0011
0000
0110
0000
1100
0000
1000
0100
,
0010
0010
0100
1000
0100
0010
0100
0000
,
0100
0010
0001
0000
1000
0000
1000
0000
,
0001
0100
0001
0100
0010
0000
0100
0001
,
0010
0000
0100
0000
1000
0000
0100
0010
,
0001
1000
0010
0000
0100
0100
0001
0000
,
0001
0001
0010
0000
0100
0100
1000
0010
,
1000
0001
1000
0001
0010
0000
0100
0000
,
1000
0000
0100
0010
0001
0010
2000
0000
,
3020
0000
0000
0000
0031
0000
0000
0100
0000
0000
0001
0000
0000
0000
1000
0000
,
0000
0000
0001
0000
1000
0000
0000
1000
0000
0000
0010
0000
0100
0000
0000
0001
,
0000
0000
0010
0000
0100
0000
0000
0100
0000
0000
0100
0000
0000
0000
1000
0000
,
0000
0000
0100
0000
1000
0000
0000
0010
0000
0000
0100
0000
0001
0000
0000
0001
,
0000
0000
0001
0000
1000
0000
0000
0001
0000
0000
1000
0000
0000
0000
0100
0000
,
0000
0000
1000
0000
0010
0000
0000
0010
0000
0000
0100
0000
0001
0000
0000
1000
,
0000
0000
0100
0000
0010
0000
0000
0100
0000
0000
1000
0000
1000
0000
0000
0001
,
0000
0100
0001
0010
0100
1000
0001
0010
,
0100
1000
0002
0000
0000
0000
0000
0000
,
0003
2000
0000
0000
,
3000
0020
0000
0000
,
0030
0200
0000
0000
,
0300
0002
0100
0100
,
0100
0203
0010
0010
,
0010
0010
0320
0000
1000
0000
1000
0000
,
1000
0000
1030
0100
0010
0001
1000
0100
,
0010
0001
2001
0000
0001
0000
0001
0000
,
3001
0000
0100
0000
0020
0000
0000
0000
0100
0000
0000
0000
0100
0000
0000
0100
,
0000
0100
0230
0000
0010
0000
0010
0000
,
0310
1000
0200
0000
0010
0000
0310
0001
,
0010
0001
0020
0000
0001
0000
0001
0000
,
0031
0000
0010
0000
0002
0000
0000
0000
0100
0000
0000
0000
0100
0000
0000
0100
,
0000
0100
0203
0000
0010
0000
0010
0000
,
0310
0000
1000
0000
0200
0000
0000
0000
1000
0000
0000
0000
1000
0000
0000
1300
,
0000
0000
1000
0001
0100
0001
0010
0100
,
1000
0000
0100
0010
0001
0010
0100
0010
,
0001
0001
1000
0010
1000
0010
0100
0010
,
0000
0100
0001
0010
0100
0010
0010
0000
,
0100
1000
0010
0100
0001
1000
0100
0000
,
0010
0000
0001
0000
0100
0000
1000
0000
0100
0000
0000
0010
0000
0000
1000
0000
,
0001
0010
0100
0010
0001
1000
0010
0100
,
0010
0000
1000
0000
0100
0000
0010
0000
0100
0000
0000
0100
0000
0000
1001
0000
;

//---------------dance-single - ----------------
#NOTES:
     dance-single:
     :
     Medium:
     6:
     0.376,0.470,0.175,0.268,0.000:
0000
0000
0000
0000
,
0000
0000
0000
0000
,
0000
0000
0000
0000
,
0000
0000
0000
0000
,
0000
0000
0000
0000
,
1000
0001
1000
0000
0100
0000
0100
0000
,
0010
0100
1000
0010
,
0100
0001
0100
0000
0001
0000
1000
0000
,
0100
0010
0002
0000
,
0103
0001
0010
0000
0100
0000
1000
0000
,
0100
1000
0010
0100
,
0101
0100
0110
0010
,
1010
0011
1001
0002
,
0103
0000
0010
0000
1000
0010
1000
0000
,
0010
0000
0100
0000
0001
0010
0001
0000
,
0010
0000
0100
0000
1000
0100
1000
0000
,
1000
0000
0001
0100
0020
0000
0030
0000
,
0100
0000
0010
0000
1000
0001
0010
0000
,
0100
0000
1000
0000
0100
0010
0001
0000
,
1000
0000
0010
0000
0100
0001
0100
0000
,
0001
0000
0010
0000
0100
1000
0010
0100
,
0001
0000
1000
0000
0010
0000
0100
0001
,
0100
0010
1000
0100
,
1000
0000
0010
0000
0100
0000
0001
0100
,
0001
0000
0100
0000
0010
0000
1000
0001
,
1000
0000
0100
0000
0010
0000
0001
0010
,
0001
0000
0010
0000
0100
0000
1000
0100
,
1000
0100
0010
0001
,
1000
0001
1000
0001
1000
0001
1000
0000
,
0001
0100
0010
0100
,
0010
0000
1000
0010
0100
0000
0010
0000
,
0010
0100
0100
0010
,
1000
0001
0100
0000
0001
0000
1000
0000
,
0100
1000
0010
0100
,
0001
0100
0001
0000
0100
0000
1000
0000
,
0100
0010
1000
0020
,
0000
0130
0010
1000
,
0001
0010
0100
0010
,
0010
0100
1000
0100
,
1000
0001
0100
0002
,
0000
0103
0100
1000
,
0100
0010
1000
0001
,
0010
0110
0100
1100
,
0100
1100
0011
0101
,
1010
0020
0000
0000
,
0030
0200
0000
0000
,
0300
0002
0000
0000
,
0003
2000
0000
0000
,
3000
2002
0000
0000
,
3003
0202
0000
0000
,
0303
0220
0000
0000
,
0330
2020
0000
0000
,
3030
0220
0000
0000
,
0300
0100
0200
0000
0000
0000
0000
0000
,
0330
2002
0000
0000
,
0003
0001
0002
0000
0000
0000
0000
0000
,
3003
0202
0000
0000
,
0003
0001
0002
0000
0000
0000
0000
0000
,
0303
2020
0000
0000
,
3000
1000
2000
0000
0000
0000
0000
3030
,
0000
0000
0010
1000
0010
0000
0100
0000
,
0010
0000
1000
0001
1000
0000
0001
0000
,
0100
0010
1000
0010
0000
0100
0000
0010
,
0000
1000
0001
1000
0000
0001
0100
0000
,
0001
0000
0100
0000
0010
0100
0010
0000
,
1000
0000
0010
0000
0100
0010
0100
0000
,
0010
0000
1000
0000
0001
0010
0100
0000
,
1000
0000
0100
0000
0010
0001
0100
0001
;

//---------------dance-single - ----------------
#NOTES:
     dance-single:
     :
     Easy:
     4:
     0.273,0.345,0.185,0.166,0.000:
0000
0000
0000
0000
,
0000
0000
0000
0000
,
0000
0000
0000
0000
,
0000
0000
0000
0000
,
0000
0000
0000
0000
,
0001
1000
0001
0000
,
0100
0000
0001
0000
,
0100
0010
1000
0000
,
0010
0000
0110
0000
,
1001
0001
1000
1000
,
0001
0000
0100
0000
,
0010
0000
0100
0000
,
0001
1000
0020
0000
,
0130
0100
0010
1000
,
0010
0010
0100
0000
,
0001
0001
1000
0100
,
1000
1000
0001
0000
,
0100
0100
0001
0100
,
0010
0010
0100
0001
,
1000
1000
0001
0100
,
0010
0010
1000
0001
,
1001
0000
0101
0000
,
1010
0000
0110
0000
,
1001
0000
1100
0000
,
0011
0000
0101
0010
,
0101
0000
1001
0000
,
1100
0000
0110
0010
,
0110
0000
1100
0000
,
0011
0000
0110
1001
,
0101
0001
0001
0000
,
0100
0010
1000
0010
,
0100
0001
0000
1000
,
1000
0001
1000
0100
,
0010
0000
0100
1000
,
0010
0100
0010
1000
,
0000
0001
1000
0100
,
0000
1000
0001
0100
,
0000
0001
1000
0100
,
0100
1000
0001
0100
,
0000
0001
1000
0100
,
0100
1000
0001
0010
,
0000
0001
1000
0010
,
0010
1000
0010
1000
,
0001
0010
0001
0010
,
0100
2000
0000
0000
,
3000
0200
0000
0000
,
0300
2000
0000
0000
,
3000
0002
0000
0000
,
0003
0200
0000
0000
,
0000
0320
0000
0000
,
0000
2030
0000
0000
,
0000
0002
0000
0000
,
0000
3003
0002
0000
0000
0000
0000
0000
,
0000
2000
0000
0000
,
3003
2000
0000
0000
,
0000
0200
0000
0000
,
3300
0200
0000
0000
,
0000
0020
0000
0000
,
0330
0020
0000
0000
,
0000
0002
0000
0000
,
0033
0001
0001
1000
,
0010
0100
0100
0010
,
0000
1000
0000
0001
0000
0100
0000
0001
,
0000
0010
0000
0100
0000
1000
0000
0000
,
1000
0100
1000
1000
,
0100
0010
0001
0001
,
1000
0001
0100
1000
,
0100
0000
0010
0000
1000
0000
0002
0003
;

//---------------dance-single - ----------------
#NOTES:
     dance-single:
     :
     Beginner:
     1:
     0.132,0.218,0.018,0.074,0.000:
0000
0000
0000
0000
,
0000
0000
0000
0000
,
0000
0000
0000
0000
,
0000
0000
0000
0000
,
0000
0000
0000
0000
,
0001
0000
0000
0000
,
0100
0000
0100
0000
,
0001
0000
0000
0000
,
1000
0000
0010
0000
,
0110
0000
0000
0000
,
0100
0000
0001
0000
,
1000
0000
1000
0000
,
0001
0001
0001
0000
,
0100
0000
0000
0000
,
0001
0000
0000
0000
,
1000
0000
0000
0000
,
0100
0000
0000
0000
,
1000
0000
0000
0000
,
0010
0000
0000
0000
,
0100
0000
0000
0000
,
0001
0000
0000
0000
,
1000
0000
0000
0001
,
0001
0000
0000
0000
,
0100
0000
0000
0010
,
0010
0000
0000
0100
,
0100
0000
0000
0001
,
0001
0000
0000
1000
,
1000
0000
0001
0000
,
0100
0100
0100
0100
,
0110
0000
0000
0000
,
0010
0000
0010
0100
,
0000
0000
0000
0001
,
0000
1000
0100
0000
,
0000
0000
1000
0000
,
0010
0100
0000
0000
,
0000
0010
0000
1000
,
0000
0001
0000
0000
,
0000
0100
0000
0001
,
0000
1000
0000
0000
,
0000
0100
0000
1000
,
0000
0010
0000
0000
,
0000
1000
0000
0001
,
0000
0100
0000
0100
,
0000
0100
0100
0100
,
0000
0010
0000
0000
,
0000
1000
0000
0000
,
0000
0001
0000
0000
,
0000
1000
0000
0000
,
0000
0100
0000
0000
,
0000
1000
0000
0000
,
0000
0001
0000
0000
,
0000
0100
0000
0000
,
0000
0020
0000
0000
,
0030
0200
0000
0000
,
0300
0002
0000
0000
,
0003
2000
0000
0000
,
3000
0002
0000
0000
,
0003
2000
0000
0000
,
3000
0020
0000
0000
,
0030
0200
0000
0000
,
0300
0010
0000
0000
,
0000
1000
0000
0000
,
0000
0001
0000
0000
0000
0000
0000
0000
,
0000
1000
0000
0000
0000
0000
0000
0000
,
0010
0000
0000
0000
,
0100
0000
0000
0000
,
0001
0000
0000
0000
,
1000
0000
0010
0000
;

//---------------dance-double - ----------------
#NOTES:
     dance-double:
     :
     Challenge:
     8:
     0.534,0.564,0.351,0.185,0.065:
00000000
00000000
00000000
00000000
,
00000000
00000000
00000000
00000000
,
00000000
00000000
00000000
00000000
,
00000000
00000000
00000000
00000000
,
00000000
00000000
00000000
00000000
,
10000000
00010000
01000000
00000000
00010000
00000000
00100000
00000000
,
00001000
00010000
00000100
00000100
,
00001000
00000010
00000001
00000010
,
00001000
00000000
00000000
00000000
00000100
00000000
00000000
00000000
00001000
00000000
00000000
00000100
00000000
00000000
00010000
00000000
,
00001000
00100000
00010000
01000000
10000000
01000000
00100000
10000000
,
00010000
00100000
01000000
00100000
,
00110000
01000000
01010000
11000000
,
10010000
00101000
00021000
00030200
,
00001300
00000100
00000010
00000100
00001000
00000010
00000100
00000000
,
00000001
00000100
00000010
00001000
00000100
00001000
00000010
00000000
,
00000010
00001000
00000100
00010000
00001000
00100000
00010000
00000000
,
00010000
00000000
00100000
00000000
01000000
00000000
10000000
00000000
00010000
00000000
00000000
02000000
00000000
00000000
00000000
00000000
,
03010000
01000000
00100000
01000000
00010000
00100000
01000000
00000000
,
01000000
10000000
00100000
01000000
00010000
00100000
01000000
00000000
,
01000000
00100000
00001000
00010000
00000100
00001000
00000010
00000000
,
00000100
00000001
00000100
00001000
00000100
00000010
00001000
00000100
,
00010100
00000000
00101000
00000000
00011000
00000000
00001000
00100000
,
00110000
11000000
01010000
10100000
,
11000000
00000000
01100000
00000000
00110000
00000000
00100000
00001000
,
00001100
00000000
00000011
00000000
00000101
00000000
00000001
00000100
,
00000110
00000000
00001010
00000000
00001100
00000000
00000100
00010000
,
00010100
00000000
00010100
00000000
00011000
00000000
00001000
00010000
,
00110000
11000000
01010000
11000000
,
10000000
01000000
00010000
00001000
00000100
00000001
00000100
00000000
,
00000021
00000000
00000130
00000000
00000100
00001000
00000010
00000000
,
00000010
00001000
00000100
00010000
00001000
00000000
00210000
00000000
,
01300000
00000000
01000000
00100000
00010000
00000000
00010000
01000000
,
10000000
01000000
00100000
00000000
01000000
00100000
10000000
00000000
,
10000000
00010000
00100000
00000000
00100000
00001000
00010000
00000100
,
00001000
00000010
00000100
00000001
00000010
00000000
00000100
00001000
,
00000100
00000000
00000100
00010000
00001000
00100000
00010000
00100000
,
00001000
00000000
00010000
00000000
00000100
00000000
00000000
00000010
00000000
00000000
00000001
00000000
00000000
00000000
00000100
00000000
,
00000000
00000000
00000001
00000000
00000100
00000000
00000000
00000010
00000000
00000000
00001000
00000000
00001000
00000000
00000000
00000001
,
00000000
00000000
00000010
00000000
00000100
00000000
00000000
00010000
00000000
00000000
00001000
00000000
00000000
00000000
00100000
00000000
,
00000000
00000000
00001000
00000000
00010000
00000000
00000000
00000100
00000000
00000000
00000100
00000000
00010100
00000000
00000000
00011000
,
00000000
00000000
01010000
00000000
00010000
00000000
00000000
10000000
00000000
00000000
00100000
00000000
00000000
00000000
01000000
00000000
,
00000000
00000000
01000000
00000000
00010000
00000000
00000000
00100000
00000000
00000000
01000000
00000000
10000000
00000000
00000000
00010000
,
00000000
00000000
01000000
00000000
00010000
00000000
00000000
00100000
00000000
00000000
00001000
00000000
00010000
00000000
00000000
00000010
,
00000000
00000100
00000001
00000100
00001000
00000100
00000010
00001000
,
00000100
00010000
00000200
00000000
00000000
00000000
00000000
00000000
,
00000000
00000320
00000000
00000000
,
00000000
00000032
00000000
00000000
,
00000000
00002003
00000000
00000000
,
00000000
00003200
00010000
00010000
,
00010000
00020300
00001000
00001000
,
00031000
00100000
02000000
00000000
00100000
00000000
00100000
00000000
,
00100000
00000000
03100000
00001000
00010000
00000100
00000001
00000010
,
00000100
00001000
00102000
00000000
00100000
00000000
00100000
00000000
,
00103000
00010000
02000000
00000000
10000000
00000000
10000000
00000000
,
10000000
23000000
01000000
01000000
,
31000000
00100000
20000000
00000000
00010000
00000000
30010000
10000000
,
01000000
00100000
00002000
00000000
00010000
00000000
00010000
00000000
,
00013000
00000010
00000200
00000000
00000010
00000000
00000010
00000000
,
00000010
00000320
00001000
00001000
,
00001030
00000000
00000001
00000000
00000020
00000000
00000000
00000000
00000100
00000000
00000000
00000000
00000130
00000000
00000000
00001100
,
00000000
00000000
00000100
00010000
00001000
01000000
10000000
01000000
,
00100000
00000000
01000000
00010000
10000000
01000000
00100000
00010000
,
10000000
01000000
00100000
01000000
10000000
00010000
01000000
00001000
,
00000000
00010000
00000100
00010000
00000010
00001010
00000101
00000000
,
00000001
00000100
00000010
00000100
00000001
00000010
00000100
00000000
,
00001000
00000100
00010000
00001000
00100000
10000000
00100000
00000000
,
01000000
10000000
00100000
00010000
00100000
01000000
00010000
00100000
,
00001000
00010000
00000010
00000100
00000001
00000100
00001000
00000100
;

//---------------dance-single - ----------------
#NOTES:
     dance-single:
     :
     Challenge:
     9:
     0.599,0.690,0.600,0.102,0.272: // measure 1
0000
0000
0000
0000
,  // measure 2
0000
0000
0000
0000
,  // measure 3
0000
0000
0000
0000
,  // measure 4
0000
0000
0000
0000
,  // measure 5
0000
0000
0000
0000
0000
0000
0000
0000
1001
0000
0000
0101
0000
0000
1100
0000
,  // measure 6
1000
0100
0001
0100
0010
0001
0100
0000
,  // measure 7
0001
0000
0000
0100
0000
0000
1000
0000
0100
0000
0000
0010
0000
0000
1000
0000
,  // measure 8
0001
0000
0000
0001
0000
0000
1000
0000
0000
0000
0100
0000
0000
0000
0100
0000
,  // measure 9
0010
0000
0000
0001
0000
0000
0100
0000
0110
0000
0000
1010
0000
0000
1001
0000
,  // measure 10
0001
0100
1000
0100
0010
1000
0100
0010
,  // measure 11
0001
0000
0000
0010
0000
0000
0100
0000
1000
0000
0000
0010
0000
0000
0100
0000
,  // measure 12
0101
0000
0000
0100
0000
0000
0010
0000
1010
0000
0000
1000
0000
0000
0001
0000
,  // measure 13
1000
0000
0100
0000
0010
0000
0001
0000
1000
0000
0100
0000
0010
0001
0100
0010
,  // measure 14
1000
0000
0010
0000
0100
0000
0001
0000
1000
0000
0000
1000
0000
0000
1000
0000
,  // measure 15
0100
0000
0010
0000
0001
0000
0010
0000
0100
0000
0000
1000
0000
0000
0000
0000
,  // measure 16
0100
0000
1000
0000
0010
0000
0100
0000
0001
0000
0000
0001
0000
0000
0100
0000
,  // measure 17
0001
0000
0100
0000
0010
0000
1000
0000
1010
0000
0000
0101
0000
0000
0000
0000
,  // measure 18
0001
0000
1000
0000
0100
0000
0010
0000
0100
0000
0000
1000
0000
0000
1000
0000
,  // measure 19
0100
0000
0010
0000
0001
0000
0010
0000
0100
0000
0000
0110
0000
0000
0000
0000
,  // measure 20
0010
0000
0001
0000
0100
0000
1000
0000
0100
0000
0000
0110
0000
0000
0010
0000
,  // measure 21
1000
0001
0010
0100
0010
0001
0010
0001
,  // measure 22
1000
0000
0000
0001
0100
0000
0010
0000
1010
0000
0000
1000
0100
0000
0010
0000
,  // measure 23
0011
0000
0000
0001
0100
0000
0010
0000
1010
0000
0000
1000
0100
0000
0010
0000
,  // measure 24
0011
0000
0000
0001
0100
0000
0010
0000
1010
0000
0000
1000
0100
0000
0010
0000
,  // measure 25
0011
0000
0000
0001
0100
0000
0010
0000
0110
0000
0000
0000
1001
0000
0000
0000
,  // measure 26
0001
0100
1000
0100
0010
1000
0001
0010
,  // measure 27
0100
0010
0001
0010
0100
0010
0001
1000
,  // measure 28
0010
1000
0010
0001
0100
1000
0100
0010
,  // measure 29
0010
0000
1000
0000
0010
0000
0100
0000
0001
0100
0001
0100
0002
0000
0000
0000
,  // measure 30
0013
0000
0110
0000
0010
0100
1000
0000
,  // measure 31
0100
0100
1000
0010
0100
0000
0010
0000
,  // measure 32
1001
0000
0001
0100
0100
0000
0001
0100
,  // measure 33
1000
0100
0010
0000
0010
1000
0001
0000
,  // measure 34
0001
0010
0100
0000
0010
0100
1000
0010
,  // measure 35
0100
0001
0100
0001
0100
0000
0100
0010
,  // measure 36
1000
0000
0001
0010
0100
1000
0200
0000
,  // measure 37
2300
0000
0000
0000
3010
0000
0000
1010
0000
0000
0010
0000
0000
0000
0110
0000
,  // measure 38
0000
0000
0010
1000
0010
0000
0000
0100
0000
0000
0100
0000
0101
0000
0000
0010
,  // measure 39
0000
0000
1000
0000
0001
0000
0000
0010
0000
0000
0100
0000
0000
0000
0100
0000
,  // measure 40
0000
0000
0010
0001
1000
0000
0000
0001
0000
0000
0100
0000
0101
0000
0000
1010
,  // measure 41
0000
0000
0000
0000
1001
0000
0000
1000
0100
0000
0000
0000
0000
0000
1000
0000
0000
0000
0000
0000
0100
0000
0000
0000
0000
0000
0000
0000
1000
0000
0000
0000
,  // measure 42
0000
0000
1000
0010
0100
0000
0000
0110
0000
0000
0010
0000
1000
0000
0000
1001
,  // measure 43
0000
0000
0001
0000
0011
0000
0000
1100
0000
0000
1000
0000
1010
0000
0000
0101
,  // measure 44
0000
0000
0001
0000
1000
0000
0100
0000
0010
0000
0001
0000
0001
0100
0010
1000
,  // measure 45
0001
0010
0100
1000
0002
0000
0000
0000
0000
0000
0000
0000
0000
0000
0000
0000
,  // measure 46
0000
0203
0000
0000
,  // measure 47
0000
2300
0000
0000
,  // measure 48
0000
3020
0000
0000
,  // measure 49
0000
0032
0000
0000
,  // measure 50
0000
0203
0000
0000
,  // measure 51
0000
2300
0000
0000
,  // measure 52
0000
3020
0000
0000
,  // measure 53
0000
0030
1001
0000
0101
0000
1010
0000
,  // measure 54
0010
0000
0100
0000
0110
0000
0000
0000
1010
0000
0000
0000
0001
0000
0000
1000
,  // measure 55
0000
0001
1000
0000
1100
0000
0011
0000
,  // measure 56
0001
0010
0110
0000
1100
0000
1001
1000
,  // measure 57
1001
0001
1001
0000
0001
0000
0110
0000
,  // measure 58
0010
0000
1000
0000
1010
0000
0000
0000
0110
0000
0000
0000
1001
0000
0000
1001
,  // measure 59
0000
1001
0101
0000
1010
0000
1100
0000
,  // measure 60
0100
0000
0010
0000
0011
0000
0000
0000
0110
0000
0000
0000
1001
0000
0000
0011
,  // measure 61
0000
0000
0000
0000
0001
0000
0100
0000
0010
0000
1000
0000
0010
0000
0000
0010
,  // measure 62
0000
0000
1000
0000
0100
0000
0010
0000
0010
0000
0100
0000
1000
0000
0000
1001
,  // measure 63
0000
0000
0001
0000
0100
0000
0010
0000
0010
0000
0100
0000
0000
0010
0000
0000
,  // measure 64
1000
0001
0010
0100
1000
1100
0011
0000
,  // measure 65
0001
0000
0100
0000
0010
0000
1000
0000
0001
0000
0000
1001
0000
0000
0001
0000
,  // measure 66
0010
0000
0100
0000
0010
0000
0001
0000
0010
0000
0000
0011
0000
0000
0000
0000
,  // measure 67
0001
0000
0100
0000
1000
0000
0100
0000
0010
0000
0000
0110
0000
0000
0010
0000
,  // measure 68
1000
0000
0000
0000
0000
0000
0000
0000
0000
0000
0000
0000
0000
0000
0000
0000
0000
0000
0000
0000
0000
0000
0000
0000
0001
0000
0000
0000
0000
0000
0000
0000
0000
0000
0000
0000
0000
0000
0000
0000
0000
0000
0000
0000
0000
0000
0000
0000
0010
0000
0000
0000
0000
0000
0000
0000
0000
0000
0000
0000
0000
0000
0000
0000
0000
0000
0000
0000
0000
0000
0000
0000
0100
0000
0000
0000
0000
0000
0000
0000
0000
0000
0000
0000
0000
0000
0000
0000
0000
0000
0000
0000
0000
0000
0000
0000
1000
0000
0000
0000
0000
0000
0000
0000
0000
0000
0000
0000
0000
0000
0000
0000
0000
0000
0000
0000
0000
0000
0000
0000
0001
0000
0000
0000
0000
0000
0000
0000
0000
0000
0000
0000
0000
0000
0000
0000
0000
0000
0000
0000
0000
0000
0000
0000
1000
0000
0000
0000
0000
0000
0000
0000
0001
0000
0000
0000
0000
0000
0000
0000
0000
0000
1000
0000
0000
0000
0000
0000
0001
0000
0000
0000
0000
0000
0000
0000
0000
0000
0000
0000
0100
0000
0000
0000
0000
0000
0000
0000
0000
0000
0000
0000
;
