#TITLE:Absurd;
#SUBTITLE:-Headrillaz Dub-;
#ARTIST:Fluke;
#TITLETRANSLIT:;
#SUBTITLETRANSLIT:;
#ARTISTTRANSLIT:;
#CREDIT:;
#BANNER:bn.png;
#BACKGROUND:abremix.png;
#LYRICSPATH:;
#CDTITLE:;
#MUSIC:Absurd -Headrillaz Dub-.mp3;
#OFFSET:-0.018;
#SAMPLESTART:76.864;
#SAMPLELENGTH:12.000;
#SELECTABLE:YES;
#BPMS:0.000=62.455,14.000=124.910,77.000=62.455,78.000=124.910,80.000=62.455,81.000=124.910,83.000=62.455,84.000=124.910,86.000=62.455,87.000=124.910,89.000=62.455,90.000=124.910,92.000=62.455,93.000=124.910,95.000=62.455,96.000=124.910,98.000=62.455,99.000=124.910,101.000=62.455,102.000=124.910,104.000=62.455,105.000=124.910,107.000=62.455,108.000=124.910,110.000=62.455,111.000=124.910,113.000=62.455,114.000=124.910,116.000=62.455,117.000=124.910,119.000=62.455,120.000=124.910,122.000=62.455,123.000=124.910,189.000=62.455,205.000=124.910;
#STOPS:14.000=1.440
,75.000=0.240
,75.250=0.240
,75.500=0.240
,76.500=0.240
;
#BGCHANGES:92.000=abremix.png=1.000=0=0=1,
99999=-nosongbg-=1.000=0=0=0 // don't automatically add -songbackground-
;

//---------------dance-single - ----------------
#NOTES:
     dance-single:
     :
     Challenge:
     8:
     0.429,0.520,0.325,0.480,0.142:
0000
0000
0000
0000
,
0000
0000
0000
0000
,
0002
0003
0020
0030
0200
0300
0020
0030
,
0002
0003
2000
3000
0000
0000
1001
0000
,
0001
0100
0000
0010
0000
0100
0010
0000
,
0000
1001
0000
0001
0000
0100
0010
0000
,
1000
0010
0000
0101
0000
0001
1000
0000
,
0000
0110
0000
0011
0000
0001
0100
0000
,
0010
1000
0000
0100
0000
0010
0100
0000
,
0100
1000
0000
1001
0000
0001
0100
0000
,
0100
0100
0000
0110
0000
0010
1000
0000
,
1000
0001
0000
1001
0000
0011
0010
0100
,
0010
1000
0200
0000
0300
0000
1000
0100
,
0010
0001
0020
0000
0030
0000
0100
1000
,
0100
0001
0200
0000
0300
0000
0100
0010
,
0001
0010
0200
0000
0300
0000
0001
0100
,
0010
1000
0200
0000
0000
0000
1300
0100
,
1000
0010
0200
0000
0000
0000
0310
1000
,
0001
0000
0010
0000
0200
0000
0000
0000
0000
0000
0000
0000
0310
0010
0010
0000
,
0010
0100
1001
0101
0001
0100
0010
0100
,
0002
1003
1000
0100
0010
0100
2000
3010
,
0010
1000
0010
0100
0020
1030
1000
0001
,
0010
0001
2000
3100
1000
0001
0100
0001
,
0020
0031
0001
0010
1000
0010
0002
0103
,
0100
0010
1000
0100
0020
0130
0100
0010
,
1000
0000
0100
0000
0020
0000
0032
0000
0103
0010
0000
0100
0000
0010
0000
0100
,
0020
0000
0230
0000
0310
0100
0000
0010
0000
1000
0000
0001
2000
0000
3200
0000
,
0310
0100
0000
1000
0000
0001
0000
1000
0002
0000
2003
0000
3001
0010
0000
0010
,
0000
0000
0000
0000
0000
0000
0000
0000
0000
0000
0000
0000
0010
0000
0000
0000
0000
0000
0000
0000
0000
0000
0000
0000
0000
0000
0000
0000
0000
0000
0000
0000
0000
0000
0000
0000
0100
0000
0000
0000
0000
0000
0000
0000
0000
0000
0000
0000
1100
0000
0000
0000
0000
0000
0000
0000
0000
0000
0000
0000
0000
0000
0000
0000
0000
0000
0000
0000
0000
0000
0000
0000
1200
0000
0000
0000
0000
0000
0000
0000
0000
0000
0000
0000
0000
0000
0000
0000
0000
0000
0000
0000
0000
0000
0000
0000
1300
0200
0000
0000
0000
0000
0000
0000
0000
0000
0000
0000
0000
0000
0000
0000
0000
0000
0000
0000
0000
0000
0000
0000
0000
0000
0000
0000
0000
0000
0000
0000
0000
0000
0000
0000
0000
0000
0000
0000
0000
0000
0000
0000
0000
0000
0000
0000
0310
0000
0000
0000
0000
0000
0000
0000
0000
0000
0000
0000
0000
0000
0000
0000
0000
0000
0000
0000
0000
0000
0000
0000
0000
0000
0000
0000
0000
0000
0000
0000
0000
0000
0000
0000
0000
0000
0000
0000
0000
0000
0000
0000
0000
0000
0000
0000
,
0120
0000
0000
0000
0000
0000
0000
0000
0000
0000
0000
0000
0000
0000
0000
0000
0000
0000
0000
0000
0000
0000
0000
0000
0100
0000
0000
0000
0000
0000
0000
0000
0000
0000
0000
0000
0000
0000
0000
0000
0000
0000
0000
0000
0000
0000
0000
0000
0130
0020
0000
0000
0000
0000
0000
0000
0000
0000
0000
0000
0000
0000
0000
0000
0000
0000
0000
0000
0000
0000
0000
0000
0000
0000
0000
0000
0000
0000
0000
0000
0000
0000
0000
0000
0000
0000
0000
0000
0000
0000
0000
0000
0000
0000
0000
0000
0130
0000
0000
0000
0000
0000
0000
0000
0000
0000
0000
0000
0000
0000
0000
0000
0000
0000
0000
0000
0000
0000
0000
0000
0000
0000
0000
0000
0000
0000
0000
0000
0000
0000
0000
0000
0000
0000
0000
0000
0000
0000
0000
0000
0000
0000
0000
0000
0010
0000
0000
0000
0000
0000
0000
0000
0000
0000
0000
0000
0001
0000
0000
0000
0000
0000
0000
0000
0000
0000
0000
0000
0012
0000
0000
0000
0000
0000
0000
0000
0000
0000
0000
0000
0000
0000
0000
0000
0000
0000
0000
0000
0000
0000
0000
0000
,
0103
0002
0000
0000
0000
0000
0000
0000
0000
0000
0000
0000
0000
0000
0000
0000
0000
0000
0000
0000
0000
0000
0000
0000
0000
0000
0000
0000
0000
0000
0000
0000
0000
0000
0000
0000
0000
0000
0000
0000
0000
0000
0000
0000
0000
0000
0000
0000
0013
0000
0000
0000
0000
0000
0000
0000
0000
0000
0000
0000
0000
0000
0000
0000
0000
0000
0000
0000
0000
0000
0000
0000
0000
0000
0000
0000
0000
0000
0000
0000
0000
0000
0000
0000
0000
0000
0000
0000
0000
0000
0000
0000
0000
0000
0000
0000
0001
0000
0000
0000
0000
0000
0000
0000
0000
0000
0000
0000
0100
0000
0000
0000
0000
0000
0000
0000
0000
0000
0000
0000
0120
0000
0000
0000
0000
0000
0000
0000
0000
0000
0000
0000
0000
0000
0000
0000
0000
0000
0000
0000
0000
0000
0000
0000
1030
0020
0000
0000
0000
0000
0000
0000
0000
0000
0000
0000
0000
0000
0000
0000
0000
0000
0000
0000
0000
0000
0000
0000
0000
0000
0000
0000
0000
0000
0000
0000
0000
0000
0000
0000
0000
0000
0000
0000
0000
0000
0000
0000
0000
0000
0000
0000
,
0031
0000
1001
0000
0000
0101
0000
1010
,
0000
1001
0101
0000
0000
0110
0000
1001
,
0000
1100
0110
0000
0000
0011
0000
1001
,
0000
0101
0110
0000
0000
1001
0000
1010
,
0000
0101
0001
0100
0020
1030
0001
0100
,
0020
1030
0001
0010
0200
1300
0001
0010
,
0200
1300
0100
1000
0020
0130
0001
1000
,
0200
0310
0100
1000
0002
0103
0001
1000
,
0020
0000
0130
0000
0010
0000
0000
0010
0000
0000
0010
2000
0002
0000
0000
0000
,
0000
0000
0000
3003
,
0000
0000
0000
0000
0101
0000
0000
1010
0000
0000
1000
0000
0010
0000
0000
0110
,
0000
0100
2020
0000
0000
0000
0000
0000
,
3030
0000
0000
0000
1001
0000
0000
0100
0000
0000
0010
2000
0200
0000
0000
0000
,
0000
0000
0000
3300
,
0000
0000
0000
0000
1001
0000
0000
0001
0000
0000
1000
0001
0100
0000
0000
0110
,
0000
0000
0100
0000
0010
0100
0001
0000
1000
0000
0001
0100
0000
0000
0000
0000
,
0010
0100
0000
0000
0200
0000
0000
0000
0000
0000
0000
0000
0000
0000
0000
0000
,
0000
0300
0020
0000
2030
0000
0002
0000
,
3003
0220
0000
0000
,
0330
0002
2003
0200
,
0000
3300
0000
0000
0000
0000
0000
0000
;
