#TITLE:ANTHEM LANDING;
#SUBTITLE:[A];
#ARTIST:DJムラサメ;
#TITLETRANSLIT:;
#SUBTITLETRANSLIT:;
#ARTISTTRANSLIT:;
#CREDIT:;
#BANNER:bn.png;
#BACKGROUND:bg.png;
#LYRICSPATH:;
#CDTITLE:;
#MUSIC:ANTHEM LANDING [A].mp3;
#OFFSET:-1.060;
#SAMPLESTART:87.660;
#SAMPLELENGTH:12.000;
#SELECTABLE:YES;
#BPMS:0.000=151.000;
#STOPS:216.000=0.397
;
#BGCHANGES:;

//---------------dance-single - ----------------
#NOTES:
     dance-single:
     :
     Hard:
     9:
     0.504,0.615,0.137,0.161,0.121: // measure 1
0000
0000
0000
0000
,  // measure 2
0000
0000
0000
0000
,  // measure 3
0000
0000
0000
0000
,  // measure 4
0000
0000
0000
0000
,  // measure 5
0000
0000
0000
0000
,  // measure 6
0000
0000
0000
0000
,  // measure 7
0000
0000
0000
0000
,  // measure 8
1000
0001
0100
0100
,  // measure 9
0001
1000
0100
0100
,  // measure 10
1000
0001
0010
0100
,  // measure 11
1000
0000
0000
0100
0000
0000
0010
0000
0000
0001
0000
0000
0001
0000
1000
0000
,  // measure 12
0100
0000
1000
0000
0000
0010
0000
0000
0100
0000
0000
0001
0000
0000
0010
0000
,  // measure 13
0000
0000
0100
0000
0000
0010
0000
0000
0001
0000
0000
1000
0000
0000
0010
0000
,  // measure 14
0000
0000
0100
0000
0000
0001
0000
0000
1000
0000
0000
0100
0000
0000
1000
0000
,  // measure 15
0000
0000
0010
0000
0000
1000
0000
0000
0001
0000
0000
0001
0000
0000
0001
0000
,  // measure 16
0000
0000
1000
0000
0000
0010
0000
0000
0100
0000
0000
0001
0000
0000
0010
0000
,  // measure 17
0000
0000
0001
0000
0000
0100
0000
0000
0010
0000
0000
1000
0000
0000
0100
0000
,  // measure 18
0000
0000
1000
0000
0000
0001
0000
0000
0010
0000
0000
0001
0000
0000
0100
0000
,  // measure 19
0110
0000
0000
0101
0000
0000
0100
0000
0000
0110
0000
0000
1000
0000
0001
0000
,  // measure 20
0011
0000
0001
0100
0001
0000
0100
0010
,  // measure 21
1000
0000
0001
0010
0100
0000
0100
1000
,  // measure 22
0010
0000
0100
0001
1000
0000
0100
0010
,  // measure 23
0001
0000
0001
0010
0001
0000
0100
0010
,  // measure 24
1000
1000
0100
0000
0100
0010
0011
1100
,  // measure 25
1002
0100
1000
0103
,  // measure 26
2001
0100
0001
3100
,  // measure 27
0120
1000
0001
1030
,  // measure 28
0210
0001
1000
0301
,  // measure 29
0102
0010
0100
1003
,  // measure 30
2001
0010
0100
3001
,  // measure 31
0120
1000
0100
0031
,  // measure 32
0120
0001
0100
1000
,  // measure 33
0130
0100
0010
0000
0100
0100
0001
0000
,  // measure 34
0001
0001
0010
0000
0001
0001
0100
1000
,  // measure 35
0100
0100
0010
0000
0100
0001
0010
0000
,  // measure 36
0100
0100
1000
0000
0100
1000
0010
1000
,  // measure 37
0001
0010
1000
0000
1000
0100
1000
0000
,  // measure 38
0100
1000
0010
0000
0100
0001
0010
0010
,  // measure 39
0001
1000
0100
0000
0010
0001
0100
0000
,  // measure 40
0010
0010
1000
0000
0001
0010
0100
0000
,  // measure 41
0100
0010
0001
0100
1000
0100
0010
1000
,  // measure 42
0002
0103
0020
1030
,  // measure 43
0200
0310
0200
1300
,  // measure 44
2000
3100
0200
0310
,  // measure 45
0200
0301
0002
0013
,  // measure 46
0011
0000
0100
0000
0010
1000
0001
0000
,  // measure 47
0010
0000
0001
0000
0100
0010
1000
0000
,  // measure 48
0001
1000
0100
0010
,  // measure 49
0001
1000
0100
0000
1000
0010
0100
0000
,  // measure 50
0002
0103
0200
0310
,  // measure 51
0010
0100
1000
0100
0010
0100
0100
0010
,  // measure 52
0000
0010
0100
1000
0100
0010
1000
0001
,  // measure 53
0010
0001
0100
0010
1000
0001
0010
0100
,  // measure 54
1000
0100
0010
0001
1000
0100
0010
0001
,  // measure 55
0000
1001
0001
0100
,  // measure 56
0010
1000
0100
0000
1000
0000
1000
0100
,  // measure 57
0010
0100
1000
0000
0001
0000
0001
0010
,  // measure 58
0100
0010
0001
0000
0100
0000
0010
1000
,  // measure 59
0001
0000
1000
0100
0010
0100
1000
0001
,  // measure 60
0100
0001
0010
0001
0100
0010
0100
0001
,  // measure 61
1000
0001
0010
0001
0100
1000
0100
0010
,  // measure 62
1000
0001
0010
1000
0010
0001
0100
0001
,  // measure 63
1000
0100
0010
0000
0100
0000
1000
0000
,  // measure 64
0100
0010
0001
0000
0100
0000
0010
1000
,  // measure 65
0001
0010
0100
0000
0010
0000
0001
0100
,  // measure 66
0010
1000
0001
0000
0010
0000
0001
0100
,  // measure 67
0010
0000
0100
0010
1000
0001
0010
0001
,  // measure 68
0100
0010
1000
0100
0010
0001
0010
0100
,  // measure 69
1000
0001
0100
0001
0010
0001
0100
1000
,  // measure 70
0100
0010
1000
0001
0010
0100
1000
0100
,  // measure 71
0010
0000
0001
0000
1000
0000
0001
0000
0001
0100
0000
0001
0100
0000
0100
0010
,  // measure 72
0000
0010
1000
0000
0010
0000
0100
0000
0001
0010
0000
0010
0100
0000
0100
1000
,  // measure 73
0000
1000
0010
0000
0100
0000
0010
0000
1000
0010
0000
0100
0001
0000
0001
0010
,  // measure 74
0000
0010
0100
0000
1000
0000
0100
0000
0001
0000
0100
0000
1000
0000
0010
0000
,  // measure 75
0001
0010
2002
0000
0000
0000
0000
0000
,  // measure 76
0000
0000
0000
0000
,  // measure 77
0000
3003
0000
0000
;

//---------------dance-single - ----------------
#NOTES:
     dance-single:
     :
     Challenge:
     10:
     0.728,1.000,0.315,0.250,0.678:
0000
0000
0000
0000
,
0000
0000
0000
0000
,
0000
0000
0000
0000
,
1001
0000
0000
0000
,
0000
0000
0000
0000
,
0000
0000
0000
0000
,
0000
0000
0000
0000
,
1001
0001
1000
0000
1000
0100
0010
0000
,
1100
1000
0010
0000
0100
0001
0010
0000
,
0011
0001
0010
0000
0110
0010
0100
0000
,
0110
0000
0000
0011
0000
0000
0101
0000
0000
1100
0000
0000
0110
0000
0010
0000
,
0001
0000
1001
0000
0000
0101
0000
0000
1001
0000
0000
1100
0000
0000
1001
0000
,
0000
0000
0002
0000
0000
0203
0000
0000
0320
0000
0000
2030
0000
0000
3100
0000
,
0000
0000
1100
0000
0000
0011
0000
0000
0101
0000
0000
1001
0000
0000
1100
0000
,
0000
0000
2100
0000
0000
3010
0000
0000
0210
0000
0000
0001
0000
0000
1300
0000
,
0000
0000
0002
0000
0000
0203
0000
0000
0320
0000
0000
2030
0000
0000
3100
0000
,
0000
0000
1100
0000
0000
0011
0000
0000
0101
0000
0000
1001
0000
0000
1100
0000
,
0000
0000
2100
0000
0000
3010
0000
0000
0210
0000
0000
0001
0000
0000
1300
0000
,
0110
0000
0000
1001
0000
0000
0011
0000
0000
1100
0000
0000
0001
0000
0100
0000
,
0010
0000
0000
0000
0010
0100
0010
0000
1000
0000
0000
0000
0001
1000
0100
0000
,
1000
0100
0000
0000
0010
0001
0010
0000
0001
0000
0000
0000
0100
0000
0001
0000
,
1000
0001
0000
0001
0100
0001
0100
0000
0010
0000
0000
0000
0100
0000
0010
0000
,
1000
0100
0000
0100
0000
0100
0010
0001
1000
0001
0000
0100
0001
0010
0100
0000
,
1000
0100
0000
0010
0000
0001
0000
0100
0010
0000
0000
0000
1001
0000
1001
0000
,
0001
0100
0001
0010
0001
0100
0001
0010
,
0001
0010
0100
1000
0100
0010
0001
1000
,
0001
0100
0010
1000
0100
0010
0001
0010
,
0001
0100
0010
1000
0001
0010
0100
1000
,
0001
0100
0001
0100
0010
1000
0010
1000
,
0100
1000
0100
1000
0010
0100
0001
0010
,
0001
1000
0100
1000
0001
0100
0001
0010
,
0001
0100
0001
0010
0100
1000
0001
0100
,
0010
1000
0001
0010
0000
0000
0001
0000
0001
0100
0000
0001
0000
0000
0001
0000
,
0001
1000
0000
1000
0000
0000
1000
0000
0100
0010
0000
0001
0000
0000
0001
0000
,
0010
0100
0000
1000
0000
0000
0100
0000
1000
0010
0000
0100
0000
0000
0010
0000
,
1000
0010
0000
0100
0000
0000
0010
0000
0100
0001
0000
0010
0000
0000
0001
0000
,
0100
0010
0000
1000
0000
0000
0001
0000
0010
0100
0000
0010
0000
0000
0010
0000
,
0001
1000
0000
0100
0000
0000
0010
0000
0001
0100
0000
0010
0000
0000
0100
0000
,
0010
1000
0000
0001
0000
0000
0010
0000
0001
0100
0000
0010
0000
0000
1000
0000
,
0100
0010
0100
0010
0100
0000
0000
0000
1000
0100
1000
0100
1000
0000
0000
0000
,
1000
0001
1000
0001
1000
0000
0001
0000
1000
0001
1000
0001
1000
0001
1000
0001
,
1000
0000
0000
1000
0100
0000
0000
0100
0010
0000
0000
0010
0001
0000
0000
0001
,
0100
0000
0000
0010
1000
0000
0000
1000
0100
0000
0000
0100
0010
0000
0001
0000
,
0001
0000
0000
0001
0100
0000
0000
0010
0100
0000
0000
0010
1000
0000
0000
1000
,
0100
0000
0000
0100
0010
0000
0000
0010
0001
0000
0000
0001
0010
0000
0100
0000
,
1000
0000
0000
1000
0010
0000
0000
0010
0100
0000
0000
0100
0001
0000
0000
0001
,
0010
0000
0000
0010
0100
0000
0000
0100
1000
0000
0000
0000
2000
0000
0000
0000
,
3001
0002
0013
0020
,
0130
0000
0200
0000
1300
0000
0010
1000
,
1001
0101
0000
1010
,
1000
0100
0001
0100
1000
0100
0100
1000
,
0100
1000
0010
0001
0010
0001
0001
0001
,
0010
0100
0010
1000
0001
0010
0100
1000
,
0001
0100
0010
1000
0001
0010
0100
2000
,
0000
3000
0000
0000
0000
0000
0000
0000
0000
0000
0000
0000
0000
0000
0000
0000
0002
0000
0000
0000
0000
0000
0000
0000
0000
0000
0000
0000
0000
0000
0000
0000
0203
0000
0000
0000
0000
0000
0000
0000
0000
0000
0000
0000
0000
0000
0000
0000
0320
0000
0000
0000
0000
0000
0000
0000
0000
0000
0000
0000
0000
0000
0000
0000
,
1030
0100
0020
0000
0130
0000
0010
0001
,
0010
1000
0020
0000
0031
0000
0001
0100
,
0010
1000
0200
0000
0310
0000
0010
0001
,
1000
0000
0001
0000
0100
0010
1000
0001
0100
0010
1000
0001
0100
0010
1000
0001
,
0100
0010
1000
0001
1000
0100
0010
0001
1000
0100
0010
0001
1000
0100
0010
0001
,
1000
0100
0010
0001
0100
0010
1000
0001
0100
0010
1000
0001
0100
0010
1000
0001
,
0100
0010
1000
0001
1000
0100
0010
0001
1000
0100
0010
0001
1000
0100
0010
0001
,
1000
0100
0010
0001
2000
0000
0000
0000
3020
0000
0000
0000
0230
0000
0000
0000
,
0301
0010
0200
0000
0310
0000
0100
1000
,
0100
0001
0200
0000
1300
0000
1000
0010
,
0100
0001
0020
0000
0130
0000
0100
1000
,
0001
0000
1000
0000
0010
0100
0001
1000
0010
0100
0001
1000
0010
0100
0001
1000
,
0010
0100
0001
1000
0001
0010
0100
1000
0001
0010
0100
1000
0001
0010
0100
1000
,
0001
0010
0100
1000
0010
0100
0001
1000
0010
0100
0001
1000
0010
0100
0001
1000
,
0010
0100
0001
1000
0001
0010
0100
1000
0001
0010
0100
1000
0001
0010
0100
1000
,
0001
0010
0100
1000
0001
0000
0100
0000
0010
1000
0000
1000
0100
0000
0100
0010
,
0000
0010
0001
0000
0100
0000
0010
0000
1000
0000
0001
0000
0010
0000
0100
0000
,
0010
0000
0001
0000
0100
0000
0001
0000
0100
0010
0000
1000
0100
0000
0100
0010
,
0001
0010
0001
0000
1000
0000
0001
0000
0100
0010
1000
0001
0010
0000
1000
0000
,
0100
1000
2002
0000
0000
0000
0000
0000
,
0000
0000
0000
0000
,
0000
3003
0000
0000
;

//---------------dance-single - ----------------
#NOTES:
     dance-single:
     :
     Medium:
     7:
     0.425,0.523,0.137,0.404,0.065:
0000
0000
0000
0000
,
0000
0000
0000
0000
,
0000
0000
0000
0000
,
0000
0000
0000
0000
,
0000
0000
0000
0000
,
0000
0000
0000
0000
,
0000
0000
0000
0000
,
0001
0000
0001
0100
0000
0100
0010
0000
,
0110
0000
0010
1000
0000
1000
0100
0000
,
0110
0010
0110
0010
,
0011
0000
0000
0010
0000
0000
0010
0000
0000
0000
0011
0000
1001
0000
0000
0000
,
0000
0000
0001
0000
0000
0100
0000
0000
0001
0000
0000
0100
0000
0000
0001
0000
,
0000
0000
0100
0000
0000
0010
0000
0000
0100
0000
0000
0010
0000
0000
0100
0000
,
0000
0000
0010
0000
0000
1000
0000
0000
0010
0000
0000
1000
0000
0000
0010
0000
,
0000
0000
1000
0000
0000
0001
0000
0000
0010
0000
0000
0010
0000
0000
0010
0000
,
0000
0000
0001
0000
0000
0100
0000
0000
0010
0000
0000
1000
0000
0000
0100
0000
,
0000
0000
1000
0000
0000
0100
0000
0000
0010
0000
0000
0001
0000
0000
0010
0000
,
0000
0000
0001
0000
0000
0100
0000
0000
0010
0000
0000
1000
0000
0000
0001
0000
,
1000
0000
0000
0001
0000
0000
0100
0000
0000
0000
0010
0000
1000
0000
0010
0000
,
0100
0000
0100
0000
0100
0000
0100
0010
,
0110
0000
0010
0000
0010
0000
0010
1000
,
1001
0000
0001
0000
0001
0000
0001
1000
,
1100
0000
0100
0000
0100
0000
0100
0010
,
0011
0000
0001
0000
0100
0000
0010
0010
,
0010
1000
0010
0100
,
0010
1000
0001
0010
,
0100
0010
0001
1000
,
0001
0100
0001
1000
,
0100
0100
0010
0010
,
0001
0001
1000
1000
,
0001
0100
0010
1000
,
0100
1000
0010
0100
,
0001
0100
0001
0000
0100
0001
0100
0000
,
0001
0100
0001
0000
0101
0000
1010
0000
,
0010
1000
0010
0000
1000
0010
1000
0000
,
0010
1000
0010
0000
1010
0000
1001
0000
,
1000
0001
1000
0000
0001
1000
0001
0000
,
1000
0001
1000
0000
1001
0000
0110
0000
,
0010
0100
0010
0000
0100
0010
0100
0000
,
0010
0010
0010
0000
0001
0001
0001
0000
,
1000
1000
1000
0001
1000
1000
1000
0000
,
0002
0000
0203
0000
,
0320
0000
2030
0000
,
3200
0000
2300
0000
,
3020
0000
0230
0000
,
0020
0000
0000
0000
,
0330
0000
0000
0020
,
0000
2030
0000
0000
3002
0000
0023
0000
,
0002
0000
0030
0010
,
0020
0000
0000
0033
,
0001
0100
1000
0100
,
0010
1000
0010
0001
,
0010
0100
0001
1000
,
0100
0010
0001
1000
,
0000
0001
1000
0100
,
1000
0100
1000
0000
0100
0000
0010
0001
,
0010
0001
0010
0000
0001
0000
0100
0001
,
0100
0001
0100
0000
0001
0000
0001
0100
,
0010
0200
0320
2030
,
3002
0023
0032
0203
,
2300
3200
0320
2030
,
3020
0230
0302
0023
,
0230
1300
0100
0010
,
0001
0010
0002
0000
0103
0000
0001
0100
,
0010
1000
0010
0000
0100
0000
0100
0010
,
1000
0001
0010
0000
0001
0000
0010
0001
,
0010
0002
2003
3200
,
2300
3020
0230
0320
,
2030
3002
0023
0032
,
0203
0320
2030
3002
,
0023
0000
0031
0010
0001
0000
0001
0100
,
0010
0000
0100
0010
1000
0000
0010
0100
,
0010
0000
0010
0010
1000
0000
1000
1000
,
0001
0000
0001
0010
0100
0000
0100
1000
,
0010
0202
0000
0000
,
0000
0000
0000
0000
,
0000
0303
0000
0000
;

//---------------dance-single - ----------------
#NOTES:
     dance-single:
     :
     Easy:
     5:
     0.316,0.554,0.339,0.065,0.000:
0000
0000
0000
0000
,
0000
0000
0000
0000
,
0000
0000
0000
0000
,
0000
0000
0000
0000
,
0000
0000
0000
0000
,
0000
0000
0000
0000
,
0000
0000
0000
0000
,
0010
0000
0000
0000
,
1001
0000
0000
0000
,
0100
0000
1001
0000
,
0220
0000
0000
0330
,
0010
1000
0010
1000
,
0001
1000
0001
1000
,
0001
0100
0001
0100
,
0001
0010
0001
0001
,
0100
0010
0100
0010
,
1000
0010
1000
0010
,
1000
0100
1000
0100
,
1000
1000
0001
0001
,
1001
0000
0000
0000
,
0100
0000
0000
0000
,
0010
0000
0010
0000
,
1000
0000
0000
0000
,
0001
0000
0000
0000
0000
0000
0100
0001
,
0100
0100
0010
0010
,
1000
1000
0001
0001
,
1000
0001
0100
0001
,
0010
0001
0100
0010
,
1000
1000
1000
1000
,
1000
1000
1000
1000
,
0100
1000
0010
0100
,
0001
0010
0100
1000
,
0100
1000
0010
0100
,
0001
0010
0100
0100
,
0010
0001
1000
0010
,
0100
0001
0010
0100
,
1000
0001
0100
0001
,
0100
0010
1000
0010
,
0100
0010
1000
0001
,
1000
0001
1000
0000
0001
1000
0001
0000
,
1000
0001
1000
0000
0001
1000
0001
0000
,
0001
0000
1000
0000
,
0010
0000
0100
0000
,
0001
0000
0010
0000
,
0100
0000
1000
0000
,
1010
0000
0000
0000
,
0000
0000
0000
0010
,
0000
0100
0000
0000
0001
0000
1000
0000
,
0100
0000
0000
0100
,
0110
0000
0000
0000
,
0001
1000
0001
0100
0000
0100
0000
0010
,
0000
1000
0000
0010
0000
0001
0000
0010
,
0000
0100
0000
0010
0000
1000
0000
0001
,
0000
1000
0000
1000
0000
0001
0000
1000
,
0000
0001
0100
0010
,
1000
0100
1000
0010
,
0100
0001
0010
0100
,
0010
0001
1000
0001
,
0100
0101
0101
1100
,
1100
0101
0101
1100
,
1100
0011
0011
1010
,
1010
0011
0011
1010
,
1010
1001
0001
1000
,
0100
1000
0001
0100
,
0100
0001
1000
0010
,
0010
1000
0001
0010
,
0010
0011
1010
0011
,
1010
1100
0101
1100
,
0101
1001
0110
1001
,
0110
0101
1010
1100
,
0011
0120
0100
0100
,
0200
0000
0000
0000
,
0330
1002
1000
1000
,
2000
0000
0000
0000
,
3003
0220
0000
0000
,
0000
0000
0000
0000
,
0000
0330
0000
0000
;

//---------------dance-single - ----------------
#NOTES:
     dance-single:
     :
     Beginner:
     1:
     0.095,0.180,0.048,0.016,0.000:
0000
0000
0000
0000
,
0000
0000
0000
0000
,
0000
0000
0000
0000
,
0000
0000
0000
0000
,
0000
0000
0000
0000
,
0000
0000
0000
0000
,
0000
0000
0000
0000
,
1000
0000
0000
0000
,
0001
0000
0000
0000
,
1000
0000
1000
0000
,
1001
0000
0000
0000
,
0010
0000
0000
0000
,
0100
0000
0000
0000
,
0001
0000
0000
0000
,
1000
0000
1000
0000
,
1000
0000
0000
0000
,
0010
0000
0000
0000
,
0100
0000
0000
0000
,
0100
0000
0010
0000
,
1001
0000
0000
0000
,
0000
0000
0000
0000
,
0001
0000
0000
0000
,
1000
0000
0000
0000
,
0100
0000
0000
0010
,
0010
0000
0000
0000
,
1000
0000
0000
0000
,
0100
0000
0000
0000
,
1000
0000
0000
0000
,
0001
0000
0000
0000
,
0001
0000
0000
0000
,
1000
0000
0000
0000
,
0010
0000
0000
0000
,
0100
0000
0000
0000
,
0100
0000
0000
0000
,
0010
0000
0000
0000
,
1000
0000
0000
0000
,
1000
0000
0000
0000
,
0001
0000
0000
0000
,
0001
0000
0000
0000
,
0001
0000
0001
0000
,
0001
1000
0001
1000
,
0001
0000
0000
0000
,
1000
0000
0000
0000
,
0010
0000
0000
0000
,
0100
0000
0000
0000
,
0110
0000
0000
0000
,
0000
0000
0000
0000
,
0010
0000
0000
0000
,
1000
0000
0000
0001
,
0001
0000
0000
0000
,
1000
0000
0000
0000
,
0010
0000
0010
0000
,
0100
0000
0100
0000
,
0001
0000
1000
0000
,
0000
1001
0000
0000
,
0000
0001
0000
0000
,
0000
0100
0000
0000
,
0000
0010
0000
0000
,
0000
2000
0000
0000
,
0000
0000
0000
0000
,
0000
0000
0000
0000
,
0000
0000
0000
0000
,
3000
1001
0000
0000
,
0000
0100
0000
0000
,
0000
0010
0000
0000
,
0000
1000
0000
0000
,
0000
0200
0000
0000
,
0000
0000
0000
0000
,
0000
0000
0000
0000
,
0000
0000
0000
0000
,
0300
0010
0000
0000
,
0000
0001
0000
0001
,
0000
0001
0000
0000
,
0000
1000
0000
1000
,
0000
0110
0000
0000
;
