#VERSION:0.80;
#TITLE:Knights of the Round;
#SUBTITLE:STAGE 4;
#ARTIST:Bors;
#TITLETRANSLIT:;
#SUBTITLETRANSLIT:;
#ARTISTTRANSLIT:;
#GENRE:;
#ORIGIN:;
#CREDIT:;
#BANNER:bn.png;
#BACKGROUND:Knighs bg.png;
#LYRICSPATH:;
#CDTITLE:;
#MUSIC:Bors.mp3;
#OFFSET:-0.065;
#SAMPLESTART:64.378;
#SAMPLELENGTH:0.000;
#SELECTABLE:YES;
#BPMS:0.000=72.500,
4.000=36.250,
6.000=145.000,
39.000=72.500,
40.000=145.000,
70.000=72.500,
71.000=145.000,
101.000=36.250,
109.000=145.000,
120.000=290.000,
122.000=145.000,
144.000=290.000,
148.000=145.000,
176.000=36.250,
177.000=145.000;
#STOPS:6.000=1.241,
109.000=2.897,
141.000=0.207,
141.500=0.207;
#DELAYS:;
#WARPS:;
#TIMESIGNATURES:0.000=4=4;
#TICKCOUNTS:0.000=4;
#COMBOS:0.000=1;
#SPEEDS:0.000=1.000=0.000=0;
#SCROLLS:0.000=1.000;
#FAKES:;
#LABELS:0.000=Song Start;
#LASTSECONDHINT:60.908;
#BGCHANGES:;
#KEYSOUNDS:;
#ATTACKS:;

//---------------dance-single - Blank----------------
#NOTEDATA:;
#CHARTNAME:;
#STEPSTYPE:dance-single;
#DESCRIPTION:Blank;
#CHARTSTYLE:;
#DIFFICULTY:Hard;
#METER:10;
#RADARVALUES:0.738,0.755,0.565,0.799,0.591,357.000,53.000,75.000,0.000,0.000,0.000,0.000,0.000,0.738,0.755,0.565,0.799,0.591,357.000,53.000,75.000,0.000,0.000,0.000,0.000,0.000;
#CREDIT:;
#OFFSET:-0.060;
#BPMS:0.000=72.500
,4.000=36.250
,6.000=145.000
,39.000=72.500
,40.000=145.000
,70.000=72.500
,71.000=145.000
,101.000=36.250
,109.000=145.000
,120.000=290.000
,122.000=145.000
,144.000=290.000
,148.000=145.000
;
#STOPS:6.000=1.241
,109.000=2.897
,141.000=0.207
,141.500=0.207
;
#DELAYS:;
#WARPS:;
#TIMESIGNATURES:0.000=4=4
;
#TICKCOUNTS:0.000=4
;
#COMBOS:0.000=1
;
#SPEEDS:0.000=1.000=0.000=0
;
#SCROLLS:0.000=1.000
;
#FAKES:;
#LABELS:0.000=Song Start
;
#NOTES:
// measure 0
0000
0000
0000
0000
,  // measure 1
2002
0000
0000
3003
0000
0000
0202
0000
,  // measure 2
0303
0010
2002
0000
0000
3003
0220
0000
,  // measure 3
0030
0000
0000
0000
0000
0000
0310
0000
0000
0000
0000
0000
0010
0000
0000
0000
0000
0000
0001
0000
0000
0000
0000
0000
0010
0000
0000
0000
0000
0000
0100
0000
0000
0001
0000
0000
1000
0000
0000
0000
0001
0000
0000
0000
0100
0000
0000
0000
,  // measure 4
1000
0000
0100
0000
0010
0000
1000
0000
0001
0000
0010
0000
0100
0000
1000
0000
0001
0000
0100
0000
0000
0100
0000
0000
,  // measure 5
0010
0000
1000
0000
0010
0000
0001
0000
0010
0000
1000
0000
0001
0010
0001
1000
,  // measure 6
0100
1000
0010
1000
0001
0000
0000
0000
1200
0000
0000
0000
0310
0000
0001
0000
,  // measure 7
1000
0000
0000
0001
0000
0000
1000
0000
0000
0000
0000
0000
0001
0100
0001
0100
0000
0000
0200
0000
0000
1300
0000
0000
,  // measure 8
0100
0000
0001
0000
0010
0000
0001
1000
0001
0000
0000
0000
0110
0000
0000
0000
,  // measure 9
0100
0000
0000
0000
0002
0000
0000
0000
0010
0000
0000
0000
0010
0000
0000
0000
0013
0000
0000
0000
0000
0000
0000
0000
0001
1000
0100
1000
0010
1000
0010
1000
,  // measure 10
2002
3003
0202
0303
2200
3300
0202
0303
,  // measure 11
2200
0000
0000
0000
0000
0000
3300
0000
0000
0000
0000
0000
0102
0000
0000
0000
0100
0000
0003
0000
0000
0100
0000
0000
0010
0000
0000
0000
0000
0000
1000
0000
0000
0000
0000
0000
0001
0000
0000
0000
1000
0000
0000
0000
0001
0000
0000
0000
,  // measure 12
1000
0000
0000
0110
0000
0000
1001
0000
0001
0101
0000
0100
,  // measure 13
0110
0000
0010
1010
0000
1000
1100
0100
0010
0100
1000
0001
,  // measure 14
0100
0000
0000
0000
1001
0000
0000
0000
0101
0000
0100
0010
1000
0000
1000
0001
,  // measure 15
0010
0000
0000
0000
0000
0000
0010
0000
0000
0100
0000
0000
1000
0000
0001
0000
1000
0000
0001
0000
0000
0000
0000
0000
0200
0000
0000
0000
0000
0000
1000
0000
0000
0000
0000
0000
0310
0000
0000
0000
0000
0000
1000
0000
0000
0000
0000
0000
,  // measure 16
0001
0000
0010
0001
0010
0000
0000
0000
1200
0000
0000
0000
0000
0000
0001
0000
,  // measure 17
0000
0000
0000
0000
0000
0000
0000
0000
1300
0000
0000
0000
0000
0000
0000
0000
1001
0000
0000
0100
0100
0000
0010
0000
2020
0000
0000
0000
0000
0000
0000
0000
,  // measure 18
3030
0000
1000
0001
1000
0000
0000
0000
0000
0000
0010
0000
0100
1000
0100
0001
,  // measure 19
0010
0001
0000
0000
0022
0000
0033
0000
1200
0000
1300
0000
0202
0000
0303
0000
,  // measure 20
2002
3003
0020
0000
0130
1000
0100
0001
,  // measure 21
0010
0000
0000
0000
0000
0000
0000
0000
0000
0000
0000
0000
0000
0000
0000
0000
0000
0000
0000
0000
0000
0000
0000
0000
0001
0000
0000
0000
0000
0000
0000
0000
0000
0000
0000
0000
0000
0000
0000
0000
0000
0000
0000
0000
0000
0000
0000
0000
1000
0000
0000
0000
0000
0000
0000
0000
0000
0000
0000
0000
0000
0000
0000
0000
0000
0000
0001
0000
0000
0000
0000
0000
0100
0000
0000
0000
0000
0000
0000
0000
0000
0000
0000
0000
0000
0000
0000
0000
0200
0000
0000
0000
0000
0000
0000
0000
0000
0000
0000
0000
0000
0000
0000
0000
0000
0000
0000
0000
0010
0000
0000
0000
0000
0000
0000
0000
0000
0000
0000
0000
0000
0000
0000
0000
0000
0000
0000
0000
0000
0000
0000
0000
0010
0000
0000
0000
0300
0000
0000
0000
0000
0000
0000
0000
1000
0000
0000
0000
0000
0000
0000
0000
0000
0000
0000
0000
0010
0000
0000
0000
0000
0000
0000
0000
0000
0000
0000
0000
1000
0000
0000
0000
0000
0000
0000
0000
0000
0000
0000
0000
0001
0000
0000
0000
0000
0000
0000
0000
0000
0000
0000
0000
,  // measure 22
1000
0000
0001
0000
0020
0030
0020
0030
0020
0030
0020
0030
0100
0000
1000
0000
,  // measure 23
0001
0000
0100
0000
0001
0000
0100
0000
0000
0000
0000
0000
0010
0000
0000
0000
0000
0000
0100
0000
0000
0010
0000
0000
0100
0000
0000
0000
0000
0000
0001
0000
0000
0000
0000
0000
1000
0000
0000
0000
0000
0000
1000
0000
0000
0001
0000
0000
,  // measure 24
0100
0000
0110
0000
1001
0001
1000
0100
,  // measure 25
1000
0000
0000
0000
0000
0000
0000
0000
0020
0000
0000
0000
0000
0000
0000
0000
0000
0000
0000
0000
0000
0000
0000
0000
0100
0200
0000
0000
0000
0000
0000
0000
,  // measure 26
0000
0000
0000
0000
0000
0000
0000
0030
0001
0002
0000
0000
0000
0000
0000
0000
0000
0000
0000
0000
0000
0000
0000
0300
1000
2000
0000
0000
0000
0000
0000
3003
,  // measure 27
0001
0000
0010
0000
0100
0000
1000
0000
0100
0000
0000
0000
0022
0000
0000
0000
0000
0033
0000
0000
0000
0000
0000
0000
0000
0000
0000
0000
0000
0000
0000
0000
2002
0000
0000
0000
0000
0000
0000
0000
3003
0000
0000
0000
0000
0000
0000
0000
0220
0000
0000
0000
0000
0000
0000
0000
0330
0000
0000
0000
0000
0000
0000
0000
,  // measure 28
0022
0033
2020
3030
0100
0010
0001
0010
,  // measure 29
2020
0000
0000
3030
0000
0000
0022
0000
0000
0033
0000
0000
0001
0000
0010
0000
0100
0000
1000
0000
0100
0000
0010
0000
,  // measure 30
1001
0000
0000
0000
0000
0000
0000
0000
0002
0203
0302
0203
0301
0000
0100
0000
,  // measure 31
1000
0100
0001
0010
1000
0010
0021
0230
,  // measure 32
1000
0000
0001
0000
2300
0000
3010
0100
0001
0000
0000
0000
0001
0000
0100
0000
,  // measure 33
0010
0000
1000
0000
0001
0000
1000
0100
1000
0100
1000
0100
1000
0100
1000
0100
1000
0100
1000
0000
0000
1100
0000
0000
,  // measure 34
1000
1010
0202
0300
0020
0033
0001
1000
,  // measure 35
0001
0000
0000
1000
0000
0000
0100
0000
0000
0110
0000
0000
1001
0000
0001
0000
0100
0000
1000
0000
0100
0000
0010
0000
,  // measure 36
2020
0000
0000
3030
,  // measure 37
0022
0033
0001
0100
0010
0100
1000
0000
,  // measure 38
1000
0100
0010
1000
0001
0010
0001
1000
0010
1000
0001
0010
0001
1000
0001
1000
,  // measure 39
0100
0010
0001
0010
0001
1000
0010
1000
,  // measure 40
0001
0100
1000
0100
0010
1000
0001
0010
1000
0010
0001
1000
0010
1000
0001
0010
,  // measure 41
0011
0000
1010
0000
0011
0000
1100
0000
0110
0000
1001
0000
0001
0010
0001
0010
,  // measure 42
0002
0000
0103
0000
1000
0000
0200
0000
1000
0000
0310
1000
0002
0000
0013
0000
,  // measure 43
1001
0000
0000
0000
0000
0000
0110
0000
0000
0000
0000
0000
0001
0100
0010
1000
0001
0100
0010
1000
0001
0100
0010
1000
,  // measure 44
0002
0003
0000
0000
;

//---------------dance-single - ----------------
#NOTEDATA:;
#CHARTNAME:;
#STEPSTYPE:dance-single;
#DESCRIPTION:;
#CHARTSTYLE:;
#DIFFICULTY:Medium;
#METER:8;
#RADARVALUES:0.419,0.545,0.192,0.458,0.048,214.000,18.000,43.000,0.000,0.000,0.000,0.000,0.000,0.419,0.545,0.192,0.458,0.048,214.000,18.000,43.000,0.000,0.000,0.000,0.000,0.000;
#CREDIT:;
#OFFSET:-0.060;
#BPMS:0.000=72.500
,4.000=36.250
,6.000=145.000
,39.000=72.500
,40.000=145.000
,70.000=72.500
,71.000=145.000
,101.000=36.250
,109.000=145.000
,120.000=290.000
,122.000=145.000
,144.000=290.000
,148.000=145.000
;
#STOPS:6.000=1.241
,109.000=2.897
,141.000=0.207
,141.500=0.207
;
#DELAYS:;
#WARPS:;
#TIMESIGNATURES:0.000=4=4
;
#TICKCOUNTS:0.000=4
;
#COMBOS:0.000=1
;
#SPEEDS:0.000=1.000=0.000=0
;
#SCROLLS:0.000=1.000
;
#FAKES:;
#LABELS:0.000=Song Start
;
#NOTES:
0000
0000
0000
0000
,
2002
0000
0000
3003
0000
0000
0020
0000
,
0000
1030
0200
0000
0000
0000
0310
0000
,
0000
0100
0010
0001
1000
0000
0001
0000
,
0100
0000
1000
0000
0100
0000
0010
1000
,
0010
1000
0001
0010
0001
1000
0002
2003
,
3200
2300
3002
0000
0000
0000
0103
0000
,
0010
0000
0100
0000
0001
1000
0100
0000
,
1000
0000
0010
0100
0010
0000
0100
0000
,
0000
0010
1000
0001
1000
0000
0001
0100
,
1000
1000
1000
1000
,
1000
1000
0110
1001
,
0101
0000
0000
0100
0000
0000
0110
0000
0100
0001
0000
0001
,
1000
0000
1000
0010
0000
0010
0100
0000
0000
0010
0000
0000
,
1010
0000
0101
0000
0001
0100
1000
0100
,
0010
0000
1000
1000
0010
0000
0100
0010
,
1000
0001
0010
0000
0200
0000
0000
1000
,
0000
1300
0100
2002
,
3003
0000
0202
0000
0303
0000
0001
0100
,
1000
0200
0320
2030
,
3002
0000
1003
0000
1000
0100
0010
0001
,
0010
0100
0020
0000
0000
0000
0000
0000
,
0000
0000
0031
0100
1000
0100
0010
1000
,
0010
0000
1000
0000
0010
0100
0010
1000
,
0001
0000
1000
0000
0000
0001
0100
1000
,
0100
0020
0000
2030
,
0000
3002
0000
2003
,
3010
0100
0010
1000
0001
0000
1000
0000
0000
0000
0000
0000
0000
0000
0000
0000
0002
0000
0000
0000
0000
0000
0000
0000
0203
0000
0000
0000
0000
0000
0000
0000
,
2300
0000
3200
0000
0310
1000
0010
1000
,
0010
0000
1010
0000
0010
0100
0001
1000
,
1001
0000
0000
0000
0000
0000
0001
1000
,
0100
0100
1000
0100
1000
0100
0010
0000
,
0100
0010
1000
0010
0010
0000
0100
0000
,
0010
2002
3003
0101
,
0010
0010
0110
0000
0000
0000
1001
0000
,
1000
0000
0100
1000
0010
0100
0001
1000
,
0100
0000
0000
0000
,
0010
0000
0000
0010
0100
1000
0100
0000
,
2000
3020
0230
0302
,
1003
0000
0001
0100
1000
0000
0100
0000
,
0020
0230
0320
0230
0320
0230
0320
0230
,
0010
0010
0310
0010
0010
0000
0110
0000
,
0001
0000
1000
0100
0010
0001
0010
0000
,
0011
0000
0000
0000
0000
0000
0001
0000
1000
0000
0001
1000
0001
0000
1000
0000
,
2002
0000
3003
0000
;

//---------------dance-single - ----------------
#NOTEDATA:;
#CHARTNAME:;
#STEPSTYPE:dance-single;
#DESCRIPTION:;
#CHARTSTYLE:;
#DIFFICULTY:Easy;
#METER:6;
#RADARVALUES:0.335,0.375,0.277,0.298,0.000,166.000,26.000,28.000,0.000,0.000,0.000,0.000,0.000,0.335,0.375,0.277,0.298,0.000,166.000,26.000,28.000,0.000,0.000,0.000,0.000,0.000;
#CREDIT:;
#OFFSET:-0.060;
#BPMS:0.000=72.500
,4.000=36.250
,6.000=145.000
,39.000=72.500
,40.000=145.000
,70.000=72.500
,71.000=145.000
,101.000=36.250
,109.000=145.000
,120.000=290.000
,122.000=145.000
,144.000=290.000
,148.000=145.000
;
#STOPS:6.000=1.241
,109.000=2.897
,141.000=0.207
,141.500=0.207
;
#DELAYS:;
#WARPS:;
#TIMESIGNATURES:0.000=4=4
;
#TICKCOUNTS:0.000=4
;
#COMBOS:0.000=1
;
#SPEEDS:0.000=1.000=0.000=0
;
#SCROLLS:0.000=1.000
;
#FAKES:;
#LABELS:0.000=Song Start
;
#NOTES:
0000
0000
0000
0000
,
0110
0000
0000
0020
,
0000
0230
0000
0302
,
0000
1003
0001
1000
,
0100
1000
0010
0100
,
0100
0100
0100
0020
,
2030
0000
3020
0000
0130
0000
0010
1000
,
0010
1000
0010
0000
1001
0000
0001
0000
,
0100
1000
0100
0010
,
0000
0000
1000
0001
1000
0000
0000
0000
,
0001
0001
0001
0001
,
0001
0001
0101
1100
,
0101
0000
0101
1010
,
1100
0011
0110
1001
,
0110
0000
1001
0000
0001
1000
0001
1000
,
0001
0200
0310
1000
,
0100
1000
0010
0000
0100
0000
0000
0100
,
0000
0000
0010
0000
1000
0001
0202
0000
,
0303
0000
0202
0000
0303
0000
0001
0100
,
0001
0100
0010
1000
,
1001
0000
0001
0000
1000
0100
0010
0001
,
0010
0100
2000
0000
0000
0000
3100
0000
,
0000
1100
0100
0010
,
0001
0010
0001
0000
0100
0000
0010
0000
,
1000
0000
0001
0000
1000
0000
0001
0001
,
0001
1000
0000
0010
,
0000
0100
0000
0001
,
1000
0010
0000
0000
0200
0000
0000
0000
,
0320
0000
0130
0010
,
1000
1000
0001
0000
,
2002
0000
3003
0001
,
1000
0100
1000
0010
,
0100
0010
0100
0010
0100
0000
0010
0000
,
1000
2002
3003
0101
,
1010
0101
0000
0101
,
0011
0000
0010
0010
0010
0000
0100
0000
,
2200
0000
0000
0000
,
3300
0000
0000
0000
1000
0100
0010
0000
,
0010
0001
0010
1000
,
0010
0001
0100
1000
0100
0010
1000
0001
,
2000
3002
2003
3002
,
2003
0000
3002
0000
0203
0000
0310
0010
,
0010
0000
0100
0010
1000
0000
0001
0000
,
0011
0000
0002
0000
,
0103
0000
0000
0000
;

//---------------dance-single - ----------------
#NOTEDATA:;
#CHARTNAME:;
#STEPSTYPE:dance-single;
#DESCRIPTION:;
#CHARTSTYLE:;
#DIFFICULTY:Beginner;
#METER:3;
#RADARVALUES:0.175,0.188,0.181,0.000,0.000,98.000,17.000,0.000,0.000,0.000,0.000,0.000,0.000,0.175,0.188,0.181,0.000,0.000,98.000,17.000,0.000,0.000,0.000,0.000,0.000,0.000;
#CREDIT:;
#OFFSET:-0.060;
#BPMS:0.000=72.500
,4.000=36.250
,6.000=145.000
,39.000=72.500
,40.000=145.000
,70.000=72.500
,71.000=145.000
,101.000=36.250
,109.000=145.000
,120.000=290.000
,122.000=145.000
,144.000=290.000
,148.000=145.000
;
#STOPS:6.000=1.241
,109.000=2.897
,141.000=0.207
,141.500=0.207
;
#DELAYS:;
#WARPS:;
#TIMESIGNATURES:0.000=4=4
;
#TICKCOUNTS:0.000=4
;
#COMBOS:0.000=1
;
#SPEEDS:0.000=1.000=0.000=0
;
#SCROLLS:0.000=1.000
;
#FAKES:;
#LABELS:0.000=Song Start
;
#NOTES:
0000
0000
0000
0000
,
0110
0000
0000
0100
,
0000
0010
0000
1000
,
0000
0001
0000
1000
,
1000
1000
0000
0100
,
0000
0000
0000
1000
,
0000
0001
0000
0010
,
0010
0010
0000
0001
,
0000
1000
0000
0010
,
0000
0000
0000
0100
,
0100
0000
0010
0010
,
0010
0000
1001
0000
,
0000
0000
0010
0010
,
0010
0000
0100
0000
,
0001
0000
1000
1000
,
1000
0000
0001
0000
,
0100
0000
0010
0000
,
0000
0000
0000
1001
,
0000
1000
0000
0001
,
0000
0010
0000
0001
,
0000
0100
0100
0100
,
0000
0110
0000
0000
,
0000
1001
1000
1000
,
0000
0001
0000
1000
,
0000
0010
0000
0100
,
0100
0110
0000
1000
,
0000
0001
0000
0001
,
1000
0000
0110
0000
,
1001
0000
0001
0001
,
0001
0000
1000
0000
,
0110
0000
0000
0010
,
0010
0010
0000
0100
,
0000
0001
0000
1000
,
1000
1001
0000
0110
,
0000
1001
0000
0010
,
0000
0100
0010
0000
,
1001
0000
0000
0000
,
0110
0110
0110
0000
,
0010
0000
1000
0000
,
0001
0001
0001
0000
,
1000
1000
1000
1000
,
0001
0001
0001
1000
,
0001
0000
0100
0000
,
0010
0000
1000
0000
,
1001
0000
0000
0000
;
