#TITLE:AAA;
#SUBTITLE:(Renaissance);
#ARTIST:D.J. Amuro VS DM Ashura;
#TITLETRANSLIT:;
#SUBTITLETRANSLIT:;
#ARTISTTRANSLIT:;
#GENRE:;
#CREDIT:;
#BANNER:A.png;
#BACKGROUND:bg.png;
#LYRICSPATH:;
#CDTITLE:;
#MUSIC:AAA.mp3;
#OFFSET:-0.058;
#SAMPLESTART:23.282;
#SAMPLELENGTH:12.000;
#SELECTABLE:YES;
#BPMS:0.000=160.000
;
#STOPS:
;
#BGCHANGES:;
#KEYSOUNDS:;
#ATTACKS:;

//---------------dance-single - Blank----------------
#NOTES:
     dance-single:
     :
     Hard:
     8:
     0.463,0.518,0.121,0.182,0.015,290.000,12.000,18.000,0.000,0.000,0.000,0.463,0.518,0.121,0.182,0.015,290.000,12.000,18.000,0.000,0.000,0.000:
0000
0000
0000
0000
,
0000
0000
0000
0000
,
0000
0000
0000
0000
,
0000
0000
0000
0000
,
0000
0000
0000
0000
,
0000
0000
0000
0000
,
0000
0000
0000
0000
,
0000
0000
0000
0000
,
1000
0010
0100
0000
0010
1000
0001
0000
,
0010
0100
1000
0000
0100
1000
0001
0000
,
1000
0001
0100
0000
0001
0100
0001
0000
,
0100
0010
1000
0000
0001
0010
0100
0000
,
0100
1000
0010
0000
0100
0001
1000
0000
,
1000
0010
0100
0000
0010
1000
0001
0000
,
0001
0010
0100
0000
0100
1000
0010
0000
,
0202
0000
0000
0000
,
0303
0000
0000
0000
0001
1000
0100
0000
,
1000
0010
0100
0000
0010
1000
0001
0000
,
0001
0010
0100
0000
0100
0010
0001
0000
,
0001
0100
1000
0000
1000
0100
0010
0000
,
0010
0001
1000
0000
1000
0010
0100
0000
,
0010
1000
0001
0000
0001
1000
0100
0000
,
1000
0010
0100
0000
0010
1000
0001
0000
,
0001
0010
1000
0000
1000
0010
0001
0000
,
0001
0100
0001
0100
0001
0100
0001
0100
,
0010
1000
0010
1000
0010
1000
0010
1000
,
0001
0010
0100
1000
0100
0010
0001
0010
,
0100
0000
0000
0000
0100
0100
0010
0000
,
0001
0100
1000
0000
1000
0100
0010
0000
,
0010
0001
1000
0000
1000
0010
0001
0000
,
0001
0010
0100
1000
0100
0010
1000
0001
,
0010
0001
1000
0100
1000
0010
0100
0001
,
2000
0000
0000
0000
,
3002
0000
0203
0000
,
0302
0000
0000
0000
,
0203
0000
0000
0000
,
0320
0000
2030
0000
,
3020
0000
0230
0320
,
2030
0000
0000
3002
,
0203
0000
0320
0000
,
1030
0000
0000
0000
0000
0000
0000
0000
0000
0000
0000
0000
1000
0000
0000
0001
,
0100
0000
0000
0100
0010
0000
0000
0000
0000
0000
0000
0000
0010
0000
0100
0000
,
0101
0000
1000
1000
0000
0010
0000
0100
,
0000
0000
0001
0000
0000
0000
1000
0000
0000
0000
0100
0000
0000
0000
0010
0001
,
0010
0000
0000
0001
0100
1000
0100
0010
,
0000
0010
0000
0010
0000
0000
0000
0100
,
2002
0000
0000
0000
,
0000
0000
0000
3003
,
0001
0100
0010
0100
0001
1000
0100
0000
,
1000
0010
0100
0010
1000
0100
1000
0000
,
1000
0001
0100
0001
0010
0001
0100
0000
,
0001
0101
0100
0110
,
0100
0010
1000
0010
0100
0001
0010
0000
,
0010
1000
0010
0001
0100
0001
1000
0000
,
0001
0100
1000
0100
0010
1000
0100
0000
,
1000
1001
0001
0101
,
0100
0010
1000
0000
1000
0001
0010
0000
,
0001
1000
0001
0100
0001
1000
0100
0000
,
1000
0010
0100
0000
0100
0001
1000
0000
,
0001
1000
0010
1000
0001
1000
0010
0000
,
0100
0001
1001
0000
1000
0100
1100
0000
,
1000
0100
0001
0100
1000
0010
0100
0000
,
0001
0100
0101
0000
0001
1000
1010
0000
,
0010
1000
0001
0010
0100
0010
0001
1000
,
1010
0000
0000
0000
;

//---------------dance-single - Blank----------------
#NOTES:
     dance-single:
     :
     Medium:
     5:
     0.353,0.453,0.121,0.020,0.000,230.000,12.000,2.000,0.000,0.000,0.000,0.353,0.453,0.121,0.020,0.000,230.000,12.000,2.000,0.000,0.000,0.000:
0000
0000
0000
0000
,
0000
0000
0000
0000
,
0000
0000
0000
0000
,
0000
0000
0000
0000
,
0000
0000
0000
0000
,
0000
0000
0000
0000
,
0000
0000
0000
0000
,
0000
0000
0000
0000
,
1000
0100
1000
0010
,
0100
0001
0010
0100
,
0010
0001
1000
0010
,
0100
0001
0010
0001
,
1000
0100
1000
0010
,
0100
0001
0010
0100
,
0010
0001
1000
0010
,
0101
0000
0000
0000
,
1001
0000
0001
0000
1000
0100
1000
0000
,
0010
0000
0100
0000
0010
1000
0001
0000
,
0010
0000
0100
0000
1000
0100
0010
0000
,
0001
0000
0010
0000
0001
0100
1000
0000
,
0100
0000
0010
0000
0100
0010
1000
0000
,
0001
0000
0010
0000
0001
0100
0010
0000
,
0100
0000
0010
0000
1000
0010
0100
0000
,
0010
0000
1000
0000
0100
1000
0010
0000
,
0100
0100
0010
0010
,
1000
1000
0001
0001
,
1000
0001
0010
0100
,
1100
0000
0000
0000
1000
0100
0010
0000
,
0001
0010
0001
0000
0100
0000
0010
0000
,
0100
0010
1000
0000
0001
0000
0100
0000
,
0010
1000
0001
0000
0001
0010
0100
0000
,
0010
0100
1000
0100
0010
0001
0010
0100
,
1000
0000
0000
0000
,
0010
0000
0100
0000
,
0001
0000
0000
0000
,
1000
0000
0000
0000
,
0010
0000
1000
0000
,
0010
0000
0100
0001
,
1000
0000
0000
0010
,
0100
0000
0010
0000
,
1001
0000
0000
0001
,
0010
0000
0010
0000
0000
0000
0010
0100
,
1000
0000
0100
1000
0000
0010
0000
0100
,
0000
0001
0000
1000
0000
0100
0000
1000
,
0100
0000
0000
0100
0010
0001
0010
0001
,
0000
0010
0000
0100
0000
0000
0000
0000
,
2002
0000
0000
0000
,
0000
0000
0000
3003
,
0001
0100
1000
0000
1000
0100
0001
0000
,
0001
0010
0100
1000
,
1000
0010
0001
0000
0001
0010
1000
0000
,
1000
0100
1000
0010
,
0100
0010
1000
0000
1000
0010
0100
0000
,
0010
1000
0001
0010
,
0001
0010
0100
0000
0100
0010
0001
0000
,
0100
0010
1000
0001
,
0001
0100
0010
0000
0100
0000
1001
0000
,
0001
0100
1000
0000
1000
0000
1100
0000
,
1000
0100
0010
0000
0100
0000
1001
0000
,
0001
0010
0100
0000
0100
1000
0010
0000
,
0100
0001
0010
0000
0100
0000
0110
0000
,
0010
0001
1000
0000
0100
0000
1100
0000
,
1000
0010
0100
0000
0010
0000
0101
0000
,
0001
0010
0100
0000
0010
0100
1000
0000
,
1001
0000
0000
0000
;

//---------------dance-single - Blank----------------
#NOTES:
     dance-single:
     :
     Easy:
     3:
     0.207,0.259,0.081,0.030,0.000,132.000,8.000,3.000,0.000,0.000,0.000,0.207,0.259,0.081,0.030,0.000,132.000,8.000,3.000,0.000,0.000,0.000:
0000
0000
0000
0000
,
0000
0000
0000
0000
,
0000
0000
0000
0000
,
0000
0000
0000
0000
,
0000
0000
0000
0000
,
0000
0000
0000
0000
,
0000
0000
0000
0000
,
0000
0000
0000
0000
,
1000
0001
0000
1000
,
0000
0001
0000
1000
,
0000
0010
0000
0100
,
0000
0010
0000
0100
,
0000
0001
0000
1000
,
0000
0100
0000
1000
,
0000
0010
0000
0100
,
0110
0000
0000
0000
,
1001
0000
0001
1000
,
0001
0100
0001
0010
,
0001
0100
0001
0010
,
0001
0100
0001
0000
,
1000
0010
0100
0010
,
1000
0100
1000
0010
,
1000
0100
1000
0010
,
1000
0100
1000
0010
,
0100
0100
0100
0000
,
0010
0010
0010
0000
,
1000
1000
0001
1000
,
0001
0000
0001
0100
,
0010
1000
0010
0001
,
0010
1000
0100
0001
,
0200
0000
0000
0000
,
0000
0000
0000
0000
,
0310
0000
0000
0000
,
0001
0000
0000
0000
,
1000
0000
0000
0000
,
0010
0000
0000
0000
,
0100
0000
0000
0000
,
0001
0000
0000
0000
,
1000
0000
0000
0000
,
0001
0000
0000
0000
,
0110
0000
0000
0000
,
0010
0000
0000
0000
,
1001
0000
0000
0000
,
1000
0000
0000
0000
,
1001
0000
0000
0000
,
0110
0000
0000
0000
,
2002
0000
0000
0000
,
0000
0000
0000
3003
,
0001
1000
0100
1000
,
0001
0100
0001
1000
,
0100
1000
0001
0100
,
0001
1000
0100
1000
,
0001
0010
0001
1000
,
0010
1000
0001
0010
,
0001
1000
0010
1000
,
0001
0010
0001
0100
,
0000
0010
0000
1000
,
0000
0001
0000
0010
,
0000
0001
0000
0100
,
0000
0010
0000
1000
,
0000
0010
0000
0100
,
0000
0001
0000
1000
,
0000
1000
0000
0001
,
0000
0010
0000
0001
,
1001
0000
0000
0000
;

//---------------dance-single - Blank----------------
#NOTES:
     dance-single:
     :
     Beginner:
     1:
     0.081,0.097,0.051,0.000,0.000,51.000,5.000,0.000,0.000,0.000,0.000,0.081,0.097,0.051,0.000,0.000,51.000,5.000,0.000,0.000,0.000,0.000: // measure 0
0000
0000
0000
0000
,  // measure 1
0000
0000
0000
0000
,  // measure 2
0000
0000
0000
0000
,  // measure 3
0000
0000
0000
0000
,  // measure 4
0000
0000
0000
0000
,  // measure 5
0000
0000
0000
0000
,  // measure 6
0000
0000
0000
0000
,  // measure 7
0000
0000
0000
0000
,  // measure 8
0010
0000
0000
0000
,  // measure 9
0010
0000
0000
0000
,  // measure 10
1000
0000
0000
0000
,  // measure 11
1000
0000
0000
0000
,  // measure 12
0001
0000
0000
0000
,  // measure 13
0001
0000
0000
0000
,  // measure 14
0001
0000
0000
0000
,  // measure 15
0000
0000
0000
0000
,  // measure 16
1001
0000
0010
0000
,  // measure 17
0000
0000
0000
0000
,  // measure 18
0100
0000
0000
0000
,  // measure 19
0001
0000
0000
0000
,  // measure 20
1000
0000
0000
0000
,  // measure 21
0100
0000
0000
0000
,  // measure 22
1000
0000
0000
0000
,  // measure 23
0010
0000
0000
0000
,  // measure 24
0100
0000
0000
0000
,  // measure 25
0100
0000
0000
0000
,  // measure 26
0100
0000
0000
0000
,  // measure 27
0010
0000
0000
0000
,  // measure 28
0001
0000
0000
0000
,  // measure 29
1000
0000
0000
0000
,  // measure 30
0010
0000
0000
0000
,  // measure 31
0001
0000
0000
0000
,  // measure 32
0100
0000
0000
0000
,  // measure 33
0000
0000
0000
0000
,  // measure 34
0000
0000
0000
0000
,  // measure 35
0000
0000
0000
0000
,  // measure 36
0010
0000
0000
0000
,  // measure 37
0000
0000
0000
0000
,  // measure 38
1000
0000
0000
0000
,  // measure 39
0001
0000
0000
0000
,  // measure 40
1001
0000
0000
0000
,  // measure 41
0000
0000
0000
0000
,  // measure 42
0010
0000
0000
0000
,  // measure 43
0000
0000
0000
0000
,  // measure 44
0100
0000
0000
0000
,  // measure 45
0001
0000
0000
0000
,  // measure 46
1001
0000
0000
0000
,  // measure 47
0000
0000
0000
0000
,  // measure 48
0110
0000
0000
0000
,  // measure 49
0010
0000
0000
0000
,  // measure 50
1000
0000
0000
0000
,  // measure 51
0001
0000
0001
0000
,  // measure 52
0001
0000
0000
0000
,  // measure 53
1000
0000
0000
0000
,  // measure 54
0010
0000
0000
0000
,  // measure 55
1000
0000
0000
0000
,  // measure 56
0100
0000
0000
0000
,  // measure 57
0010
0000
0000
0000
,  // measure 58
0001
0000
0000
0000
,  // measure 59
1000
0000
1000
0000
,  // measure 60
1000
0000
0000
0000
,  // measure 61
0010
0000
0000
0000
,  // measure 62
0100
0000
0000
0000
,  // measure 63
0001
0000
0000
0000
,  // measure 64
1001
0000
0000
0000
;
