#TITLE:[E];
#SUBTITLE:;
#ARTIST:dj MAX STEROID;
#TITLETRANSLIT:;
#SUBTITLETRANSLIT:;
#ARTISTTRANSLIT:;
#CREDIT:;
#BANNER:bn.png;
#BACKGROUND:bg.png;
#LYRICSPATH:;
#CDTITLE:;
#MUSIC:[e] - dj max steroid.mp3;
#OFFSET:-1.974;
#SAMPLESTART:58.680;
#SAMPLELENGTH:12.000;
#SELECTABLE:YES;
#BPMS:0.000=152.000,124.000=76.000,134.000=152.000;
#STOPS:;
#BGCHANGES:;

//---------------dance-single - ----------------
#NOTES:
     dance-single:
     :
     Hard:
     11:
     0.903,1.000,0.566,0.607,1.000:
1001
0000
0001
0100
0000
0100
0010
0000
0100
0001
1000
0000
0001
0000
1000
0000
,
0010
0100
0000
0001
0000
0010
0100
0000
1000
0001
1000
0000
0001
0000
0100
0000
,
0010
1000
0000
0001
0000
0010
0100
0000
0100
1000
0100
0000
1000
0000
0010
0000
,
0100
0000
0001
0010
0000
0100
1000
0000
0000
1000
0100
0010
0100
1000
0001
0100
,
0001
0000
0010
0100
0000
0100
1000
0000
1000
0001
0100
0000
0010
0000
1000
0000
,
0001
0010
0000
0010
0000
0100
0010
0000
0000
0100
1000
0000
0001
0000
0100
0000
,
0010
0100
0000
0010
0000
1000
0001
0000
0010
0100
0010
0000
0001
0010
0000
0010
,
0100
0000
0000
0000
0000
0000
0000
0000
0011
0010
0000
1001
0000
0000
0110
0000
,
1001
0000
1000
0001
0000
0001
0100
0000
0010
1000
0010
0000
0100
0000
0001
0000
,
1000
0100
0000
0100
0000
0010
0001
0000
0001
0100
0010
0000
0100
0000
0010
0000
,
1000
0001
0000
1000
0000
0010
0100
0000
0100
0001
0100
0000
0010
0000
1000
0000
,
0100
0010
0000
0010
0000
0010
0100
0000
0000
0100
0010
0001
1000
0010
1000
0001
,
1000
0000
1000
0100
0000
1000
0010
0000
0010
0100
0001
0000
0001
1000
0000
1000
,
0010
0100
0000
0100
0000
0010
1000
0000
0000
1000
0010
0000
0100
0000
0001
0000
,
0020
1030
0020
0230
0000
1300
0200
0001
,
0000
0000
0010
0000
0000
0000
1000
0000
0000
0310
0001
1000
1001
0000
0000
0000
,
0001
0100
0000
0010
0000
0000
0100
0000
1010
0000
0000
0000
1001
0000
0000
1100
,
0000
0011
0000
1001
0000
0000
0001
0000
0101
0000
0000
0000
1001
0000
0000
0000
,
1100
0000
1000
0100
0000
0000
0010
0000
0011
0000
0000
0000
1001
0000
0000
0101
,
0000
1010
0000
1100
0000
0000
0000
0000
1001
0000
0000
0000
0101
0000
0000
0000
,
0110
0000
0010
1000
0000
0000
0000
0000
0110
0000
0000
0000
1001
0000
0000
0011
,
0000
1100
0000
1001
0000
0000
0000
0000
0101
0000
0000
0000
1010
0000
0000
0000
,
0110
0000
0010
1000
0000
0000
0010
0000
1001
0000
0000
0000
0101
0000
0000
1010
,
0000
1001
0000
1100
0000
0000
0000
0000
2000
0000
3200
0000
0320
0000
0032
0000
,
1003
0100
0000
0100
0001
0000
0000
0001
0100
0010
0001
0000
0000
0000
0000
0001
,
0010
1000
0010
0001
0100
0000
1000
0100
0000
0100
0010
1000
0001
0000
0000
0000
,
0001
0010
0000
0010
1000
0000
0000
1000
0010
0001
0100
0000
0000
0000
0001
0100
,
0010
0000
0000
0000
1000
0000
0000
0000
0001
0000
0000
0000
0010
0000
0000
0000
0000
0000
0000
0000
0000
0000
0000
0000
0210
0000
0000
0000
0000
0000
0000
0000
0000
2300
0000
0000
0000
0000
0000
0000
0000
0000
0010
0000
0000
0000
0000
0000
,
3010
0100
0000
1000
0001
0000
0000
0001
0010
1000
0010
0000
0000
0000
0000
1000
,
0100
0010
0100
1000
0001
0010
0000
0100
0000
0010
0001
0100
0010
0000
0000
0000
,
0100
0010
0000
1000
0001
0000
0001
1000
0010
0001
0000
0001
0100
0000
0100
0010
,
2002
0000
0000
0000
0000
0000
0000
0000
3003
0000
0000
0000
0000
0000
0000
0000
1000
0000
0000
0000
0000
0000
0001
0000
1001
0000
0000
0000
0001
0100
0000
0100
,
0000
0000
0010
0000
1000
0000
0000
0000
0001
0010
0000
0100
0000
0010
0000
0001
1000
0200
0300
0000
1000
0010
1000
0000
0010
0100
0000
0001
0000
1000
0000
0100
,
0010
0000
0010
0001
0000
0001
0100
0000
0010
1000
0001
1000
0000
0000
0000
0000
0020
0000
0000
0000
1030
0000
0020
0000
0000
0000
0130
0000
0020
0000
0000
0000
,
0230
0001
2300
0000
3020
0000
0230
0000
0320
0000
0000
0200
0000
0300
0230
0000
,
0320
0000
0000
2030
0000
0000
3200
0000
0320
0000
0032
0000
2003
0000
0002
0000
,
0000
0000
0000
0000
3003
0000
0001
0000
1000
0000
1000
0010
0000
0100
0001
0000
,
0002
0000
1003
0000
0020
0000
0130
0000
0020
0000
1030
0010
0000
0010
0100
0000
,
0010
1000
0002
0000
0023
0000
0230
0000
2000
0000
0300
0100
0000
0000
3200
0000
,
0020
0000
0300
0001
0000
0000
0100
0000
0230
0000
0320
0000
0032
0000
2000
0000
,
0000
0000
0000
0000
0000
0000
3003
0000
0000
0000
0000
0000
1000
0000
0000
0000
0000
0000
0200
0000
0000
0000
0000
0300
0210
0000
0000
0000
0000
0000
0000
0000
0000
0000
0000
0000
1000
0000
0000
0000
0000
0000
0000
0000
0000
0000
0000
0000
,
0320
0000
0002
0000
0000
0000
0033
0000
0102
0000
0000
0100
0000
0000
0023
0000
,
0000
0100
0000
0000
0031
0000
0100
0000
2000
0000
0000
0100
0000
0000
3010
0000
,
0210
0000
0000
0001
0000
0000
0301
0000
0200
0000
1300
0000
0020
0000
2000
0000
,
0000
0000
0000
0000
0000
0000
0000
0000
3030
0000
0000
0000
0000
0000
0000
0000
0000
0000
0000
0000
0000
0000
0000
0000
0010
0000
0000
0000
0000
0000
0000
0000
2002
0000
0000
0000
0000
0000
0000
0000
3000
0000
0000
0000
0000
0000
0000
0003
0022
0000
0000
0000
0000
0000
0000
0000
0030
0000
0000
0000
0000
0000
0000
0003
,
0202
0000
0000
0000
0000
0000
0000
0300
0200
0000
0000
0000
0000
0000
0000
0000
0000
0000
0000
0000
0000
0000
0000
0000
0303
0000
0000
0000
0000
0000
0000
0000
0201
0000
0000
0000
0000
0000
0000
0000
0000
0000
0000
0000
1000
0000
0000
0000
0000
0000
0000
0000
0000
0000
0000
0000
0310
0000
0000
0000
0000
0000
0000
0000
,
2000
0000
0000
0100
0000
0000
3010
0000
0200
0000
0000
1000
0000
0000
0010
0000
,
0301
0010
1000
0010
0200
0310
2000
0200
,
0000
0000
0000
3300
0000
0000
0000
0000
0000
1000
0000
0000
0010
0000
0100
0000
0001
0000
1000
0000
0000
0000
0000
0000
,
0001
0000
0100
0000
0001
0000
0100
0000
0001
0000
0100
0000
0001
0000
0000
0000
0000
0000
0000
0000
0000
0000
0000
0000
0100
0000
0000
0010
0000
0000
0000
0000
0000
1010
0000
0000
0000
0000
0000
0000
0000
0000
0000
0000
0000
1010
0000
0000
,
0000
1001
0000
0001
0100
0000
0010
0000
1000
0010
0000
0110
0000
0000
0000
1001
,
0000
0101
0000
0010
0100
0000
0010
0000
1000
0001
0000
1100
0000
0000
0000
1100
,
0000
0101
0000
0001
0100
0000
0010
0000
0010
1000
0000
1001
0000
0001
0010
0001
,
0020
0000
0031
0000
0002
0000
0103
0000
0010
1000
0000
1010
0000
0000
0000
1001
,
0000
0101
0000
0101
0000
0001
0100
0010
1000
0100
0000
1001
0000
0001
0100
0010
,
0000
0110
0000
1001
0000
1000
0010
0000
0010
0100
0000
1001
0000
0000
0001
0100
,
0010
0100
0000
0110
0000
0010
1000
0000
1010
0000
0010
1000
0000
0001
0100
0010
,
0100
0000
0010
0100
0000
0010
0100
0001
1000
0001
1000
0001
1000
0000
1000
0000
,
0010
0000
0000
0000
0010
0000
0100
0010
1000
0010
0000
0100
0000
0001
0010
0000
,
0100
1000
0000
0000
0001
1000
0001
1000
1001
0000
0000
0000
0000
0000
0001
0000
,
0100
0000
0000
0000
0100
0000
0010
0000
0000
0000
0100
0000
0010
0000
1000
0010
,
0000
0100
0001
0000
0001
0010
0100
1000
0001
0000
0000
0000
0000
0000
0001
0000
,
0010
0000
0000
0000
0100
0000
1000
0000
0000
0000
0010
0000
0100
0000
0010
1000
,
0000
0010
0100
0000
0100
0001
0010
0100
1000
0000
0001
0100
0001
0000
0100
0010
,
1000
0000
0001
0010
0100
1000
0100
0000
0010
0000
0001
0200
0000
1000
0320
0001
,
1030
0010
1000
0001
0010
1000
0010
0001
1000
0000
0000
0000
1000
0100
0001
0100
,
1000
0010
1000
0001
1000
0100
0000
1001
0000
0000
0001
0010
1000
0010
0001
0100
,
0010
1000
0100
0001
0100
0010
0000
0000
0010
0001
0000
0000
0001
0100
0010
1000
,
0001
0010
0001
1000
0010
1000
0000
0001
0010
0000
0001
0100
0000
0010
1000
0000
,
1000
0100
0000
0010
0001
0100
1000
0100
0010
0000
0100
0100
0010
0000
1000
0001
,
0000
0001
0010
0100
1000
0000
0001
0000
0220
0000
0000
0000
0000
0000
0000
0000
,
0330
0000
0000
0000
;

//---------------dance-single - ----------------
#NOTES:
     dance-single:
     :
     Medium:
     9:
     0.561,0.650,0.241,0.150,0.370:
0001
0000
0000
0100
0000
0000
0010
0000
0000
0000
0100
0000
0001
0000
1000
0000
,
0100
0000
0000
0100
0000
0000
0010
0000
0000
0000
0100
0000
1000
0000
0001
0000
,
0100
0000
0000
0010
0000
0000
1000
0000
0000
0000
1000
0000
0001
0000
0010
0000
,
0100
0000
0000
0010
0000
0000
0001
0000
0000
0000
0001
0000
0100
0000
1000
0000
,
0100
0000
0000
0100
0000
0000
0010
0000
0000
0000
0010
0000
1000
0000
0001
0000
,
0010
0000
0000
0100
0000
0000
0010
0000
0000
0000
0100
0000
1000
0000
0100
0000
,
1000
0000
0000
0010
0000
0000
0100
0000
0000
0000
0100
0000
0010
0000
1000
0000
,
0010
0000
0000
0000
0000
0000
0000
0000
0110
0000
0000
0110
0000
0000
0110
0000
,
0010
0000
0000
1000
0000
0000
1001
0000
0000
0000
0001
0000
1000
0000
0100
0000
,
1000
0000
0000
0100
0000
0000
1000
0000
0000
0000
0100
0000
0010
0000
0001
0000
,
0010
0000
0000
0001
0000
0000
0011
0000
0000
0000
0001
0000
0100
0000
0010
0000
,
0100
0000
0000
0100
0000
0000
0100
0000
0000
0000
0010
0000
0010
0000
0100
0000
,
0001
0000
0000
1000
0000
0000
1100
0000
0000
0000
1000
0000
0100
0000
0001
0000
,
0100
0000
0000
0100
0000
0000
0110
0000
0000
0000
0010
0000
0001
0000
0010
0000
,
0100
1000
0100
1000
0000
1000
0010
0001
,
0000
0010
0000
0100
0000
0010
1001
0000
,
0101
0000
0000
0000
0000
0000
0000
0000
0001
0000
0000
0000
1000
0000
0000
0100
,
0000
0100
0000
0100
0000
0000
0000
0000
1000
0000
0000
0000
0010
0000
0000
0000
,
0100
0000
0000
0100
0000
0000
0000
0000
0010
0000
0000
0000
1000
0000
0000
0001
,
0000
0100
0000
0010
0000
0000
0000
0000
0100
0000
0000
0000
0010
0000
0000
0000
,
1000
0000
0000
0001
0000
0000
0000
0000
0001
0000
0000
0000
1000
0000
0000
0100
,
0000
1000
0000
0100
0000
0000
0000
0000
1000
0000
0000
0000
0010
0000
0000
0000
,
0100
0000
0000
0100
0000
0000
0000
0000
0010
0000
0000
0000
1000
0000
0000
0001
,
0000
1000
0000
0000
0001
0000
0000
0000
0001
0000
0100
0000
1000
0000
0100
0000
,
0010
0100
0001
1000
0100
0010
0000
0000
,
0010
0001
0100
1000
0100
0010
1001
0000
,
0001
0010
1000
0010
0001
0100
0010
1000
,
0002
0000
0000
0000
0010
0000
0000
0000
1003
0000
0000
1000
0000
0000
1000
0000
,
0010
0001
0010
0100
0001
1000
0000
0000
,
1000
0100
1000
0010
0100
0001
0011
0000
,
0010
0100
1000
0100
1000
0010
0100
0001
,
0022
0000
0000
0000
0033
0000
0000
0000
0001
0000
0001
0100
1000
0000
0100
0000
,
0010
0000
0100
0001
1000
0000
0001
0000
1000
0000
0100
1000
0010
0000
0100
0000
,
0001
0000
0000
1000
0000
0000
0010
0000
2000
0000
0000
3100
0000
0000
0000
0000
1000
0000
0000
0000
0000
0000
0100
0000
0000
0000
0000
0000
1000
0000
0000
0000
,
0000
0000
0010
0000
0100
0000
0001
0000
1000
0000
0000
1000
0000
0000
0001
0000
,
0100
0000
0000
0100
0000
0000
0010
0000
1000
0000
0001
0000
0010
0000
0100
0000
,
0000
0000
0000
0100
0220
0000
0330
0000
,
0110
1001
0110
0000
,
0000
0010
0100
0001
1000
0000
0000
0001
,
1000
0000
0000
0100
0000
0000
1000
0000
0100
0000
0010
0000
0001
0000
0100
0000
,
0000
0000
0000
0010
0100
0000
0010
0000
,
1001
0000
1001
0000
0000
0000
0000
0000
0001
0000
0000
0100
0000
0000
1000
0000
,
0000
0000
0100
0000
0010
0000
1000
0000
0001
0000
0000
1000
0000
0000
0000
0000
,
1000
0000
0000
0100
0000
0000
1000
0000
0100
0000
0010
0000
0001
0000
0010
0000
,
0000
0000
0000
0001
0101
0000
1100
0000
,
0101
0000
1100
0000
0000
0000
0000
0000
1000
0000
0000
0100
0000
0000
0010
0000
,
0000
0000
0001
0000
0100
0000
0010
0000
0100
0000
0000
0100
0000
0000
0010
0000
,
0001
0000
0000
0100
0000
0000
0010
0000
1000
0000
0100
0000
1000
0000
0001
0000
,
0000
0000
0000
1000
2001
0001
0002
3003
,
0020
0000
0000
0000
0000
0000
0000
0000
0030
0000
0000
0000
1001
0000
0000
0000
0000
0000
0000
0000
0000
0000
0000
0000
0001
0000
0000
0000
0000
0000
0000
0000
0000
0100
0000
0000
0000
0000
0000
0000
0000
0000
0000
0000
0000
0010
0000
0000
,
0000
0000
0100
0000
0001
0000
1000
0000
0010
0100
0000
0001
0000
0000
0000
1000
,
0000
0001
0000
0010
0000
0000
0100
0000
1000
0000
0000
0001
0000
0000
0000
0100
,
0000
0100
0000
0100
0000
0000
0010
0000
1000
0000
0000
0010
0000
0000
0100
0000
,
0010
0000
1000
0000
0001
0000
0010
0000
0100
1000
0000
0100
0000
0000
0010
0001
,
0000
1000
0000
0001
0000
1000
0010
0000
1000
0010
0000
0100
0000
0000
0010
0100
,
0000
0001
0000
1000
0000
0001
0010
0000
0001
0100
0000
0010
0000
0000
0010
0100
,
0000
0010
0000
1000
0000
0001
1000
0000
0100
0010
0000
0100
0000
0000
0100
0000
,
0010
0000
0001
0000
1000
0000
0001
0000
1000
0000
0000
1001
0000
0000
0001
0000
,
0200
0000
1000
1000
0000
0010
0000
0001
,
0000
0310
1000
0001
0010
0000
0000
0001
,
0020
0000
1000
1000
0000
0100
0000
1000
,
0000
0100
0230
0000
0310
0000
0000
0010
,
0200
0000
1000
1000
0000
2300
0000
3020
,
0000
0130
0001
1000
1001
0000
0000
0001
,
0200
0000
1000
1000
0000
0010
0000
0001
,
0000
0310
1000
0001
1001
0000
0001
0100
,
0010
0000
1000
0000
1000
0100
0000
1001
0000
0000
1000
0100
1000
0000
0001
0000
,
0100
0000
0010
0000
1000
0001
0000
0000
0001
0100
0000
0000
0010
0000
1000
0000
,
0001
0000
0010
0000
0100
1000
0000
1000
0001
0100
0001
0000
0100
0010
0100
0000
,
0010
1000
0010
0000
1000
0001
1000
0000
0001
0000
0100
0000
1000
0000
0100
0000
,
0001
0010
1000
0010
2002
0000
0000
0000
,
3003
0000
0000
0000
;

//---------------dance-single - ----------------
#NOTES:
     dance-single:
     :
     Easy:
     7:
     0.433,0.472,0.283,0.075,0.000: // measure 1
0001
0101
0001
0100
,  // measure 2
0010
1001
0010
1000
,  // measure 3
0100
1100
1000
0010
,  // measure 4
0100
0000
1001
0000
0010
0100
0010
0000
,  // measure 5
0100
0101
0001
1000
,  // measure 6
0010
0110
0010
1000
,  // measure 7
0001
1100
1000
0010
,  // measure 8
0110
0000
0000
0000
,  // measure 9
0001
0000
1100
0000
1000
0010
0100
0000
,  // measure 10
0010
0000
0100
0000
0010
1000
0001
0000
,  // measure 11
1000
0000
0100
0000
1000
0010
0100
0000
,  // measure 12
0010
0000
1000
0000
0000
0001
0010
0100
,  // measure 13
1000
0000
1001
0000
0001
0100
0010
0000
,  // measure 14
0100
0000
0010
0000
0010
1000
0010
0000
,  // measure 15
0100
0010
1000
0001
,  // measure 16
0010
0000
0100
0000
1000
0100
0001
0000
,  // measure 17
0001
0000
0110
0000
0010
0001
0100
0000
,  // measure 18
0010
0000
1001
0000
0001
0100
0010
0000
,  // measure 19
0100
0000
0110
0000
0010
1000
0100
0000
,  // measure 20
1000
0000
0001
0000
0100
0001
1000
0100
,  // measure 21
0010
0000
0110
0000
0010
1000
0001
0000
,  // measure 22
1000
0000
1100
0000
1000
0001
0100
0000
,  // measure 23
0001
0000
0101
0000
0001
0100
0010
0000
,  // measure 24
0100
0000
0110
0000
0010
1000
0001
0000
,  // measure 25
1000
0100
0001
0000
,  // measure 26
0001
0100
1000
0010
,  // measure 27
0001
0010
0100
0001
,  // measure 28
0100
0000
1000
0100
,  // measure 29
0010
0001
0010
0000
,  // measure 30
0010
1000
0100
0001
,  // measure 31
0100
1000
0100
1000
,  // measure 32
2002
3003
0001
0110
,  // measure 33
0100
0010
1000
0100
0010
0100
1100
0000
,  // measure 34
1000
0001
0101
0100
0010
0000
1000
0000
,  // measure 35
0010
0000
0100
0010
1000
0000
0001
0000
,  // measure 36
0010
0000
0100
0000
1000
0100
0010
0001
,  // measure 37
0000
0000
0000
0001
0002
0000
0000
0000
,  // measure 38
0100
0100
0103
0000
,  // measure 39
0000
0100
0010
1000
0010
0000
0000
1000
,  // measure 40
0001
0000
1000
0000
1000
0100
0010
0001
,  // measure 41
0000
0000
0000
0001
0100
0000
0010
0000
,  // measure 42
0100
0100
0000
0000
0010
0000
1000
0000
,  // measure 43
0001
0000
0010
0100
1000
0000
0100
0000
,  // measure 44
1000
0000
0010
0000
0100
0010
1000
0010
,  // measure 45
0000
0000
0000
1000
0001
0000
1000
0000
,  // measure 46
0010
0010
0000
0000
0100
0000
0001
0000
,  // measure 47
0010
1000
0010
0100
,  // measure 48
1000
0000
0010
0000
0100
0010
1000
0001
,  // measure 49
0000
0000
0000
0001
0020
0000
0000
0000
,  // measure 50
0130
0110
0010
1100
,  // measure 51
0100
1000
0010
0000
0100
0000
0110
0000
,  // measure 52
0010
1000
0001
0000
1100
0000
1100
0000
,  // measure 53
0001
0100
0010
0000
0001
0000
0100
0000
,  // measure 54
0001
0100
1000
0100
0010
0010
0010
0000
,  // measure 55
0100
0000
0110
0000
0100
0100
0100
0000
,  // measure 56
0010
0000
1001
0000
1000
1000
1000
0000
,  // measure 57
0010
0000
1010
0000
0001
0001
0001
0000
,  // measure 58
0100
0000
0000
0000
0010
0000
0000
1000
,  // measure 59
0010
0000
0100
0010
0000
1000
0000
0001
,  // measure 60
0000
0001
0010
0100
1000
0000
0000
1000
,  // measure 61
0001
0000
0100
0001
0000
0100
0000
0100
,  // measure 62
0000
0100
0010
0100
0010
0000
0000
0010
,  // measure 63
1000
0000
0010
1000
0000
0001
0000
0010
,  // measure 64
0000
0010
0001
0010
0100
0000
0000
0100
,  // measure 65
1000
0000
0100
1000
0000
0010
0000
0100
,  // measure 66
0000
0010
1000
0001
1000
0000
0101
0000
,  // measure 67
0001
0100
0010
0000
0000
0100
0010
0000
,  // measure 68
1000
0001
1000
0000
0101
0000
0101
0000
,  // measure 69
0001
1000
0010
0000
0100
0000
1001
0000
,  // measure 70
0010
1001
0002
0203
,  // measure 71
0320
2030
0200
0000
,  // measure 72
3300
0000
0000
0000
;
