#VERSION:0.83;
#TITLE:un deux trois;
#SUBTITLE:;
#ARTIST:SDMS;
#TITLETRANSLIT:;
#SUBTITLETRANSLIT:;
#ARTISTTRANSLIT:;
#GENRE:;
#ORIGIN:;
#CREDIT:;
#BANNER:un deux trois.png;
#BACKGROUND:un deux trois-bg.png;
#PREVIEWVID:;
#JACKET:un deux trois-jacket.png;
#CDIMAGE:;
#DISCIMAGE:;
#LYRICSPATH:;
#CDTITLE:;
#MUSIC:un deux trois.ogg;
#OFFSET:0.000000;
#SAMPLESTART:66.850006;
#SAMPLELENGTH:15.000000;
#SELECTABLE:YES;
#BPMS:0.000=140.000,
100.000=70.000,
109.000=140.000;
#STOPS:100.000=2.571;
#DELAYS:;
#WARPS:;
#TIMESIGNATURES:0.000=4=4;
#TICKCOUNTS:0.000=4;
#COMBOS:0.000=1;
#SPEEDS:0.000=1.000=0.000=0;
#SCROLLS:0.000=1.000;
#FAKES:;
#LABELS:0.000=Song Start;
#BGCHANGES:;
#KEYSOUNDS:;
#ATTACKS:
;

//---------------dance-single - ----------------
#NOTEDATA:;
#CHARTNAME:;
#STEPSTYPE:dance-single;
#DESCRIPTION:;
#CHARTSTYLE:;
#DIFFICULTY:Hard;
#METER:15;
#RADARVALUES:0.690962,0.967474,0.408163,0.234694,0.581633,474.000000,434.000000,40.000000,23.000000,0.000000,0.000000,0.000000,0.000000,0.000000,0.690962,0.967474,0.408163,0.234694,0.581633,474.000000,434.000000,40.000000,23.000000,0.000000,0.000000,0.000000,0.000000,0.000000;
#CREDIT:Pandemonium X;
#NOTES:
0000
0000
0000
0000
,
0000
0000
0000
0000
,
0000
0000
0000
0000
,
0000
0000
0000
0000
,
0000
0000
0000
0000
,
1000
0000
0001
0010
0100
0000
0010
0000
0001
0000
0000
0000
1000
0000
0001
0000
,
1000
0000
0001
0010
0200
0000
0010
0000
0310
0000
0000
0000
0100
0000
1000
0000
,
0001
0000
0010
0001
0100
0000
0010
0000
1000
0000
0000
0000
0010
0000
0100
0000
,
0001
1000
0001
1000
0001
1000
0001
1000
0001
1000
0001
1000
0001
1000
0100
0000
,
1001
0000
1000
0100
0010
0000
0100
0000
1000
0000
1000
0000
0001
0000
0001
0000
,
0100
0000
0010
1000
0100
0000
0010
0000
0001
0000
0010
0000
1000
0000
0010
0000
,
0001
0000
0010
0100
1000
0000
0100
0000
0010
0000
0010
0000
0100
0000
0100
0000
,
0010
0000
0001
0100
0010
0000
1000
0000
0100
0000
0001
0000
0100
0000
1100
0000
,
0110
0000
0010
0001
1000
0000
0010
0000
0100
0000
0100
0000
0010
0000
0010
0000
,
1000
0000
0001
0100
0010
0000
0100
0000
0001
0000
0010
0000
1000
0000
0010
0000
,
0001
0000
0010
0100
1000
0000
0010
0000
0100
0000
0100
0000
0001
0000
0001
0000
,
1000
0000
0001
0010
0100
0000
1000
0000
0001
0000
0100
0000
1000
0000
0100
0000
,
0010
2000
0000
0100
3100
0000
1100
0000
,
1000
0000
0001
0100
0010
0000
0100
0000
0101
0000
0000
0000
0001
0000
0010
0000
,
0100
0000
0010
0001
1000
0000
0010
0000
0110
0000
0000
0000
0100
0000
0010
0000
,
1000
0000
0001
1000
0100
0000
0010
0000
0110
0000
0000
0000
0010
0000
0001
0000
,
1100
0000
0100
1000
0010
0000
0100
0000
0102
0000
0000
0000
0023
0000
0000
0000
,
0130
0000
0010
0001
1000
0000
0010
0000
0210
0000
0000
0000
0301
0000
0000
0000
,
1100
0001
0010
0000
0101
0010
1000
0000
,
1001
0000
0001
0100
1000
0000
0100
0000
0101
0000
0000
0000
1001
0000
0010
0000
,
2002
0000
0000
0000
0000
3003
0000
0000
1000
0010
0100
0001
0010
0100
0010
0001
2000
0000
0000
0000
0000
0000
0000
0000
3001
0010
0100
0010
0001
1000
0010
0100
,
0002
0000
0000
0023
0000
0000
0032
0000
0103
0010
1000
0001
0010
0001
1000
0100
0010
0000
0000
0000
0000
0000
0000
0000
0011
0000
0000
0000
0011
0000
0000
0000
,
0011
0000
0000
0000
1000
0100
1000
0100
1000
0100
1000
0100
1000
0100
1000
0100
,
1000
0000
0000
0000
0001
0100
0001
0100
0001
0100
0001
0100
0001
0100
0001
0100
,
0001
0000
0000
0000
1000
0001
1000
0001
0100
0010
0100
0010
1000
0001
0100
0010
,
1000
0001
1000
0001
1000
0001
1000
0000
0000
0000
0000
0000
0000
0000
0000
0000
0000
0000
0000
0000
0000
0000
0000
0000
,
0000
0000
0001
0000
1100
0000
1000
0100
0010
0000
0001
0000
0100
0000
0100
0000
,
0001
0000
0001
0000
0021
0000
0000
0130
1000
0000
0001
0000
0100
0000
1000
0000
,
0100
0000
0001
0000
1000
0000
0001
0010
0100
0000
0010
0000
0001
0000
0001
0000
,
1000
0000
1000
0000
1020
0000
0000
0130
0001
0000
0010
0000
0001
0000
0100
0000
,
1000
0000
1100
0000
0102
0000
0013
0100
1000
0000
0100
0000
2100
0000
3010
0000
,
0102
0000
0013
0000
0100
0000
0010
0001
0100
0000
0010
0000
2100
0000
3010
0000
,
0012
0000
1003
0000
0001
0000
0100
0010
1000
0000
0100
0000
0021
0000
0130
0000
,
2100
0000
3010
0000
0100
0000
0010
1000
0001
0000
0010
0000
2001
0000
3010
0000
,
1002
0000
0013
0000
1001
0000
0000
1000
0100
0000
0000
0100
0010
0000
0000
0010
,
0001
0000
0100
0000
0110
0000
0000
0010
1000
0000
0000
0001
0100
0000
0000
0001
,
0010
0000
0100
0000
0010
0000
0000
0100
0010
0000
0000
0010
0001
0000
0000
0001
,
1000
0000
0010
0000
0110
0000
0000
0100
0001
0000
0000
0010
0100
0000
0000
0010
,
0001
0000
1000
0000
0001
0000
1000
0100
0001
0000
0100
0000
1000
0000
0010
0000
,
0100
0000
0001
0000
1000
0000
0001
0010
1000
0000
0010
0000
0001
0000
0010
0000
,
0100
0000
1000
0000
0001
0000
1000
0100
0001
0000
0100
0000
1000
0000
0001
0000
,
1000
0000
0100
0000
1100
0000
1000
0001
1001
0000
0001
1000
1001
0000
1000
0001
,
1001
0000
1010
0000
0001
0100
0001
0100
0001
0100
0001
0100
0001
0100
0001
0100
,
0001
0100
0001
0000
1000
0010
1000
0010
1000
0010
1000
0010
1000
0010
1000
0010
,
1000
0010
1000
0000
0001
0100
0010
1000
0001
0100
0010
1000
0001
0010
0100
1000
,
0001
0010
0100
1000
0020
0000
0000
0000
0000
0000
0000
0000
0000
0000
0000
0000
,
0000
0030
0000
0000
;

//---------------dance-single - ----------------
#NOTEDATA:;
#CHARTNAME:;
#STEPSTYPE:dance-single;
#DESCRIPTION:;
#CHARTSTYLE:;
#DIFFICULTY:Medium;
#METER:11;
#RADARVALUES:0.435860,0.496811,0.510204,0.214286,0.010204,299.000000,249.000000,50.000000,21.000000,0.000000,0.000000,0.000000,0.000000,0.000000,0.435860,0.496811,0.510204,0.214286,0.010204,299.000000,249.000000,50.000000,21.000000,0.000000,0.000000,0.000000,0.000000,0.000000;
#CREDIT:Pandemonium X;
#NOTES:
0000
0000
0000
0000
,
0000
0000
0000
0000
,
0000
0000
0000
0000
,
0000
0000
0000
0000
,
0000
0000
0000
0000
,
1010
0101
1001
0000
,
1100
0012
0100
1003
,
0101
1100
1001
0000
,
0010
1000
0010
0100
0001
1000
0010
0100
,
1001
0000
1100
0000
0100
1000
1010
0000
,
0010
0000
0110
0000
0100
0001
0011
0010
,
0100
0000
0110
0000
0010
0001
0101
0000
,
0001
0000
1001
0000
1000
0001
0101
1000
,
1001
0000
0101
0000
0001
0010
0110
0010
,
0001
0000
1100
0000
0100
1000
1010
0100
,
0001
0000
1010
0000
1000
0001
1001
0001
,
0010
0000
1001
0000
0001
0010
1001
0001
,
1000
0002
0000
1003
0200
0000
0310
0000
,
0100
1000
1000
0100
0010
0000
0100
0000
,
0010
0001
0200
0000
0310
1000
0200
0000
,
1300
0001
0001
1000
0001
0000
0100
0100
,
1001
1010
2001
3200
,
0310
0001
0002
1000
1000
0000
0103
0000
,
1001
0010
0100
0000
1001
0010
0100
0000
,
0001
0100
1000
0100
0001
0000
1000
1000
,
1001
0000
0020
0000
,
1030
0000
0000
0001
0000
0000
0010
0000
0002
0000
0000
0000
0000
0000
0000
0000
0000
0000
0000
0000
0000
0000
0000
0000
0000
0000
0000
0000
0023
0000
0000
0000
,
0000
0000
0130
1000
0100
1000
0100
1000
,
0100
0000
0010
0001
0010
0001
0010
0001
,
0010
0000
1000
0100
0010
0001
1000
0100
,
0010
0001
1001
0000
0000
0000
0000
0000
,
0000
0002
0100
0010
,
1003
2000
0100
0010
,
3001
0002
0100
0010
,
1003
2000
0100
0010
,
3001
1000
1001
0000
0011
0000
0010
0001
,
0101
0100
0010
0000
1010
0000
1000
1000
,
1001
0001
0010
0000
1100
0000
0100
0010
,
0011
0001
0100
0000
1010
0000
0100
0001
,
0011
0010
0200
0000
1000
0000
0001
0000
,
1300
0020
0001
1000
,
0031
0200
1000
0001
,
1300
0020
0001
1000
,
0031
0000
0100
0010
1000
0001
0010
0010
,
0110
0000
0010
0001
0100
0010
1000
1000
,
1100
0100
1000
0100
0010
0100
1000
1000
,
1001
0101
1010
1100
,
0011
0000
1000
1000
0001
0100
0010
0010
,
1000
0100
0010
0010
0100
1000
1000
0100
,
0010
0001
1000
0001
0100
0010
1000
0001
,
0100
0010
2002
0000
0000
0000
0000
0000
,
0000
3003
0000
0000
;

//---------------dance-single - ----------------
#NOTEDATA:;
#CHARTNAME:;
#STEPSTYPE:dance-single;
#DESCRIPTION:;
#CHARTSTYLE:;
#DIFFICULTY:Easy;
#METER:7;
#RADARVALUES:0.346939,0.418367,0.510204,0.153061,0.000000,238.000000,188.000000,50.000000,15.000000,0.000000,0.000000,0.000000,0.000000,0.000000,0.346939,0.418367,0.510204,0.153061,0.000000,238.000000,188.000000,50.000000,15.000000,0.000000,0.000000,0.000000,0.000000,0.000000;
#CREDIT:Pandemonium X;
#NOTES:
// measure 0
0000
0000
0000
0000
,  // measure 1
0000
0000
0000
0000
,  // measure 2
0000
0000
0000
0000
,  // measure 3
0000
0000
0000
0000
,  // measure 4
0000
0000
0000
0000
,  // measure 5
1000
0001
0100
0000
,  // measure 6
0001
0020
0100
0000
,  // measure 7
0031
0010
0100
0000
,  // measure 8
0001
1000
0001
1000
0001
0000
0000
0001
,  // measure 9
1000
0011
0001
0101
,  // measure 10
0100
0110
0010
1010
,  // measure 11
1000
1100
0100
0110
,  // measure 12
0010
0000
0011
0000
0001
0000
1001
0001
,  // measure 13
1000
1010
0010
0110
,  // measure 14
0100
0101
0001
0011
,  // measure 15
0010
0110
0100
1100
,  // measure 16
1000
1001
1001
0110
,  // measure 17
0001
0100
0000
0001
2000
0000
3001
0000
,  // measure 18
1000
0001
1000
0000
,  // measure 19
0001
1000
0010
0000
1000
0001
0010
0000
,  // measure 20
0100
1000
0010
0000
,  // measure 21
0100
0010
1010
0011
,  // measure 22
0010
0010
0010
0000
,  // measure 23
0001
1000
0001
0000
0001
1000
0001
0000
,  // measure 24
1000
0001
0100
0010
,  // measure 25
1001
0000
2000
0000
,  // measure 26
3002
0000
0203
0000
0000
0000
0000
0320
,  // measure 27
0000
0030
1010
0000
0101
0000
0110
0000
,  // measure 28
0000
1010
1100
0110
,  // measure 29
0000
0011
1100
0101
,  // measure 30
1010
1001
0000
0000
,  // measure 31
0000
0001
0100
0000
0001
0000
0010
0000
,  // measure 32
0010
0002
1003
0100
,  // measure 33
0100
0010
0100
1000
,  // measure 34
1000
0020
0130
0010
,  // measure 35
1000
0001
1000
0000
0101
0000
0001
0000
,  // measure 36
1001
2000
3100
0010
,  // measure 37
0011
0002
0103
0010
,  // measure 38
1010
2000
3001
0010
,  // measure 39
0110
1100
0011
1100
,  // measure 40
0001
0101
1010
0101
,  // measure 41
1000
1001
0110
1001
,  // measure 42
0001
1010
1100
1010
,  // measure 43
1000
0000
0002
0000
0013
0000
0100
1000
,  // measure 44
0100
0000
2000
0000
3010
0000
0100
0010
,  // measure 45
0100
0000
0020
0000
1030
0000
0001
1000
,  // measure 46
0001
1001
0010
1001
,  // measure 47
0100
0000
0001
0100
0001
0000
1000
0100
,  // measure 48
1000
0000
0001
0010
0001
0000
1000
0010
,  // measure 49
1000
0000
0001
0010
0100
1000
0001
0010
,  // measure 50
0100
1000
0020
0000
0000
0000
0000
0000
,  // measure 51
0000
0030
0000
0000
;

//---------------dance-single - ----------------
#NOTEDATA:;
#CHARTNAME:;
#STEPSTYPE:dance-single;
#DESCRIPTION:;
#CHARTSTYLE:;
#DIFFICULTY:Beginner;
#METER:5;
#RADARVALUES:0.185131,0.358929,0.255102,0.091837,0.000000,127.000000,102.000000,25.000000,9.000000,0.000000,0.000000,0.000000,0.000000,0.000000,0.185131,0.358929,0.255102,0.091837,0.000000,127.000000,102.000000,25.000000,9.000000,0.000000,0.000000,0.000000,0.000000,0.000000;
#CREDIT:Pandemonium X;
#NOTES:
// measure 0
0000
0000
0000
0000
,  // measure 1
0000
0000
0000
0000
,  // measure 2
0000
0000
0000
0000
,  // measure 3
0000
0000
0000
0000
,  // measure 4
0000
0000
0000
0000
,  // measure 5
1000
0000
0000
0000
,  // measure 6
0001
0020
0000
0030
,  // measure 7
0100
0000
0000
0010
,  // measure 8
0002
0000
0000
0000
,  // measure 9
1003
0001
0000
0010
,  // measure 10
0000
0001
0000
1000
,  // measure 11
0000
0100
0000
1000
,  // measure 12
0000
0010
0000
0100
,  // measure 13
0010
1000
0000
0001
,  // measure 14
0000
0010
0000
0001
,  // measure 15
0000
1000
0000
0100
,  // measure 16
0000
1000
0000
0010
,  // measure 17
0200
0000
0000
0300
,  // measure 18
0020
0000
0030
0000
,  // measure 19
2000
0000
0000
3000
,  // measure 20
0002
0000
0003
0000
,  // measure 21
1000
0000
0001
0000
,  // measure 22
0020
0000
0030
0000
,  // measure 23
0110
0000
0110
0000
,  // measure 24
1000
0001
1000
0000
,  // measure 25
0110
0000
2000
0000
,  // measure 26
3000
0002
0000
0003
,  // measure 27
0000
0100
0000
0010
,  // measure 28
0000
0100
0000
0010
,  // measure 29
0000
0100
0010
0100
,  // measure 30
0010
1001
0000
0000
,  // measure 31
0000
1000
0000
0001
,  // measure 32
0000
0010
0000
0001
,  // measure 33
0000
1000
0000
0100
,  // measure 34
0000
1000
0000
0010
,  // measure 35
0000
1000
0001
0010
,  // measure 36
0000
0100
1000
0010
,  // measure 37
0000
0100
0010
1000
,  // measure 38
0000
0001
1000
0100
,  // measure 39
0000
0110
0110
0110
,  // measure 40
0000
1001
1001
1001
,  // measure 41
0000
0110
0110
0110
,  // measure 42
0000
1001
1001
1001
,  // measure 43
0000
0001
0000
1000
,  // measure 44
0001
0010
0000
0100
,  // measure 45
0010
0001
0000
0010
,  // measure 46
0001
1000
0001
0100
,  // measure 47
0010
1001
0000
0110
,  // measure 48
0000
1001
0000
0110
,  // measure 49
0000
1001
0110
1001
,  // measure 50
0110
1001
0000
0000
;
