#TITLE:tripping contact;
#SUBTITLE:;
#ARTIST:kors k vs teranoid;
#TITLETRANSLIT:;
#SUBTITLETRANSLIT:;
#ARTISTTRANSLIT:;
#GENRE:;
#CREDIT:;
#BANNER:tripping contact.png;
#BACKGROUND:;
#LYRICSPATH:;
#CDTITLE:;
#MUSIC:tripping contact.ogg;
#OFFSET:-0.013000;
#SAMPLESTART:9.243769;
#SAMPLELENGTH:11.868134;
#SELECTABLE:YES;
#BPMS:0.000000=182.000000
,256.000000=91.000000
,264.000000=182.000000
;
#STOPS:
;
#BGCHANGES:;
#KEYSOUNDS:;
#ATTACKS:;

//---------------dance-single - ----------------
#NOTES:
     dance-single:
     :
     Hard:
     15:
     0.679540,0.957984,0.218344,0.109172,0.506870,610.000000,582.000000,28.000000,14.000000,0.000000,0.000000,0.679540,0.957984,0.218344,0.109172,0.506870,610.000000,582.000000,28.000000,14.000000,0.000000,0.000000:
0000
0000
0000
0000
,
0000
0000
0000
0000
,
0000
0000
0000
0000
,
0000
0000
0000
0000
,
1000
0001
0100
0001
0010
0001
1000
0100
,
1000
0001
1000
0010
1000
0001
0010
0001
,
1000
0000
0010
1000
0010
0000
0100
0001
0100
0000
0010
1000
0010
0000
0100
0001
,
0020
0000
0000
0000
0100
0100
0000
0130
,
1000
0001
0000
1010
0000
0100
0001
0010
,
1000
0010
0000
1100
0000
1000
0010
0001
,
0010
0100
0000
0011
0000
0001
0100
1000
,
0100
0010
0000
0101
0000
0001
1000
0100
,
0010
0100
0000
1001
0000
0001
0100
1000
,
0100
0010
0000
1010
0000
1000
0010
0100
,
0001
1000
0001
1000
0010
0100
0010
0100
,
0001
1000
0001
1000
0001
1000
0001
1000
0001
1000
0002
0003
0000
0000
0002
0003
,
0100
0010
0000
0000
0100
0000
0000
0001
,
0000
0000
1000
0000
0000
0001
0000
0000
,
1000
0000
0000
0100
0000
0000
1000
0000
,
0000
0001
0000
0000
0010
0000
0001
0000
,
0100
0000
0000
0010
0000
0000
1000
0000
,
0000
0100
0000
0000
1000
0000
0000
0001
,
0000
0000
0010
0000
0000
0001
0000
0000
,
1000
0000
0000
1000
0000
0000
1000
0000
0000
1000
0000
0000
0001
0000
1000
0000
,
0100
0000
0100
0000
0010
0000
0001
1000
0001
0000
0100
0000
0000
0000
0010
1000
,
0010
0000
0010
0000
1000
0000
0100
1000
0000
1000
0001
0000
0100
0000
0001
0000
,
0010
0000
0010
0000
0100
0000
1000
0000
0000
0001
0010
0000
0010
0000
0000
0000
,
0100
0100
1100
0000
1000
0100
0010
0000
,
0001
0000
0001
0000
1000
0000
0000
0010
1000
0000
0001
0000
0000
0000
0010
0100
,
1000
0000
1000
0000
0001
0000
1000
0010
0000
0100
0001
0000
0010
0000
0100
0000
,
1000
0100
0010
0001
0010
0100
1000
0010
,
0100
0001
0100
0001
0100
0001
0100
0001
0100
0001
0100
0001
0020
0000
0000
0000
,
0130
0000
1000
0000
,
0010
0000
0100
0000
,
0110
0110
0001
0000
,
0100
0000
0010
0000
,
1001
0000
0001
0000
,
1000
0000
0000
0000
0010
0000
0000
1000
,
1001
1001
0001
0000
,
1000
0000
0010
0000
,
0110
0000
1000
0000
,
0110
0000
0001
0000
,
0110
0000
1000
0000
,
0110
0000
0000
0000
0000
0000
0000
0000
1001
0000
0000
0000
0000
0000
1000
0001
,
0100
0100
0010
0010
1000
1000
0100
0100
,
0010
0010
0001
0001
1000
1000
0001
0001
,
0100
0010
0100
0010
0100
0010
0100
0010
0100
0010
0100
0010
0100
0010
0100
0010
,
1000
0000
0000
0000
0000
0000
0000
0000
0000
0000
0001
0000
0010
0000
0000
0100
,
1000
0000
0001
0000
0100
0000
0000
0001
0000
0000
0010
0000
0100
0000
0000
1000
,
0000
0000
0100
0000
1000
0000
0000
0010
0000
0000
0100
0000
0001
0000
0000
1000
,
0000
0000
0100
0000
1000
0000
0000
0010
0000
0000
0100
0000
0001
0000
0000
0010
,
0000
0000
0100
0000
0010
0000
0000
0001
0000
0000
1000
0000
0001
0000
0000
0100
,
0000
0000
0010
0000
1000
0000
0000
0001
0000
0000
0010
0000
0100
0000
0000
1000
,
0000
0000
0100
0000
1000
0000
0000
0010
0000
0000
1000
0000
0001
0000
0000
0010
,
0000
0000
0100
0000
1000
0000
0000
0001
0000
0000
0100
0000
0001
0000
0000
0010
,
0000
0000
0100
0000
0010
0000
0000
0001
0000
0000
1000
0000
0001
0000
0000
0100
,
0010
1000
0001
0010
0000
0100
1000
0001
,
0000
0100
0010
1000
0000
0001
0100
1000
,
0000
0100
0010
1000
0000
0010
0100
0001
,
0000
0010
0100
1000
0000
0100
1000
0001
,
1000
0000
0001
0000
,
0100
0000
0000
0000
0010
0100
0000
0100
,
0001
0000
1001
0000
,
1000
0010
1000
0000
0001
0100
0001
0000
0010
0100
1000
0000
0100
0010
0001
0000
,
0120
0000
0000
0000
0000
0030
0000
1002
0000
0000
0000
0003
0000
0000
0210
0000
,
0300
0000
0000
2001
0000
0000
3000
0000
0010
0000
1002
0000
0003
0000
0210
0000
0300
0000
2001
0000
3000
0000
0120
0000
0030
0000
1002
0000
0003
0000
2000
0000
,
3010
1000
0010
1000
0001
0100
0001
0100
,
0001
0010
0001
0010
0100
0100
0010
0100
,
1000
0100
1000
0100
0010
0001
0010
0001
,
0010
0000
0100
0000
1000
0000
0001
0000
1000
0000
1000
0010
0000
0010
0100
0010
,
1000
0001
1000
0001
0100
0010
0100
0010
,
1000
0100
0010
0001
1000
0100
0010
0000
0100
1000
0010
1000
,
0100
1000
0100
1000
0001
0010
0001
0010
,
0001
0000
1000
0000
0001
0000
1000
0000
0001
1000
0001
1000
0010
0100
0010
0100
,
0001
1000
0001
0000
0100
0010
0100
0000
0010
1000
0010
0000
0100
0001
0100
0000
,
0001
0010
0001
0000
1000
0100
1000
0000
0001
0000
0001
0000
1000
0000
1000
0000
,
0001
0010
0001
0000
1000
0100
1000
0000
0010
1000
0010
0000
0100
0010
0100
0000
,
0001
1000
0001
0000
0100
0010
0100
0000
0001
0000
1000
0010
0000
0010
0100
0001
,
1000
0010
1000
0000
0010
0100
0010
0000
0100
0001
0100
0000
0010
0100
0010
0000
,
0100
0001
1000
0100
0010
0100
1000
0000
0001
0010
0100
1000
,
0001
0000
1000
0010
0100
0000
0001
0010
0100
0000
0010
0001
1000
0000
0010
1000
,
0100
0000
0010
0000
0001
0000
0100
0000
0010
1000
0010
1000
0001
0100
0001
0100
,
0010
0000
0000
0000
0000
0000
0000
0000
0000
0100
0000
0000
0001
0000
0000
1000
,
0001
0000
0010
0000
0100
0000
0000
0010
0000
0000
0001
0000
0100
0000
0000
0010
,
0000
0000
1000
0000
0100
0000
0000
0010
0000
0000
0100
0000
1000
0000
0000
0001
,
0000
0000
1000
0000
0010
0000
0000
1000
0000
0000
0001
0000
0010
0000
0000
0100
,
0000
0000
0010
0000
0001
0000
0000
0100
0000
0000
0010
0000
0100
0000
0000
0001
,
1000
0000
0100
0000
0010
0000
0000
0100
0000
0000
1000
0000
0010
0000
0000
0100
,
0000
0000
0010
0000
1000
0000
0000
0001
0000
0000
0010
0000
0001
0000
0000
0100
,
0010
1000
0001
0010
0100
1000
0001
0100
,
0001
1000
0001
0000
0100
0001
0100
0000
0010
1000
0100
0000
0010
0001
0100
0000
,
1001
0000
0000
0000
;

//---------------dance-single - ----------------
#NOTES:
     dance-single:
     :
     Medium:
     12:
     0.493502,0.816061,0.374304,0.085778,0.155960,443.000000,395.000000,48.000000,11.000000,0.000000,0.000000,0.493502,0.816061,0.374304,0.085778,0.155960,443.000000,395.000000,48.000000,11.000000,0.000000,0.000000:
0000
0000
0000
0000
,
0000
0000
0000
0000
,
0000
0000
0000
0000
,
0000
0000
0000
0000
,
1001
0001
0010
0100
,
1001
1000
0100
0010
,
0001
0100
0010
1000
0001
0100
0010
1000
,
0002
0000
0003
0000
,
1000
0100
0000
1100
0000
0000
0100
0000
,
1000
0010
0000
0110
0000
0000
0100
0000
,
0001
0010
0000
0110
0000
0000
0010
0000
,
0001
0100
0000
0110
0000
0000
0010
0100
,
0001
1000
0000
1100
0000
0000
0100
1000
,
0010
0100
0000
0110
0000
0000
0010
0100
,
0001
1000
0000
1100
0000
0000
1000
0100
,
0010
0001
0000
0011
0000
0001
0010
0100
,
1000
0000
0000
0000
,
0000
0000
0000
0000
,
0010
0000
0000
0000
,
0000
0000
0001
0000
,
1000
0000
0000
0000
,
0000
0000
0000
0000
,
0010
0000
0000
0000
,
0100
0000
0000
0100
0000
0000
0100
0000
,
0010
1000
0010
0000
1000
0000
0001
0000
,
0010
1000
0010
0001
,
1000
0100
1000
0000
0100
0000
0001
0000
,
0100
0000
0010
0000
0001
0010
0100
0000
,
0100
0010
0001
0000
0010
0000
1000
0000
,
0010
0001
0100
1000
,
0100
0010
1000
0000
0100
0010
0100
0000
,
0010
0100
0001
0000
0100
0010
0100
0000
,
1001
0000
0010
0000
,
1000
0000
0001
0000
,
1010
1010
0001
0000
,
0010
0000
0001
0000
,
0101
0000
0001
0000
,
1000
0000
0000
0000
0100
0000
0000
0010
,
0011
0011
0001
0000
,
1000
0000
0001
0000
,
0101
0000
0000
0000
,
1100
0000
0000
0000
,
1010
0000
0000
0000
,
0011
0000
1100
0000
,
1001
1001
0110
0110
,
1010
1010
0011
0011
,
0001
0010
0100
1000
0001
0010
0100
1000
,
0020
0000
0030
0000
,
0100
0000
0001
0000
0100
0010
1000
0000
,
0100
0000
0010
0000
0100
1000
0010
0000
,
0100
0000
0001
0000
1000
0100
0010
0000
,
0100
0000
1000
0000
0010
0100
0010
1000
,
0001
0000
0010
0000
0100
0010
0001
0000
,
0100
0000
0001
0000
1000
0001
0010
0000
,
0100
0000
0010
0000
0001
0100
0010
0000
,
0100
0000
0010
0000
0100
0010
2000
0000
,
3100
1000
0100
0000
0100
1000
0100
0000
,
0100
1000
0100
0000
1000
0000
1100
0000
,
0001
0100
0001
0000
0001
0100
0001
0000
,
0001
0100
0001
0000
0100
0000
0101
0000
,
1001
0000
0010
0000
,
0100
0000
0000
0000
0010
1000
0000
1000
,
1001
0000
0011
0000
,
1001
1010
0101
1010
,
1002
0000
0000
0000
0000
0000
0000
1000
0000
0000
0000
0000
0000
0000
1000
0000
,
0000
0000
0000
1000
0000
0000
0000
0000
1003
0000
1001
0000
0000
0000
0110
0000
0000
0000
1001
0000
0000
0000
0110
0000
0000
0000
1001
0000
0000
0000
0010
0000
,
1000
0001
1000
0001
1000
0001
1000
0001
,
1000
0001
1000
0001
0200
0000
0000
0000
,
0310
1000
0010
1000
0010
1000
0010
1000
,
0010
1000
0010
1000
0020
0000
0000
0000
,
0130
0001
0100
0001
0100
0001
0100
0001
,
0100
0001
0100
0001
0100
0001
0100
0000
0010
1000
0000
1000
,
0100
0010
0100
0010
0100
0010
0100
0010
,
0100
0010
0100
0010
0002
0000
0000
0000
,
0103
0000
0000
0010
1000
0000
0000
1000
0001
0000
0000
0001
0010
0000
0000
0010
,
0100
0000
0000
0100
1000
0000
0000
0001
0200
0000
0000
0000
0000
0000
0000
0000
,
0310
0000
0000
1000
0010
0000
0000
0010
0100
0000
0000
0100
0001
0000
0000
0001
,
0010
0000
0000
0010
0001
0000
0000
0001
2000
0000
0000
0000
0000
0000
0000
0000
,
3010
0000
0000
1000
0010
0000
0000
0010
0100
0000
0000
0100
0001
0000
0000
0001
,
0010
0100
0010
0100
0010
0100
0010
0000
0100
1000
0000
0100
,
0010
0000
0000
0100
0010
0000
0000
0010
0001
0000
0000
0001
0100
0000
0000
0100
,
0010
1000
0001
0010
2000
0000
3000
0000
,
0201
0000
0000
0000
,
0310
1000
0001
0000
0001
0010
0100
0000
,
0100
1000
0010
0000
0100
0000
0110
0000
,
0010
1000
0001
0000
0001
0010
0100
0000
,
0100
1000
0010
0000
0100
0000
0101
0000
,
0001
1000
0010
0000
0010
0100
0001
0000
,
0001
0010
0100
0000
0100
0010
0001
1000
,
0010
1000
0100
0000
0100
1000
0001
0000
,
0100
0001
0010
0100
1000
0100
0010
0001
,
1001
0000
0000
0000
;

//---------------dance-single - ----------------
#NOTES:
     dance-single:
     :
     Easy:
     8:
     0.364278,0.638656,0.397698,0.054586,0.000000,327.000000,276.000000,51.000000,7.000000,0.000000,0.000000,0.364278,0.638656,0.397698,0.054586,0.000000,327.000000,276.000000,51.000000,7.000000,0.000000,0.000000:
0000
0000
0000
0000
,
0000
0000
0000
0000
,
0000
0000
0000
0000
,
0000
0000
0000
0000
,
1000
1000
0100
0100
,
0010
0010
0001
0001
,
1000
0001
0100
0010
,
2002
0000
3003
0000
,
0001
0000
0000
1010
0000
0000
1000
0000
,
0100
0000
0000
0011
0000
0000
0001
0000
,
0100
0000
0000
0110
0000
0000
0010
0000
,
1000
0000
0000
1100
0000
0000
0100
0000
,
1000
0000
0000
0011
0000
0000
0001
0000
,
0100
0000
0000
1010
0000
0000
0010
0000
,
0100
0000
0000
1001
0000
0000
0001
0000
,
0010
0000
0000
1100
0000
0000
0100
0000
,
0010
0000
0000
0000
,
0000
0000
0000
0000
,
0100
0000
0000
0000
,
0000
0000
1000
0000
,
0010
0000
0000
0000
,
0000
0000
0000
0000
,
0100
0000
0000
0000
,
0020
0000
0000
0000
,
1030
0001
0010
0001
,
1000
0000
0100
0000
0010
0001
0010
0000
,
0001
0100
0010
1000
,
0001
0000
0010
0000
0100
1000
0100
0000
,
1000
0010
1000
0001
,
0010
0000
0100
0000
1000
0001
1000
0000
,
0001
1000
0010
1000
,
0001
0010
0100
2100
,
3010
0000
0000
0000
,
0000
0000
0000
0000
,
0110
0110
0000
0000
,
0000
0000
0000
0000
,
1001
0000
0000
0000
,
0000
0000
0000
0000
0000
0000
0000
0100
,
0110
0110
0000
0000
,
0000
0000
0000
0000
,
1001
0000
0000
0000
,
1010
0000
0000
0000
,
1001
0000
0000
0000
,
0011
0000
1001
0000
,
1010
1010
0101
0101
,
0011
0011
1100
1100
,
1001
0110
1001
0110
,
2002
0000
0000
3003
,
0001
0100
0010
1000
,
0100
0010
0001
0010
,
1000
0010
0100
1000
,
0010
0100
0001
0100
,
1000
0100
0010
1000
,
0001
0010
1000
0010
,
0001
0010
1000
0001
,
0100
0010
1000
0001
,
0010
0100
0010
0001
,
0100
0010
1000
0001
,
1000
0100
1000
0010
,
0100
0001
0010
0100
,
0110
0000
0100
0000
,
1000
0000
0000
0000
0001
1000
0000
1000
,
1001
0000
0110
0000
,
1001
0110
1001
0110
,
1001
0000
0000
0000
,
0000
0000
0000
0000
,
1000
1000
1000
1000
,
1000
0000
1000
0000
1000
0100
0010
0001
,
0010
0010
0010
0010
,
0010
0000
0010
0000
0010
0100
1000
0010
,
0100
0100
0100
0100
,
0110
0110
0110
0000
,
0010
0010
0010
0010
,
0010
0000
0010
0000
0010
0100
0001
1000
,
0100
0100
0010
0010
,
0001
0000
0001
0000
1000
0100
0010
0001
,
0010
0010
0001
0001
,
1000
0000
1000
0000
0001
0100
0010
1000
,
0001
0001
1000
1000
,
0110
1001
0110
0000
,
1000
1000
0001
0001
,
1000
0000
1000
0000
0001
0010
0100
1000
,
0020
0000
0000
0030
,
0100
0010
1000
0010
,
0001
0010
1000
0100
,
0001
0100
1000
0010
,
1000
0001
0010
0100
,
0010
0001
0100
0010
,
1000
0001
0010
0100
,
1001
0110
1001
0110
,
1000
0100
0010
0001
1000
0100
0010
0001
,
1000
0000
0000
0000
;

//---------------dance-single - ----------------
#NOTES:
     dance-single:
     :
     Beginner:
     5:
     0.170442,0.354809,0.077980,0.062384,0.000000,153.000000,143.000000,10.000000,8.000000,0.000000,0.000000,0.170442,0.354809,0.077980,0.062384,0.000000,153.000000,143.000000,10.000000,8.000000,0.000000,0.000000:
// measure 0
0000
0000
0000
0000
,  // measure 1
0000
0000
0000
0000
,  // measure 2
0000
0000
0000
0000
,  // measure 3
0000
0000
0000
0000
,  // measure 4
1000
0000
0000
0000
,  // measure 5
0100
0000
0000
0000
,  // measure 6
0010
0000
0001
0000
,  // measure 7
1001
0000
0000
0000
,  // measure 8
0010
0000
0000
0000
,  // measure 9
1000
0000
0000
0000
,  // measure 10
0100
0000
0000
0000
,  // measure 11
1000
0000
0000
0000
,  // measure 12
0001
0000
0000
0000
,  // measure 13
0010
0000
0000
0000
,  // measure 14
0001
0000
0000
0000
,  // measure 15
1000
0001
0100
0010
,  // measure 16
1001
0000
0000
0000
,  // measure 17
0000
0000
0000
0000
,  // measure 18
0000
0000
0000
0000
,  // measure 19
0000
0000
0000
0000
,  // measure 20
0000
0000
0000
0000
,  // measure 21
0000
0000
0000
0000
,  // measure 22
0000
0000
0000
0000
,  // measure 23
0010
0000
0000
0000
,  // measure 24
0010
0000
0010
0000
,  // measure 25
0100
0000
0000
0000
,  // measure 26
0001
0000
0001
0000
,  // measure 27
1000
0000
0000
0000
,  // measure 28
0100
0000
0100
0000
,  // measure 29
0010
0000
0000
0000
,  // measure 30
0001
0000
0001
0000
,  // measure 31
1000
0000
0000
0010
,  // measure 32
1001
0000
0000
0000
,  // measure 33
0000
0000
0000
0000
,  // measure 34
1000
1000
0000
0000
,  // measure 35
0000
0000
0000
0000
,  // measure 36
0110
0000
0000
0000
,  // measure 37
0000
0000
0000
0000
,  // measure 38
0001
0001
0000
0000
,  // measure 39
0000
0000
0000
0000
,  // measure 40
1000
0000
0000
0000
,  // measure 41
0001
0000
0000
0000
,  // measure 42
1000
0000
0000
0000
,  // measure 43
0001
0000
1000
0000
,  // measure 44
0001
1000
0001
1000
,  // measure 45
0001
1000
0001
1000
,  // measure 46
0001
0001
0001
0001
,  // measure 47
1001
0000
0000
0000
,  // measure 48
0010
0000
0010
0000
,  // measure 49
0010
0000
0010
0000
,  // measure 50
0100
0000
0100
0000
,  // measure 51
0100
0000
0100
0000
,  // measure 52
0001
0000
0001
0000
,  // measure 53
0001
0000
0001
0000
,  // measure 54
1000
0000
1000
0000
,  // measure 55
1000
0000
1000
0000
,  // measure 56
0010
0000
0010
0000
,  // measure 57
0010
0000
0010
0000
,  // measure 58
0100
0000
0100
0000
,  // measure 59
0100
0000
0100
0000
,  // measure 60
1001
0000
0000
0000
,  // measure 61
0000
0000
0010
0000
,  // measure 62
0100
0000
0010
0000
,  // measure 63
0100
0010
1000
0001
,  // measure 64
1001
0000
0000
0000
,  // measure 65
0000
0000
0000
0000
,  // measure 66
1000
0000
1000
0000
,  // measure 67
1000
0000
2000
3000
,  // measure 68
0001
0000
0001
0000
,  // measure 69
0001
0000
0002
0003
,  // measure 70
0100
0000
0100
0000
,  // measure 71
0100
0100
0200
0300
,  // measure 72
0010
0000
0010
0000
,  // measure 73
0010
0000
0020
0030
,  // measure 74
1000
0000
0010
0000
,  // measure 75
0100
0000
0002
0003
,  // measure 76
1000
0000
0100
0000
,  // measure 77
0010
0000
0200
0300
,  // measure 78
0010
0000
0001
0000
,  // measure 79
1000
1000
0002
0003
,  // measure 80
1000
0000
0001
0000
,  // measure 81
0100
0010
2000
3000
,  // measure 82
0110
0000
0000
0000
,  // measure 83
1001
0000
1000
0000
,  // measure 84
1000
0000
1000
0000
,  // measure 85
0001
0000
0001
0000
,  // measure 86
0001
0000
0001
0000
,  // measure 87
0010
0000
0010
0000
,  // measure 88
0010
0000
0010
0000
,  // measure 89
0100
0000
0010
0000
,  // measure 90
0001
1000
0010
0100
,  // measure 91
1001
0000
0000
0000
;
