#TITLE:sync;
#SUBTITLE:;
#ARTIST:OutPhase (TaQ/dj TAKA);
#TITLETRANSLIT:;
#SUBTITLETRANSLIT:;
#ARTISTTRANSLIT:;
#GENRE:;
#CREDIT:;
#BANNER:sync.png;
#BACKGROUND:sync-bg.png;
#LYRICSPATH:;
#CDTITLE:;
#MUSIC:sync.ogg;
#OFFSET:0.003000;
#SAMPLESTART:68.987045;
#SAMPLELENGTH:22.994011;
#SELECTABLE:YES;
#BPMS:0.000000=167.000000
;
#STOPS:
;
#BGCHANGES:0.000=sync.avi=1.000=1=0=1===CrossFade==,
99999=-nosongbg-=1.000=0=0=0 // don't automatically add -songbackground-
;
#KEYSOUNDS:;
#ATTACKS:;

//---------------dance-single - ----------------
#NOTES:
     dance-single:
     :
     Hard:
     14:
     0.574072,0.821781,0.049307,0.262970,0.361583,489.000000,483.000000,6.000000,32.000000,0.000000,0.000000,0.574072,0.821781,0.049307,0.262970,0.361583,489.000000,483.000000,6.000000,32.000000,0.000000,0.000000:
// measure 0
0000
0000
0000
0000
,  // measure 1
0000
0000
0000
0000
,  // measure 2
0000
0000
0000
0000
,  // measure 3
0000
0000
0000
0000
,  // measure 4
0000
0000
0000
0000
,  // measure 5
0000
0000
0000
0000
,  // measure 6
0000
0000
0000
0000
,  // measure 7
0000
0000
0000
0000
,  // measure 8
0001
0100
0001
1000
,  // measure 9
0100
0010
0100
1000
,  // measure 10
0010
0100
0010
1000
,  // measure 11
0001
0000
0010
0000
0001
0000
1000
1000
,  // measure 12
0100
0010
0001
0100
,  // measure 13
0010
0000
1000
0000
0100
0010
0001
0000
,  // measure 14
1000
0000
0001
0000
0100
0000
0010
1000
,  // measure 15
1000
0000
0000
0000
,  // measure 16
0001
0000
1000
0001
1000
0000
0001
0000
1000
0000
0000
0000
0001
0000
1000
0010
,  // measure 17
0000
0000
1000
0001
1000
0000
0001
0000
1000
0000
0000
0000
0001
0000
0010
0001
,  // measure 18
0000
0000
1000
0001
1000
0000
0001
0000
1000
0000
0000
0000
0001
0000
1000
0100
,  // measure 19
0000
0000
1000
0001
1000
0000
0001
0000
1000
0000
0000
0000
0001
0000
0100
0001
,  // measure 20
0000
0000
1000
0100
1000
0000
0001
0000
0100
0000
0000
0000
0010
0000
1000
0001
,  // measure 21
0000
0000
0010
0100
0010
0000
0001
0000
1000
0000
0000
0000
0001
0000
0010
0100
,  // measure 22
0000
0000
0010
0001
0010
0000
0001
0000
1000
0000
0000
0000
0010
0000
0100
0001
,  // measure 23
0000
0000
1000
0010
0100
0000
0001
0000
0010
0000
0000
0000
0100
0000
0010
0001
,  // measure 24
1000
0100
0001
0100
1000
0010
1000
0100
,  // measure 25
1000
0010
0001
0010
1000
0010
1000
0001
,  // measure 26
1000
0100
0001
0100
1000
0010
1000
0001
,  // measure 27
1000
0010
0001
0010
1000
0010
1000
0010
,  // measure 28
0100
0000
0001
0000
0010
0000
0100
0000
2000
0000
0000
0000
3001
0010
0001
0010
,  // measure 29
0001
0000
1000
0000
0100
0000
0010
0000
0200
0000
0000
0000
1300
0010
1000
0010
,  // measure 30
1000
0000
0001
0000
0010
0000
0001
0000
2000
0000
0000
0000
3100
0010
0100
0010
,  // measure 31
0100
0000
0010
0000
0001
0000
1000
0000
0020
0000
0000
0000
0130
0010
0100
0010
,  // measure 32
0200
0000
0000
0000
0001
0000
0000
0301
0000
0000
0001
0000
1000
0000
0010
0000
,  // measure 33
0200
0000
0000
0000
0010
0000
0000
0010
0000
0000
0310
0000
1000
0000
0100
0000
,  // measure 34
0010
0010
0001
0100
0010
0010
0100
0001
,  // measure 35
0100
0100
0010
1000
0100
0100
0010
0001
,  // measure 36
2000
0000
0000
0000
0010
0000
0000
0001
0000
0000
3001
0000
0010
0000
0001
0000
,  // measure 37
0200
0000
0000
0000
0010
0000
0000
0001
0000
0000
0310
0000
0100
0000
0001
0000
,  // measure 38
1000
1000
0100
0010
0001
0001
0010
0100
,  // measure 39
0010
0010
0100
1000
0100
0100
0010
0001
,  // measure 40
1000
0000
0000
0001
0100
0000
0000
0000
0010
0000
1000
0000
1001
0000
0000
0000
,  // measure 41
0001
0000
0000
0010
0100
0000
0000
0000
0010
0000
0001
0000
0101
0000
0000
0000
,  // measure 42
0001
0001
0100
0010
1000
1000
0100
0001
,  // measure 43
0100
0100
0010
0100
1000
1000
0100
0010
,  // measure 44
0001
0000
0000
1000
0100
0000
0000
0000
0010
0000
0001
0000
0101
0000
0000
0000
,  // measure 45
0010
0000
0000
0100
0010
0000
0000
0000
0010
0000
1000
0000
1001
0000
0000
0000
,  // measure 46
0001
0001
0010
0100
1000
1000
0100
0001
,  // measure 47
0100
0100
1000
0010
0100
0100
0010
1000
,  // measure 48
0001
0000
1000
0000
0100
1000
0000
1000
0010
0000
0100
0000
0001
0000
0000
0000
,  // measure 49
1000
0000
0100
0000
1000
0010
0000
0100
0001
0000
0010
0000
0100
0000
0000
0000
,  // measure 50
1000
0001
1000
0000
0001
0100
0001
0000
1000
0010
1000
0000
0010
0100
0010
0000
,  // measure 51
0100
0001
0100
0000
0001
0010
0001
0100
0010
0100
0010
0000
0100
0000
0001
0000
,  // measure 52
1000
0000
0001
0000
0010
0100
0000
0010
0001
0000
1000
0000
0001
0000
0000
0000
,  // measure 53
1000
0000
0001
0000
0100
0010
0000
0100
0001
0000
0010
0000
0100
0000
0000
0000
,  // measure 54
1000
0100
1000
0000
0001
0100
0001
0000
1000
0010
1000
0000
0001
0010
0001
0000
,  // measure 55
0010
0100
0010
0000
0100
1000
0100
1000
0001
1000
0001
0000
0100
0000
0010
0000
,  // measure 56
1000
0100
0010
0000
0100
1000
0000
0010
0000
0100
0010
0000
2000
0000
0000
0000
,  // measure 57
3001
0010
0100
0000
0010
0001
0000
0100
0000
0010
1000
0000
0002
0000
0000
0000
,  // measure 58
0013
0001
0010
0000
0100
0010
0100
0000
0010
0001
0010
0000
0001
0100
0001
0000
,  // measure 59
0100
0010
0100
0000
0010
1000
0010
1000
0001
0100
0001
0000
1000
0000
0100
0000
,  // measure 60
0010
0001
1000
0000
0010
1000
0000
0001
0000
0010
0100
0000
0020
0000
0000
0000
,  // measure 61
0130
1000
0001
0000
0100
0001
0000
0010
0000
0001
1000
0000
0020
0000
0000
0000
,  // measure 62
0130
0100
0010
0010
,  // measure 63
1000
0001
0010
0100
,  // measure 64
2001
0000
0000
3001
0010
0000
0100
0000
0020
0000
0000
0130
1000
0000
0001
0000
,  // measure 65
0200
0000
0000
0310
1000
0000
0001
0000
0020
0000
0000
0130
1000
0000
0001
0000
,  // measure 66
2000
0100
0010
0100
,  // measure 67
0001
0010
0100
3001
,  // measure 68
1002
0000
0000
1003
0100
0000
0010
0000
0200
0000
0000
0310
0001
0000
1000
0000
,  // measure 69
0020
0000
0000
0130
0001
0000
1000
0000
0200
0000
0000
0310
0001
0000
1000
0000
,  // measure 70
0002
0010
0100
0010
,  // measure 71
1000
0100
0010
1003
,  // measure 72
0002
0000
0203
0000
,  // measure 73
2300
0000
3020
0000
,  // measure 74
0002
0000
0000
0000
,  // measure 75
0000
0000
0000
0033
,  // measure 76
2000
0000
3200
0000
,  // measure 77
0302
0000
0023
0000
,  // measure 78
2000
0000
0000
0000
,  // measure 79
0000
0000
0000
0000
,  // measure 80
3030
0000
0000
0000
;

//---------------dance-single - ----------------
#NOTES:
     dance-single:
     :
     Medium:
     10:
     0.380367,0.460197,0.106831,0.254752,0.049307,324.000000,311.000000,13.000000,31.000000,0.000000,0.000000,0.380367,0.460197,0.106831,0.254752,0.049307,324.000000,311.000000,13.000000,31.000000,0.000000,0.000000:
// measure 0
0000
0000
0000
0000
,  // measure 1
0000
0000
0000
0000
,  // measure 2
0000
0000
0000
0000
,  // measure 3
0000
0000
0000
0000
,  // measure 4
0000
0000
0000
0000
,  // measure 5
0000
0000
0000
0000
,  // measure 6
0000
0000
0000
0000
,  // measure 7
0000
0000
0000
0000
,  // measure 8
1000
0001
1000
0001
,  // measure 9
0100
0010
0100
0010
,  // measure 10
1000
0010
1000
0010
,  // measure 11
0100
0000
0001
0000
0100
0000
0001
0100
,  // measure 12
0001
0010
0001
0010
,  // measure 13
0001
0010
0001
0010
,  // measure 14
0001
0010
0001
0010
,  // measure 15
0001
0000
0000
0000
,  // measure 16
1000
0000
0001
1000
0200
0000
0310
0000
,  // measure 17
0100
0000
0010
0001
2000
0000
3100
0000
,  // measure 18
0010
0000
0100
0010
0002
0000
0103
0000
,  // measure 19
0010
0000
0100
0001
0020
0000
0130
0000
,  // measure 20
0010
0000
0001
1000
0200
0000
0310
0000
,  // measure 21
0100
0000
1000
0010
0200
0000
0301
0000
,  // measure 22
0100
0000
0001
1000
0020
0000
0130
0000
,  // measure 23
1001
0000
0000
0000
,  // measure 24
1000
0010
0100
0000
0010
0000
1010
0000
,  // measure 25
1000
0001
0010
0000
0100
0000
0011
0000
,  // measure 26
0001
0100
0010
0000
1000
0000
1001
0000
,  // measure 27
1000
0100
0010
0000
0100
0000
1100
0000
,  // measure 28
0100
1000
0010
0000
0110
0000
0200
0000
,  // measure 29
0301
0100
0010
0000
1010
0000
0002
0000
,  // measure 30
1003
0100
0010
0000
0011
0000
0020
0000
,  // measure 31
0130
1000
0100
0000
0110
0000
0002
0000
,  // measure 32
1003
0000
0000
0000
0100
0000
0000
1000
0000
0000
0000
0000
0000
0000
0000
0000
,  // measure 33
0010
0000
0000
0000
0100
0000
0000
0100
0000
0000
0000
0000
0000
0000
0000
0000
,  // measure 34
0010
1000
0010
0000
0100
0001
0100
0000
,  // measure 35
0010
1000
0010
0000
0100
0001
0100
0000
,  // measure 36
0001
0000
0000
0000
1000
0000
0000
1000
0000
0000
0000
0000
0000
0000
0000
0000
,  // measure 37
0100
0000
0000
0000
0010
0000
0000
0100
0000
0000
0000
0000
0000
0000
0000
0000
,  // measure 38
0010
0001
0010
0000
0100
1000
0100
0000
,  // measure 39
0010
0001
0010
0000
0100
1000
0100
1000
,  // measure 40
0010
0000
0110
0000
0100
0001
0010
0000
,  // measure 41
0100
0000
1100
0000
0100
1000
0010
0000
,  // measure 42
0100
0001
0100
0000
0010
1000
0010
0000
,  // measure 43
0100
0001
0100
0000
0010
1000
0010
0000
,  // measure 44
1000
0000
0011
0000
0001
0100
1000
0000
,  // measure 45
0100
0000
0011
0000
0001
0010
1000
0000
,  // measure 46
0010
0100
0010
0000
1000
0001
1000
0000
,  // measure 47
0100
0010
0100
0000
0001
1000
0001
1000
,  // measure 48
0001
0000
0000
0000
1000
0000
0000
0010
0000
0000
1000
0000
0100
0000
0000
0000
,  // measure 49
0010
0000
0000
0000
0100
0000
0000
1000
0000
0000
0100
0000
1000
0000
0000
0000
,  // measure 50
0100
1000
0010
0100
,  // measure 51
0001
0000
0010
0100
1000
0010
0100
0001
,  // measure 52
1000
0000
0000
0000
0001
0000
0000
0010
0000
0000
0100
0000
0010
0000
0000
0000
,  // measure 53
0100
0000
0000
0000
0010
0000
0000
0001
0000
0000
0100
0000
0010
0000
0000
0000
,  // measure 54
0100
0100
0010
0010
,  // measure 55
1000
0000
0010
1000
0100
0010
0001
1000
,  // measure 56
0001
0000
0000
0000
1000
0000
0000
0100
0000
0000
0010
0000
0001
0000
0000
0000
,  // measure 57
0010
0000
0000
0000
0001
0000
0000
0100
0000
0000
0010
0000
0100
0000
0000
0000
,  // measure 58
0010
1000
0100
1000
,  // measure 59
0001
0000
0010
0100
1000
0010
0100
0001
,  // measure 60
1000
0000
0000
0000
0100
0000
0000
1000
0000
0000
0010
0000
0100
0000
0000
0000
,  // measure 61
0001
0000
0000
0000
1000
0000
0000
0100
0000
0000
0010
0000
0001
0000
0000
0000
,  // measure 62
0010
0010
0100
0100
,  // measure 63
1000
1000
0001
0001
,  // measure 64
2000
3010
0002
0013
,  // measure 65
0200
1300
0200
0310
,  // measure 66
2000
0010
0010
0010
,  // measure 67
0010
0010
0010
3010
,  // measure 68
0200
0301
0020
0130
,  // measure 69
0200
1300
2000
3001
,  // measure 70
0200
0010
0010
0010
,  // measure 71
0010
0010
0010
0310
,  // measure 72
2000
0000
3020
0000
,  // measure 73
0230
0000
0302
0000
,  // measure 74
2000
0000
0000
0000
,  // measure 75
0000
0000
0000
3003
,  // measure 76
2000
0000
3200
0000
,  // measure 77
0320
0000
0032
0000
,  // measure 78
2000
0000
0000
0000
,  // measure 79
0000
0000
0000
0000
,  // measure 80
3003
0000
0000
0000
;

//---------------dance-single - ----------------
#NOTES:
     dance-single:
     :
     Easy:
     6:
     0.179618,0.288445,0.008218,0.197227,0.000000,153.000000,152.000000,1.000000,24.000000,0.000000,0.000000,0.179618,0.288445,0.008218,0.197227,0.000000,153.000000,152.000000,1.000000,24.000000,0.000000,0.000000:
// measure 0
0000
0000
0000
0000
,  // measure 1
0000
0000
0000
0000
,  // measure 2
0000
0000
0000
0000
,  // measure 3
0000
0000
0000
0000
,  // measure 4
0000
0000
0000
0000
,  // measure 5
0000
0000
0000
0000
,  // measure 6
0000
0000
0000
0000
,  // measure 7
0000
0000
0000
0000
,  // measure 8
2000
0000
0000
3000
,  // measure 9
0020
0000
0000
0030
,  // measure 10
2000
0000
0000
3000
,  // measure 11
0200
0000
0000
0300
,  // measure 12
0020
0000
0000
0000
,  // measure 13
0000
0000
0000
0000
,  // measure 14
0000
0000
0000
0000
,  // measure 15
0030
0000
0000
0000
,  // measure 16
0100
0000
0000
0000
,  // measure 17
1000
0000
0000
0000
,  // measure 18
0010
0000
0000
0000
,  // measure 19
0100
0000
0000
0000
,  // measure 20
0001
0000
1000
0000
,  // measure 21
0001
0000
0010
0000
,  // measure 22
0001
0000
1000
0000
,  // measure 23
0000
0000
0000
0000
,  // measure 24
0010
1000
0100
0000
,  // measure 25
0010
0001
1000
0000
,  // measure 26
0001
1000
0010
0000
,  // measure 27
1000
0100
0010
0000
,  // measure 28
0100
1000
0010
0200
,  // measure 29
0301
0010
0100
2000
,  // measure 30
3001
0010
0100
2000
,  // measure 31
3010
0100
0001
2000
,  // measure 32
3200
0000
0000
0300
,  // measure 33
0020
0000
0030
0000
,  // measure 34
0001
0000
0010
0000
,  // measure 35
0100
0000
1000
0000
,  // measure 36
0002
0000
0003
0000
,  // measure 37
2000
0000
3000
0000
,  // measure 38
0010
0000
1000
0000
,  // measure 39
0100
0000
1000
0000
,  // measure 40
0000
1000
0000
0010
,  // measure 41
0000
1000
0000
0100
,  // measure 42
0000
0010
0000
0001
,  // measure 43
0000
0100
0000
0010
,  // measure 44
1000
0001
0000
0010
,  // measure 45
0000
0001
0000
0100
,  // measure 46
0000
0010
0000
1000
,  // measure 47
0000
0100
0000
0010
,  // measure 48
0100
0100
0100
0000
,  // measure 49
1000
1000
1000
0000
,  // measure 50
0001
0010
0100
1000
,  // measure 51
0100
0010
0001
1000
,  // measure 52
0001
0001
0001
0000
,  // measure 53
1000
1000
1000
0000
,  // measure 54
0010
0100
0001
1000
,  // measure 55
0010
0100
0010
1000
,  // measure 56
0001
0010
0100
1000
,  // measure 57
0100
0010
0001
0100
,  // measure 58
0010
0010
0010
0010
,  // measure 59
0100
0100
0100
0100
,  // measure 60
0001
0100
0010
1000
,  // measure 61
0100
0010
0001
1000
,  // measure 62
0001
0001
0001
0001
,  // measure 63
0001
0001
0001
0001
,  // measure 64
2000
3000
0002
0003
,  // measure 65
0200
0300
0020
0030
,  // measure 66
0200
0000
0000
0000
,  // measure 67
0000
0000
0000
0300
,  // measure 68
0020
0030
2000
3000
,  // measure 69
0200
0300
0020
0030
,  // measure 70
0200
0000
0000
0000
,  // measure 71
0000
0000
0000
0300
,  // measure 72
1000
0000
0010
0000
,  // measure 73
1000
0000
0001
0000
,  // measure 74
2000
0000
0000
0000
,  // measure 75
0000
0000
0000
3000
,  // measure 76
0001
0000
0010
0000
,  // measure 77
0100
0000
1000
0000
,  // measure 78
0110
0000
0000
0000
;

//---------------dance-single - ----------------
#NOTES:
     dance-single:
     :
     Beginner:
     4:
     0.108005,0.224346,0.016436,0.057525,0.000000,92.000000,90.000000,2.000000,7.000000,0.000000,0.000000,0.108005,0.224346,0.016436,0.057525,0.000000,92.000000,90.000000,2.000000,7.000000,0.000000,0.000000:
// measure 0
0000
0000
0000
0000
,  // measure 1
0000
0000
0000
0000
,  // measure 2
0000
0000
0000
0000
,  // measure 3
0000
0000
0000
0000
,  // measure 4
0000
0000
0000
0000
,  // measure 5
0000
0000
0000
0000
,  // measure 6
0000
0000
0000
0000
,  // measure 7
0000
0000
0000
0000
,  // measure 8
1000
0000
0000
0000
,  // measure 9
0010
0000
0000
0000
,  // measure 10
1000
0000
0000
0000
,  // measure 11
0001
0000
0000
0000
,  // measure 12
1000
0000
0000
0000
,  // measure 13
0000
0000
0000
0000
,  // measure 14
0000
0000
0000
0000
,  // measure 15
0000
0000
0000
0000
,  // measure 16
0010
0000
0000
0000
,  // measure 17
0010
0000
0000
0000
,  // measure 18
0010
0000
0000
0000
,  // measure 19
0010
0000
0000
0000
,  // measure 20
0100
0000
0000
0000
,  // measure 21
0100
0000
0000
0000
,  // measure 22
0100
0000
0000
0000
,  // measure 23
0000
0000
0000
0000
,  // measure 24
0001
0000
0000
0000
,  // measure 25
1000
0000
0000
0000
,  // measure 26
0100
0000
0000
0000
,  // measure 27
1000
0000
0000
0000
,  // measure 28
0010
0000
0000
0100
,  // measure 29
0000
0000
0000
0100
,  // measure 30
0000
0000
0000
0100
,  // measure 31
0000
0000
0000
0100
,  // measure 32
1001
0000
0000
0000
,  // measure 33
0001
0000
0000
0000
,  // measure 34
0020
0000
0000
0000
,  // measure 35
0000
0000
0000
0030
,  // measure 36
0100
0000
0000
0000
,  // measure 37
0010
0000
0000
0000
,  // measure 38
0002
0000
0000
0000
,  // measure 39
0000
0000
0000
0003
,  // measure 40
1000
0000
0000
0000
,  // measure 41
0010
0000
0000
0000
,  // measure 42
0200
0000
0000
0000
,  // measure 43
0000
0000
0000
0300
,  // measure 44
0010
0000
0000
0000
,  // measure 45
1000
0000
0000
0000
,  // measure 46
0002
0000
0000
0000
,  // measure 47
0000
0000
0000
0003
,  // measure 48
1000
0001
1000
0000
,  // measure 49
0010
0100
0010
0000
,  // measure 50
1000
0000
0100
0000
,  // measure 51
0010
0000
0001
0000
,  // measure 52
1000
0001
1000
0000
,  // measure 53
0010
0100
0010
0000
,  // measure 54
0100
0000
0010
0000
,  // measure 55
1000
0000
0001
0000
,  // measure 56
1000
0100
0010
0000
,  // measure 57
0100
0010
0001
0000
,  // measure 58
1000
0000
0001
0000
,  // measure 59
0100
0000
0010
0000
,  // measure 60
1000
0010
0100
0000
,  // measure 61
0010
0100
0001
0000
,  // measure 62
1000
0000
0000
0000
,  // measure 63
0000
0000
0000
0000
,  // measure 64
0001
0000
1000
0000
,  // measure 65
1000
0000
0001
0000
,  // measure 66
0200
0000
0000
0000
,  // measure 67
0000
0000
0000
0300
,  // measure 68
0001
0000
1000
0000
,  // measure 69
1000
0000
0001
0000
,  // measure 70
0200
0000
0000
0000
,  // measure 71
0000
0000
0000
0300
,  // measure 72
0001
0000
0010
0000
,  // measure 73
0100
0000
1000
0000
,  // measure 74
0002
0000
0000
0000
,  // measure 75
0000
0000
0000
0003
,  // measure 76
1000
0000
0100
0000
,  // measure 77
0010
0000
0001
0000
,  // measure 78
1001
0000
0000
0000
;
