#TITLE:psychic;
#SUBTITLE:;
#ARTIST:tokyo megaplex & fyütch;
#TITLETRANSLIT:;
#SUBTITLETRANSLIT:;
#ARTISTTRANSLIT:;
#GENRE:;
#CREDIT:;
#BANNER:psychic.png;
#BACKGROUND:psychic-bg.png;
#LYRICSPATH:;
#CDTITLE:;
#MUSIC:psychic.ogg;
#OFFSET:0.000000;
#SAMPLESTART:67.508003;
#SAMPLELENGTH:14.000000;
#SELECTABLE:YES;
#BPMS:0.000000=120.000000
;
#STOPS:
;
#BGCHANGES:;
#KEYSOUNDS:;
#ATTACKS:;

//---------------dance-single - ----------------
#NOTES:
     dance-single:
     :
     Hard:
     12:
     0.415237,0.445908,0.287557,0.248698,0.116577,374.000000,337.000000,37.000000,32.000000,0.000000,0.000000,0.415237,0.445908,0.287557,0.248698,0.116577,374.000000,337.000000,37.000000,32.000000,0.000000,0.000000:
// measure 0
0000
0000
0000
2002
,  // measure 1
3003
1000
0001
0010
0100
0010
0000
0000
,  // measure 2
0100
0010
0001
0100
0000
0100
1000
0100
,  // measure 3
0001
0100
0010
1000
0001
1000
0002
0010
,  // measure 4
0013
0100
0010
0001
0000
0000
2100
0000
,  // measure 5
0000
3100
1000
0010
0200
0000
0002
0000
,  // measure 6
0000
0000
0303
0000
0000
0001
0100
1000
,  // measure 7
0100
0000
0000
0000
0000
0010
1000
0001
,  // measure 8
0020
0000
0030
0110
,  // measure 9
0100
0010
0001
0010
0100
0100
0000
0010
,  // measure 10
0001
1000
0010
0100
0002
0000
2003
0100
,  // measure 11
3100
1000
0001
0100
0010
1000
0000
0100
,  // measure 12
0010
0100
1000
0001
0100
0010
1001
0000
,  // measure 13
0000
0000
0000
1000
1000
0000
0001
0100
,  // measure 14
1000
0100
0001
1000
0100
0001
0100
0010
,  // measure 15
0001
0010
0100
1000
0002
0000
0000
0000
,  // measure 16
0003
0000
0000
1000
,  // measure 17
1010
0001
0011
1000
,  // measure 18
1100
0001
0101
1000
,  // measure 19
0011
0001
1010
1000
,  // measure 20
0101
0000
1000
0000
0011
0000
0001
0100
,  // measure 21
0001
1000
0100
0000
0000
0010
0100
1000
,  // measure 22
0010
0010
0010
0000
0000
0100
1000
0100
,  // measure 23
0000
1000
0100
0001
0100
0010
0000
0100
,  // measure 24
0010
1000
0001
0010
0000
0000
0001
0000
,  // measure 25
1010
0001
1010
1200
,  // measure 26
0000
1300
0100
0100
1000
0010
0000
0000
,  // measure 27
0100
1000
0100
0001
0000
0100
0010
1000
,  // measure 28
0001
0010
1000
0010
0001
0010
0002
1000
,  // measure 29
1003
0001
1000
0100
0000
0000
0020
0000
,  // measure 30
0030
0100
0010
0001
0020
0000
0002
0000
,  // measure 31
0000
0000
0033
0000
0000
0010
0100
1000
,  // measure 32
0010
0000
0000
0000
0000
0100
0100
0010
,  // measure 33
0200
0000
0300
1001
,  // measure 34
0101
0001
0100
0010
1000
0100
0000
0000
,  // measure 35
1100
0100
0001
0100
1100
0000
0010
0000
,  // measure 36
0011
0000
0010
0000
0110
0100
1000
0000
,  // measure 37
1100
0000
0000
0000
0000
1000
0001
1000
0000
0001
1000
0001
1000
0000
0000
0000
,  // measure 38
0101
0000
0001
0010
0100
1000
0100
0000
,  // measure 39
0011
0000
0010
0000
0101
0000
0001
0100
,  // measure 40
1000
0100
0001
0100
1000
0100
0010
1000
,  // measure 41
0001
0010
1000
0010
0000
0000
0100
0000
,  // measure 42
0011
0000
0001
0010
0100
1000
0100
0000
,  // measure 43
0011
0000
1000
0001
0100
0001
0010
0000
,  // measure 44
1100
0000
0100
1000
0010
1000
0001
0000
,  // measure 45
0011
0000
0000
0000
0000
1000
0001
1000
0000
0001
1000
0001
0100
0000
0000
0000
,  // measure 46
1010
0000
1000
0001
0010
0100
0010
0000
,  // measure 47
1100
0000
0000
0000
0100
0000
1000
0000
0010
0000
0100
0000
0001
0000
0000
0001
,  // measure 48
0100
0000
0000
0100
0010
0000
0000
0010
0100
0000
0000
0100
0002
0000
0000
0000
,  // measure 49
1003
0020
0130
1010
,  // measure 50
0011
0000
1010
0000
0011
0000
2000
3000
,  // measure 51
0200
0300
0020
0030
0002
0003
1002
0000
,  // measure 52
0000
0003
0001
1000
0100
0010
0000
0000
,  // measure 53
0120
0230
2300
3002
,  // measure 54
0000
0000
1003
0100
0010
0100
1000
0000
,  // measure 55
0001
0000
0000
0000
1000
0000
1000
0000
0001
0100
0000
0000
0002
0000
0000
0000
,  // measure 56
0000
0000
0013
0001
0100
0000
0000
0010
,  // measure 57
0000
0010
0000
0010
0100
0000
0100
0000
0010
0100
0000
0000
0001
0000
0000
0000
,  // measure 58
0000
0000
1000
0010
0002
0000
0013
0000
,  // measure 59
0000
0000
0100
0000
0000
0000
0000
0000
0001
0000
0000
0000
1000
0000
0100
0010
,  // measure 60
0000
0100
0000
1000
0000
0010
0100
0000
0000
0000
0000
0010
1000
0000
0001
0010
,  // measure 61
0000
0001
0000
1000
0000
0100
0010
0000
0000
0000
0100
0010
0001
0000
0000
0100
,  // measure 62
0000
0010
2000
0000
0000
0000
0000
0000
3000
0000
0000
0000
0001
0000
0000
1000
,  // measure 63
0000
0020
0200
0000
0000
0000
0000
0000
0000
0000
0000
0000
0330
0000
0000
0000
;

//---------------dance-single - ----------------
#NOTES:
     dance-single:
     :
     Challenge:
     15:
     0.647282,0.742452,0.256470,0.450766,0.722779,583.000000,550.000000,33.000000,58.000000,0.000000,0.000000,0.647282,0.742452,0.256470,0.450766,0.722779,583.000000,550.000000,33.000000,58.000000,0.000000,0.000000:
// measure 0
0000
0000
0000
0220
,  // measure 1
0300
0000
1030
1000
0001
0010
0001
1000
0100
0000
0100
0000
0000
0000
0000
0000
,  // measure 2
0010
0010
0001
1000
0010
0000
0100
0000
0010
0010
0000
1000
1000
0000
0001
0000
,  // measure 3
0010
0000
1000
0010
0001
0000
0100
0000
1000
0000
0200
0000
0302
0000
0013
0100
,  // measure 4
1000
0001
0100
0001
0010
0000
0100
0000
0010
0001
0000
0001
0200
0000
0000
0000
,  // measure 5
0000
0000
0010
0310
0100
0010
1000
0001
0020
0000
0000
0000
0130
0000
0010
0000
,  // measure 6
0000
0000
0004
0003
0000
0000
0040
0030
0000
0000
0100
0010
0001
0000
1000
0000
,  // measure 7
0020
0000
0000
0000
0000
0000
0000
0000
0030
0000
0100
0001
2000
0000
3001
0000
,  // measure 8
4000
0004
0000
0000
3003
0000
1020
0000
,  // measure 9
0130
0100
0010
1000
0001
0000
1000
0001
0010
0010
0200
0000
0000
0000
0310
0010
,  // measure 10
0100
1000
0001
0100
0001
0000
0010
0000
0120
0000
0000
0000
0032
0000
1003
1000
,  // measure 11
0100
1000
0001
0100
0010
0000
0100
0010
1000
0001
0020
0000
0000
0000
0130
0010
,  // measure 12
0001
0000
0000
0010
0000
0000
0100
0000
0000
0010
0000
0000
0001
0000
0000
0000
0000
0000
1000
0000
0000
0000
0000
0000
0001
0000
0000
0000
0100
0000
0000
0000
0010
0000
0000
0000
2001
0000
0000
0000
0000
0000
0000
0000
0000
0000
0000
0000
,  // measure 13
0000
0000
0000
3100
0011
0000
0001
0100
,  // measure 14
1000
0000
0400
0300
0001
0000
0040
0030
0100
0000
0010
0001
0100
0001
1000
0100
,  // measure 15
0010
0000
0010
0100
0010
0001
1000
0000
0001
0000
2000
0000
3002
0000
0100
0000
,  // measure 16
0000
0000
0010
0000
0000
0000
1003
0000
1001
0000
0000
0000
0001
0100
0010
1000
,  // measure 17
0001
0000
0011
0000
0010
0000
0010
0100
1000
0000
0100
1000
0010
0100
0001
0010
,  // measure 18
0100
1000
0100
0010
0001
1000
0010
0000
0100
0000
0010
1000
0100
0010
0001
0010
,  // measure 19
0100
0000
0010
0001
0100
0000
0100
0010
0000
0000
0100
0010
2000
0000
3100
0000
,  // measure 20
0002
0000
0103
0000
0002
0000
0013
0200
0000
0000
1300
0100
0010
0001
1000
0100
,  // measure 21
0010
0000
0100
0000
1000
0000
0000
0000
0000
0000
0001
0010
0100
1000
0001
0010
,  // measure 22
0100
0000
0010
0000
0001
0000
0000
0000
0000
0000
1000
0001
0100
0000
1010
0000
,  // measure 23
0000
0001
1000
0010
0100
0000
0001
0010
0100
0000
1100
0000
0000
0000
1000
0100
,  // measure 24
0001
0100
1000
0010
0100
0000
0001
0000
0000
0000
0000
0000
0001
0000
0000
0000
,  // measure 25
1010
0001
1100
1002
,  // measure 26
0000
0000
1000
1003
0100
1000
0001
0100
0010
0000
1000
0000
0000
0000
0000
0000
,  // measure 27
0100
0100
0010
0100
1000
0000
0010
0000
0100
0100
0000
0010
0010
0000
0100
0000
,  // measure 28
0001
0000
1000
0001
0010
0000
0100
0000
0010
0000
0002
0000
0023
0000
0130
0010
,  // measure 29
0001
0100
0010
1000
0001
0000
0100
0000
0010
0010
0000
1000
2000
0000
0000
0000
,  // measure 30
0000
0000
3100
0010
0100
1000
0001
0100
0020
0000
0000
0000
2030
0000
0000
0000
,  // measure 31
3000
0000
0000
0001
0010
0000
0010
0000
0010
0001
0100
0010
1000
0000
0001
0000
,  // measure 32
0020
0000
0000
0000
0000
0000
0100
0000
0100
0000
0100
0000
0100
0000
0100
0000
0100
0000
0130
0000
0000
1000
0000
0000
,  // measure 33
0010
0000
0000
0100
0010
0000
0100
0000
0010
0000
0100
0010
1000
0000
0010
0000
,  // measure 34
1010
0000
1000
0001
0010
0010
0001
1000
0100
0000
0110
0000
0100
0000
1000
0000
,  // measure 35
0100
1000
0010
0100
0001
0000
0011
0000
0010
0100
0000
0100
1000
0000
0001
0000
,  // measure 36
0110
0010
1000
0001
2010
3020
0200
0000
,  // measure 37
0030
0000
0000
0000
0301
1000
0010
0001
0000
0001
0010
1000
0001
0000
1000
0000
,  // measure 38
1100
0000
0100
0100
0010
0001
0100
0010
1000
0000
0101
0000
0001
0000
0000
0000
,  // measure 39
0010
0010
0001
1000
0100
0000
0010
0000
0110
0000
0010
0001
0100
0000
0100
0000
,  // measure 40
0200
0000
0310
0100
0010
0000
0010
0000
0020
0000
0130
0000
0200
0000
0301
0100
,  // measure 41
0010
1000
0100
0010
0001
1000
0100
0010
0100
1000
0001
0100
0010
0010
1000
0010
,  // measure 42
0000
0000
0100
0001
0010
0100
0010
0001
1000
0000
1001
0000
0001
0001
0010
0001
,  // measure 43
0000
0000
0010
0001
0100
0010
1000
0100
0010
0000
1100
0000
0100
0100
0010
0001
,  // measure 44
0000
0000
0010
0001
0100
0010
1000
0001
0010
0000
0200
0000
0010
0000
0000
0000
,  // measure 45
1300
0000
0000
0000
1000
0001
0010
1000
0000
1000
0010
0001
1000
1000
0001
0010
,  // measure 46
0100
0000
0010
0001
0100
0001
1000
0100
0010
0000
0110
0000
0100
0100
0010
0001
,  // measure 47
0000
0000
1000
0001
1000
0100
1000
0010
1000
0000
0001
0000
0200
0000
0000
0301
,  // measure 48
0200
0000
0000
1300
0200
0000
0000
0301
0200
0000
0000
1300
0200
0000
0000
0000
,  // measure 49
0320
0000
0000
0000
2030
0000
0000
0000
3002
0000
0000
0003
1010
0000
0000
0000
,  // measure 50
1010
0000
0000
0000
1010
0000
0000
0000
1010
0000
0000
0000
2100
3000
0000
0000
,  // measure 51
0210
0300
0000
0000
0021
0030
0000
0000
1002
0003
0000
0000
0201
0000
0000
0000
,  // measure 52
0000
0000
0000
0000
0310
1000
0001
0100
0010
1000
0001
0100
0040
0000
0000
0000
,  // measure 53
2030
3200
0302
0203
,  // measure 54
0000
0000
0000
0000
0310
0001
1000
0100
0010
0001
1000
0100
0010
0000
0100
0000
,  // measure 55
0000
0100
0000
0100
0010
0000
0010
0000
0010
0010
0000
0000
2001
0000
0000
0000
,  // measure 56
0000
0000
0000
0000
3010
0100
0001
1000
0010
0100
0001
1000
0100
0000
0100
0000
,  // measure 57
0000
0100
0000
0010
0100
0000
0100
0000
0100
0100
0000
0000
0000
0000
0000
0000
,  // measure 58
0000
0000
0010
0001
2000
0000
3002
0000
,  // measure 59
0000
0000
0203
0000
0000
0000
0000
0000
2300
0000
0000
0000
3100
0000
0001
0010
,  // measure 60
0000
1000
0000
0010
0000
0100
1000
0000
0000
0000
0000
0001
1000
0000
1000
0100
,  // measure 61
0000
0001
0000
0100
0000
1000
0010
0000
0000
0000
0100
0010
0001
0000
0000
0100
,  // measure 62
0000
0010
2000
0000
0000
0000
0000
0000
0000
0000
0000
0000
3001
0000
0000
0100
,  // measure 63
0000
0010
2000
0000
0000
0000
0000
0000
3001
0100
0010
0100
0000
0000
0000
0000
;

//---------------dance-single - ----------------
#NOTES:
     dance-single:
     :
     Medium:
     8:
     0.315314,0.371590,0.256470,0.326416,0.000000,284.000000,251.000000,33.000000,42.000000,0.000000,0.000000,0.315314,0.371590,0.256470,0.326416,0.000000,284.000000,251.000000,33.000000,42.000000,0.000000,0.000000:
// measure 0
0000
0000
0000
2002
,  // measure 1
3003
0001
1000
0000
,  // measure 2
0010
1000
0100
0010
0000
0000
0100
0000
,  // measure 3
1000
0000
0010
0010
0100
0010
0200
0000
,  // measure 4
0301
0000
0010
0001
0000
0000
1200
0000
,  // measure 5
0000
0310
0200
2000
,  // measure 6
0000
0000
3300
0000
0000
0000
0100
1000
,  // measure 7
0020
0000
0000
0000
0030
0000
0100
0001
,  // measure 8
0020
0000
0030
1002
,  // measure 9
0013
0000
0001
0000
0100
0001
0000
0010
,  // measure 10
0001
1000
0200
2300
,  // measure 11
3010
0000
0100
0000
0010
1000
0000
0100
,  // measure 12
1000
0010
0101
2200
,  // measure 13
0000
0000
3300
0100
1100
0000
1000
0100
,  // measure 14
0001
0100
1000
0010
0100
0000
0002
0000
,  // measure 15
0103
2000
3100
2000
,  // measure 16
3010
0000
0002
0000
0013
0000
0001
1000
,  // measure 17
0010
0000
1000
0000
1010
0000
1000
0001
,  // measure 18
0010
0000
0100
0000
0110
0000
0100
1000
,  // measure 19
0010
0000
0100
0000
0101
0000
0001
0010
,  // measure 20
0100
0000
0010
0000
0011
0000
0001
1000
,  // measure 21
0010
0000
1000
0000
1001
0000
0001
1000
,  // measure 22
0100
0010
0001
0000
1001
0000
0001
0000
,  // measure 23
0101
1000
1100
1000
,  // measure 24
0100
1000
0010
0100
0000
0000
0001
0000
,  // measure 25
1010
0001
1010
2002
,  // measure 26
3003
0001
0100
0000
,  // measure 27
0010
0100
0001
0001
0000
0000
0100
0000
,  // measure 28
0010
0000
1000
0000
0100
0010
0002
0000
,  // measure 29
0010
0100
1003
2002
,  // measure 30
3003
0001
2000
3200
,  // measure 31
0000
0000
0300
0000
0000
0000
0010
0100
,  // measure 32
2000
0000
3000
0000
0000
0000
0001
0100
,  // measure 33
0020
0030
0000
1002
,  // measure 34
0013
0000
0100
0010
0001
0000
0100
0000
,  // measure 35
0101
0000
0001
0100
0010
0000
1000
0000
,  // measure 36
1100
0000
0100
1000
0010
0100
0002
0000
,  // measure 37
0000
0000
0000
1003
0100
0001
0100
0000
,  // measure 38
0011
0000
0010
0010
0001
1000
0001
0000
,  // measure 39
1000
0001
0100
0100
0000
0001
1000
0000
,  // measure 40
1010
1000
0011
0001
,  // measure 41
0101
0001
0100
0010
0000
0000
0110
0000
,  // measure 42
0100
0000
0010
1000
1000
1000
0001
0000
,  // measure 43
0011
0000
0010
0100
0100
0100
0010
0000
,  // measure 44
0011
0000
0001
1000
1000
1000
0001
0000
,  // measure 45
1000
0010
1000
0100
,  // measure 46
0010
0000
0100
1000
1000
1000
0100
0000
,  // measure 47
1000
0000
0010
0100
0100
0100
0020
0000
,  // measure 48
2030
3020
2030
3002
,  // measure 49
0010
0100
0013
1000
,  // measure 50
1000
1000
1000
1100
,  // measure 51
0110
0011
1001
0201
,  // measure 52
0000
0000
0000
0300
,  // measure 53
0020
2030
3002
0023
,  // measure 54
0000
0000
0000
0000
,  // measure 55
0000
0000
0030
0200
,  // measure 56
0000
1000
0000
0000
,  // measure 57
0000
0010
0000
1300
,  // measure 58
0000
0000
0001
1000
0020
0000
1030
0000
,  // measure 59
0000
1000
0000
0000
1000
0000
0001
0000
,  // measure 60
1000
0010
0000
1000
,  // measure 61
0001
0100
0000
0001
,  // measure 62
0010
0200
0000
0310
,  // measure 63
0001
2000
0000
3000
;

//---------------dance-single - ----------------
#NOTES:
     dance-single:
     :
     Easy:
     6:
     0.234265,0.297272,0.139893,0.139893,0.000000,211.000000,193.000000,18.000000,18.000000,0.000000,0.000000,0.234265,0.297272,0.139893,0.139893,0.000000,211.000000,193.000000,18.000000,18.000000,0.000000,0.000000:
// measure 0
0000
0000
0000
0110
,  // measure 1
0000
1000
0100
0000
,  // measure 2
1000
0010
0000
0100
,  // measure 3
0001
0010
0100
0020
,  // measure 4
0031
0100
0000
0001
,  // measure 5
0000
1000
0002
2000
,  // measure 6
0000
3003
0000
1000
,  // measure 7
0010
0000
0000
0100
,  // measure 8
0001
0000
0000
0011
,  // measure 9
0001
1000
0100
0001
,  // measure 10
0100
1000
0020
2030
,  // measure 11
3100
0010
0100
1000
,  // measure 12
0010
0100
0001
0011
,  // measure 13
0000
0000
0100
0001
,  // measure 14
1000
0010
1000
0001
,  // measure 15
0010
0100
1000
0200
,  // measure 16
0000
0000
0300
0010
,  // measure 17
0001
0100
0001
1000
,  // measure 18
0100
1000
0010
1000
,  // measure 19
0001
0010
0100
0010
,  // measure 20
0001
0100
0010
1000
,  // measure 21
1000
1000
0000
0001
,  // measure 22
0001
0001
0000
0110
,  // measure 23
0000
1001
0000
0110
,  // measure 24
0010
1000
0000
0001
,  // measure 25
1000
0001
1000
0002
,  // measure 26
0000
0103
0000
0000
,  // measure 27
0010
1000
0000
0100
,  // measure 28
1000
0010
0100
0002
,  // measure 29
0013
0100
0000
0020
,  // measure 30
0000
0031
0200
0002
,  // measure 31
0000
0303
0000
0001
,  // measure 32
1000
0000
0000
0001
,  // measure 33
1000
0000
0000
0110
,  // measure 34
0010
1000
0010
0100
,  // measure 35
0001
0010
0000
0100
,  // measure 36
0010
0000
0001
0000
1000
0001
2000
0000
,  // measure 37
0000
0001
0000
3001
,  // measure 38
0100
0010
1010
1000
,  // measure 39
0100
0110
0000
0010
,  // measure 40
0011
0001
1001
1100
,  // measure 41
0100
1000
0000
0100
,  // measure 42
1100
1000
0010
0100
,  // measure 43
0101
0001
0010
0100
,  // measure 44
0110
0010
0001
1000
,  // measure 45
1000
0001
1000
0001
,  // measure 46
1001
1000
0010
1000
,  // measure 47
1100
0100
0010
0011
,  // measure 48
0010
0010
0010
0020
,  // measure 49
0000
0000
0030
0100
,  // measure 50
0100
0100
0100
0010
,  // measure 51
0001
1000
0100
0010
,  // measure 52
0000
0001
0000
1000
,  // measure 53
0001
0100
0001
0010
,  // measure 54
0000
0100
0000
0010
,  // measure 55
0001
1000
0001
0100
,  // measure 56
0000
0010
0000
0100
,  // measure 57
0000
0001
0000
1000
,  // measure 58
0000
0000
0001
1000
0002
0000
1003
0000
,  // measure 59
0000
1000
0000
0000
1000
0000
0010
0000
,  // measure 60
1000
0200
0300
0010
,  // measure 61
0001
0200
0300
0002
,  // measure 62
0000
0000
0003
2000
,  // measure 63
0000
0000
0000
3000
;

//---------------dance-single - ----------------
#NOTES:
     dance-single:
     :
     Beginner:
     4:
     0.138782,0.198181,0.062175,0.031087,0.000000,125.000000,117.000000,8.000000,4.000000,0.000000,0.000000,0.138782,0.198181,0.062175,0.031087,0.000000,125.000000,117.000000,8.000000,4.000000,0.000000,0.000000:
// measure 0
0000
0000
0000
1001
,  // measure 1
0000
1000
0000
0000
,  // measure 2
0001
0001
0000
0100
,  // measure 3
0000
0010
0000
1000
,  // measure 4
0000
0000
0000
0110
,  // measure 5
0000
0010
1000
0000
,  // measure 6
0000
0000
0000
1001
,  // measure 7
0000
0000
0000
0001
,  // measure 8
0000
0000
0000
0010
,  // measure 9
0000
0001
0000
0100
,  // measure 10
0000
0000
0010
0010
,  // measure 11
0000
1000
0000
0100
,  // measure 12
0000
0000
1000
0001
,  // measure 13
0000
0000
0100
0010
,  // measure 14
0000
1000
0000
0100
,  // measure 15
0000
1000
0000
0000
,  // measure 16
0000
0000
0000
0001
,  // measure 17
0000
0000
0000
1000
,  // measure 18
0000
0000
0000
0010
,  // measure 19
0000
0000
0000
0100
,  // measure 20
0000
0000
0000
0010
,  // measure 21
0010
0000
0000
1000
,  // measure 22
1000
1000
0000
0001
,  // measure 23
0000
1000
0001
0000
,  // measure 24
0100
0010
0000
1000
,  // measure 25
0000
0001
0000
0020
,  // measure 26
0000
0000
0030
0000
,  // measure 27
0100
0100
0000
0010
,  // measure 28
0000
0001
0000
1001
,  // measure 29
0000
1000
0001
0200
,  // measure 30
0300
0001
2000
3000
,  // measure 31
0000
0000
0000
0010
,  // measure 32
0010
0000
0000
0100
,  // measure 33
0010
0000
0000
1001
,  // measure 34
0000
1000
0001
0000
,  // measure 35
0010
0100
0000
0000
,  // measure 36
0000
0000
0010
0001
,  // measure 37
0000
1000
0000
0001
,  // measure 38
0000
0100
0010
0000
,  // measure 39
1000
0010
0000
0100
,  // measure 40
0001
0100
0010
1000
,  // measure 41
0000
0001
0000
1001
,  // measure 42
0000
0001
0001
0000
,  // measure 43
0000
1000
1000
0000
,  // measure 44
0000
0010
0010
0000
,  // measure 45
0000
0100
0000
0010
,  // measure 46
0000
0100
0100
0000
,  // measure 47
0000
0010
0010
1000
,  // measure 48
1000
1000
1000
0001
,  // measure 49
1000
0000
0000
0001
,  // measure 50
0000
0001
0000
1000
,  // measure 51
0100
0010
0001
1001
,  // measure 52
0000
0010
0000
0000
,  // measure 53
0100
0100
0010
0010
,  // measure 54
0000
1000
0000
0000
,  // measure 55
0000
0000
0000
1001
,  // measure 56
0000
0010
0000
0000
,  // measure 57
0000
0000
0000
0000
,  // measure 58
0000
1000
0100
0010
,  // measure 59
0000
0000
0000
0100
,  // measure 60
0000
0000
0000
1000
,  // measure 61
0000
0000
0000
0010
,  // measure 62
0000
0000
0000
0200
,  // measure 63
0000
0000
0000
0300
;
