#VERSION:0.83;
#TITLE:kyoto EVOLVED;
#SUBTITLE:(ver. C);
#ARTIST:xRGTMx underground;
#TITLETRANSLIT:;
#SUBTITLETRANSLIT:;
#ARTISTTRANSLIT:;
#GENRE:;
#ORIGIN:;
#CREDIT:;
#BANNER:kyoto EVOLVED (ver. C).png;
#BACKGROUND:kyoto EVOLVED (ver. C)-bg.png;
#PREVIEWVID:;
#JACKET:kyoto EVOLVED (ver. C)-jacket.png;
#CDIMAGE:;
#DISCIMAGE:;
#LYRICSPATH:;
#CDTITLE:;
#MUSIC:kyoto EVOLVED (ver. C).ogg;
#OFFSET:-0.033000;
#SAMPLESTART:80.668999;
#SAMPLELENGTH:15.743000;
#SELECTABLE:YES;
#BPMS:0.000=122.000,
160.000=244.000,
288.000=488.000,
376.000=244.001;
#STOPS:18.000=0.246,
18.250=0.246,
23.000=0.246,
23.500=0.246,
24.000=0.246,
24.500=0.246,
31.000=0.492;
#DELAYS:;
#WARPS:;
#TIMESIGNATURES:0.000=4=4;
#TICKCOUNTS:0.000=4;
#COMBOS:0.000=1;
#SPEEDS:0.000=1.000=0.000=0;
#SCROLLS:0.000=1.000;
#FAKES:;
#LABELS:0.000=Song Start;
#BGCHANGES:;
#KEYSOUNDS:;
#ATTACKS:
;

//---------------dance-single - ----------------
#NOTEDATA:;
#CHARTNAME:;
#STEPSTYPE:dance-single;
#DESCRIPTION:;
#CHARTSTYLE:;
#DIFFICULTY:Beginner;
#METER:4;
#RADARVALUES:0.141598,0.266538,0.024988,0.016659,0.000000,119.000000,116.000000,3.000000,2.000000,0.000000,0.000000,0.000000,0.000000,0.000000,0.141598,0.266538,0.024988,0.016659,0.000000,119.000000,116.000000,3.000000,2.000000,0.000000,0.000000,0.000000,0.000000,0.000000;
#CREDIT:Pandemonium X;
#NOTES:
// measure 0
0000
0000
0000
0000
,  // measure 1
1000
0000
0000
0000
,  // measure 2
0001
0000
0000
0000
,  // measure 3
0100
0000
0000
0000
,  // measure 4
0010
0000
0100
0001
,  // measure 5
0000
0000
0000
0010
,  // measure 6
0000
0100
0000
0000
,  // measure 7
0000
0110
0000
0000
,  // measure 8
0001
0000
1000
0000
,  // measure 9
0010
0000
1000
0000
,  // measure 10
0100
0000
1000
0000
,  // measure 11
0010
0000
0100
0000
,  // measure 12
0010
0010
1000
0000
,  // measure 13
0001
0001
0010
0000
,  // measure 14
0100
0000
0010
0000
,  // measure 15
0001
1000
0010
0100
,  // measure 16
1001
0000
0000
0000
,  // measure 17
0001
0000
0000
0000
,  // measure 18
1000
0000
0000
0000
,  // measure 19
0010
0000
0000
0000
,  // measure 20
0100
0000
0010
0000
,  // measure 21
1000
0000
0100
0000
,  // measure 22
1000
0000
0001
0000
,  // measure 23
0100
0000
0010
1000
,  // measure 24
0001
0000
0001
0000
,  // measure 25
0001
0000
0001
0000
,  // measure 26
1000
0000
1000
0000
,  // measure 27
1000
0000
1000
0000
,  // measure 28
0010
0000
0010
0000
,  // measure 29
0010
0000
0010
0000
,  // measure 30
0100
0000
0100
0000
,  // measure 31
0100
0000
0100
0100
,  // measure 32
0010
1000
0100
0000
,  // measure 33
0010
0001
0100
0000
,  // measure 34
0010
1000
0100
0000
,  // measure 35
0010
0001
0100
0000
,  // measure 36
0010
0000
0000
0000
,  // measure 37
1000
0000
0000
0000
,  // measure 38
0001
0000
0000
0000
,  // measure 39
1000
0000
0000
0000
,  // measure 40
0010
0000
0000
0000
,  // measure 41
1000
0000
0000
0000
,  // measure 42
0100
0000
0000
0000
,  // measure 43
0010
0000
0001
0000
,  // measure 44
0100
0000
0000
0000
,  // measure 45
0010
0000
0000
0000
,  // measure 46
0100
0000
0000
0000
,  // measure 47
0001
0000
1000
0000
,  // measure 48
0010
0000
0000
0000
,  // measure 49
1000
0000
0000
0000
,  // measure 50
0100
0000
0000
0000
,  // measure 51
0010
0000
0100
0000
,  // measure 52
1000
0000
0000
0000
,  // measure 53
0010
0000
0000
0000
,  // measure 54
0100
0000
0000
0000
,  // measure 55
0001
0000
0100
0000
,  // measure 56
0010
0000
0000
0000
,  // measure 57
0100
0000
0000
0000
,  // measure 58
0001
0000
0000
0000
,  // measure 59
0010
0000
0100
0000
,  // measure 60
1000
0000
0000
0000
,  // measure 61
0100
0000
0000
0000
,  // measure 62
1000
0000
0000
0000
,  // measure 63
0010
0000
0100
0000
,  // measure 64
0001
0000
0000
0000
,  // measure 65
1000
0000
0000
0000
,  // measure 66
0100
0000
0000
0000
,  // measure 67
1000
0000
0010
0000
,  // measure 68
0100
0000
0000
0000
,  // measure 69
0001
0000
0000
0000
,  // measure 70
0010
0000
0000
0000
,  // measure 71
0001
0000
1000
0000
,  // measure 72
0220
0000
0000
0000
,  // measure 73
0000
0000
0000
0000
,  // measure 74
0000
0000
0000
0000
,  // measure 75
0000
0000
0000
0000
,  // measure 76
0000
0000
0000
0000
,  // measure 77
0000
0000
0000
0000
,  // measure 78
0000
0000
0000
0000
,  // measure 79
0000
0000
0000
0000
,  // measure 80
0330
0000
0000
0000
;

//---------------dance-single - ----------------
#NOTEDATA:;
#CHARTNAME:;
#STEPSTYPE:dance-single;
#DESCRIPTION:;
#CHARTSTYLE:;
#DIFFICULTY:Easy;
#METER:7;
#RADARVALUES:0.289146,0.433124,0.108281,0.033317,0.000000,243.000000,230.000000,13.000000,4.000000,0.000000,0.000000,0.000000,0.000000,0.000000,0.289146,0.433124,0.108281,0.033317,0.000000,243.000000,230.000000,13.000000,4.000000,0.000000,0.000000,0.000000,0.000000,0.000000;
#CREDIT:Pandemonium X;
#NOTES:
// measure 0
0000
0000
0000
0000
,  // measure 1
1000
0001
0010
0001
,  // measure 2
0101
0000
0000
0000
,  // measure 3
0001
1000
0100
0010
,  // measure 4
0100
0100
1001
1000
,  // measure 5
0001
0100
0001
1001
,  // measure 6
0110
1000
0001
0010
,  // measure 7
0001
0100
0100
0110
,  // measure 8
0010
1000
0001
0010
,  // measure 9
0001
1000
0100
1000
,  // measure 10
0010
0100
0001
0010
,  // measure 11
0001
1000
0100
0010
,  // measure 12
0100
1000
0010
0100
,  // measure 13
0010
1000
0001
0010
,  // measure 14
0001
1000
0001
1000
,  // measure 15
0001
0010
0100
1000
,  // measure 16
0101
0000
0001
1000
,  // measure 17
0100
0000
1000
0010
,  // measure 18
0100
0000
0010
1000
,  // measure 19
0001
0000
0010
0001
,  // measure 20
1000
0100
1000
0010
,  // measure 21
1000
0001
0010
0001
,  // measure 22
0100
0001
0010
0001
,  // measure 23
1000
0100
1000
0010
,  // measure 24
0100
0001
0100
1000
,  // measure 25
0100
0001
0100
1000
,  // measure 26
0100
0010
1000
0001
,  // measure 27
0100
0010
1000
0001
,  // measure 28
1000
0010
0001
0010
,  // measure 29
1000
0010
0001
0010
,  // measure 30
1000
0010
0100
0001
,  // measure 31
1000
0010
0100
0001
,  // measure 32
1000
1000
1000
1000
,  // measure 33
1000
1000
1000
1000
,  // measure 34
0001
0001
0001
0001
,  // measure 35
0001
0001
0001
0001
,  // measure 36
0200
0000
0000
0300
,  // measure 37
0020
0000
0000
0030
,  // measure 38
1001
0000
0110
0000
,  // measure 39
1001
0110
1001
0110
,  // measure 40
0001
0000
1000
0000
,  // measure 41
0010
0000
1000
0010
,  // measure 42
0100
0000
0010
0000
,  // measure 43
1000
0100
0010
0001
,  // measure 44
0010
0000
0001
0000
,  // measure 45
0100
0000
0010
1000
,  // measure 46
0001
0000
1000
0000
,  // measure 47
0001
0010
0100
1000
,  // measure 48
0001
0000
1000
0000
,  // measure 49
0010
0000
1000
0010
,  // measure 50
0100
0000
0010
0000
,  // measure 51
1000
0100
0010
0001
,  // measure 52
0010
0000
0001
0000
,  // measure 53
0100
0000
0010
1000
,  // measure 54
0001
0000
0010
0000
,  // measure 55
0100
0010
0001
1000
,  // measure 56
0100
0000
1000
0000
,  // measure 57
0010
0000
0100
0010
,  // measure 58
1000
0000
0001
0000
,  // measure 59
1000
0001
0010
0001
,  // measure 60
1000
0000
0001
0000
,  // measure 61
0100
0000
0001
0100
,  // measure 62
0010
0000
0100
0000
,  // measure 63
0010
0100
0001
1000
,  // measure 64
0100
0000
0010
0000
,  // measure 65
0100
0000
1000
0100
,  // measure 66
0010
0000
0100
0000
,  // measure 67
1000
0100
0010
0001
,  // measure 68
0010
0000
0001
0000
,  // measure 69
0100
0000
0010
0100
,  // measure 70
0001
0000
1000
0000
,  // measure 71
0001
0100
0010
1000
,  // measure 72
2002
0000
0000
0000
,  // measure 73
0000
0000
0000
0000
,  // measure 74
0000
0000
0000
0000
,  // measure 75
0000
0000
0000
0000
,  // measure 76
0000
0000
0000
0000
,  // measure 77
0000
0000
0000
0000
,  // measure 78
0000
0000
0000
0000
,  // measure 79
0000
0000
0000
0000
,  // measure 80
3003
0000
0000
0000
;

//---------------dance-single - ----------------
#NOTEDATA:;
#CHARTNAME:;
#STEPSTYPE:dance-single;
#DESCRIPTION:;
#CHARTSTYLE:;
#DIFFICULTY:Medium;
#METER:13;
#RADARVALUES:0.492619,0.832931,0.066634,0.216562,0.295690,414.000000,406.000000,8.000000,26.000000,0.000000,0.000000,0.000000,0.000000,0.000000,0.492619,0.832931,0.066634,0.216562,0.295690,414.000000,406.000000,8.000000,26.000000,0.000000,0.000000,0.000000,0.000000,0.000000;
#CREDIT:Pandemonium X;
#NOTES:
// measure 0
0000
0000
0000
0000
,  // measure 1
1000
0001
0100
0000
0001
1000
0100
0000
,  // measure 2
0010
0000
0000
0010
0000
0000
0010
0000
0000
0010
0000
0000
0100
0000
0000
0000
,  // measure 3
0010
0001
1000
0000
0010
1000
0100
0000
,  // measure 4
1000
0000
0100
0000
0010
0000
0001
0000
1000
0001
0100
0000
0010
0000
1000
0000
,  // measure 5
0001
0000
0010
0100
1000
0000
1100
0011
,  // measure 6
1100
0011
0010
0100
1000
0000
0100
1000
,  // measure 7
0010
0000
0100
0010
1000
0001
1001
0000
,  // measure 8
0001
1000
0010
1000
0001
0010
0100
0000
,  // measure 9
0010
0001
1000
0100
0010
0100
1000
0000
,  // measure 10
0100
1000
0010
1000
0010
0001
0010
0000
,  // measure 11
0010
0001
0100
1000
0100
0010
1000
0000
,  // measure 12
0001
0001
0001
1000
0001
0010
0100
0000
,  // measure 13
1000
1000
1000
0100
1000
0010
0100
0000
,  // measure 14
0010
0000
0000
0010
0000
0000
0010
0000
0000
0010
0000
0000
0010
0000
0000
0000
,  // measure 15
1000
0100
0010
0001
0010
0001
0100
0010
,  // measure 16
1000
0000
1000
0000
0000
0000
0001
0000
0000
0100
0000
0000
,  // measure 17
0001
0000
0001
0000
0000
0000
0010
0000
0000
0001
0000
0000
,  // measure 18
1000
0000
1000
0000
0000
0000
0010
0000
0000
1000
0000
0000
,  // measure 19
0100
0000
0100
0000
0000
0000
0010
0000
0000
0001
0000
0000
,  // measure 20
1000
0000
0000
0001
0000
0010
0000
0000
0001
1000
0000
0000
,  // measure 21
0001
0000
0000
1000
0000
0001
0000
0000
1000
0001
0000
0000
,  // measure 22
1000
0000
0000
0010
0000
1000
0000
0000
0010
0100
0000
0000
,  // measure 23
0010
0000
0000
1000
0000
0001
0000
0000
0010
0100
0000
0000
,  // measure 24
0010
0000
0001
0010
0000
0000
0100
0000
1000
0100
0000
0000
,  // measure 25
1000
0000
0010
0100
0000
0000
0010
0000
1000
0001
0000
0000
,  // measure 26
0010
0000
0001
0100
0000
0000
0010
0000
1000
0100
0000
0000
,  // measure 27
0010
0000
0100
1000
0000
0000
0100
0010
0001
0010
0100
1000
,  // measure 28
0001
0000
1000
0001
0000
0000
0010
0000
1000
0100
0000
0000
,  // measure 29
0010
0000
0001
0010
0000
0000
0010
0000
0010
0100
0000
0000
,  // measure 30
0100
0000
0100
1000
0000
0000
1000
0000
1000
0001
0000
0000
,  // measure 31
0001
0000
0001
0100
0000
0000
0100
0010
0100
0010
0100
0010
,  // measure 32
0100
0000
0001
1000
0000
1000
0001
0000
0001
1000
0000
1000
,  // measure 33
0001
0000
0001
0100
0000
0100
0010
0000
0010
1000
0000
1000
,  // measure 34
0001
0000
0001
0010
0000
0010
0001
0000
0001
0010
0000
0010
,  // measure 35
0001
0000
0001
0100
0000
0100
0010
0000
0010
1000
0000
1000
,  // measure 36
0001
0200
0310
0200
,  // measure 37
0301
0200
0310
0200
,  // measure 38
0301
1000
0010
1000
0001
0010
0001
1000
0010
1000
0001
0010
,  // measure 39
0001
1000
0100
1000
0001
0100
0001
1000
0100
1000
0001
0100
,  // measure 40
0001
1000
0100
1000
,  // measure 41
0010
0100
0002
0023
,  // measure 42
0130
0010
0001
1000
,  // measure 43
0020
2030
3200
0320
,  // measure 44
0130
1000
0010
0100
,  // measure 45
0001
0010
0100
0020
,  // measure 46
0031
0010
0100
1000
,  // measure 47
0002
0203
0320
2030
,  // measure 48
3100
0001
0100
1000
,  // measure 49
0010
0001
0010
0200
,  // measure 50
0301
0100
1000
0100
,  // measure 51
0020
2030
3002
0203
,  // measure 52
0310
1000
0010
0002
,  // measure 53
0013
0100
0001
0020
,  // measure 54
0130
0010
0001
1000
,  // measure 55
0002
0203
2300
3200
,  // measure 56
0310
1000
0001
0010
,  // measure 57
0100
0000
0010
0000
0001
0000
1000
0001
,  // measure 58
1000
0001
0100
0010
,  // measure 59
1000
0010
1000
0000
0001
0100
0001
0000
,  // measure 60
1000
0001
0010
0100
,  // measure 61
0010
0000
0001
0000
1000
0000
0010
0100
,  // measure 62
0010
0100
0010
1000
,  // measure 63
0001
0100
0001
0000
1000
0010
1000
0000
,  // measure 64
0001
0000
1000
0000
0100
1000
0100
0000
,  // measure 65
1000
0000
0010
0000
0100
0001
0100
0000
,  // measure 66
0001
0000
0010
0000
0100
0010
0100
0000
,  // measure 67
0010
0001
0010
0001
1000
0100
1000
0100
,  // measure 68
1000
0000
0010
0000
0100
0001
0100
0000
,  // measure 69
0001
0000
0100
0000
0010
1000
0010
0000
,  // measure 70
0100
0000
0001
0000
1000
0001
1000
0000
,  // measure 71
0001
0010
0100
1000
0100
0010
0001
0100
,  // measure 72
0010
0000
0000
0000
,  // measure 73
0000
0000
0000
0000
,  // measure 74
0000
0000
0000
0000
,  // measure 75
0000
0000
0000
0000
,  // measure 76
0000
0000
0000
0000
,  // measure 77
0000
0000
0000
0000
,  // measure 78
0110
0000
0000
0000
,  // measure 79
1001
0000
0000
0000
,  // measure 80
0110
0000
0000
0000
;

//---------------dance-single - ----------------
#NOTEDATA:;
#CHARTNAME:;
#STEPSTYPE:dance-single;
#DESCRIPTION:;
#CHARTSTYLE:;
#DIFFICULTY:Hard;
#METER:15;
#RADARVALUES:0.717510,0.966200,0.283196,0.124940,0.728814,603.000000,569.000000,34.000000,15.000000,0.000000,0.000000,0.000000,0.000000,0.000000,0.717510,0.966200,0.283196,0.124940,0.728814,603.000000,569.000000,34.000000,15.000000,0.000000,0.000000,0.000000,0.000000,0.000000;
#CREDIT:Pandemonium X;
#NOTES:
// measure 0
0000
0000
0000
0000
,  // measure 1
0001
0000
0001
0000
1000
0000
1000
0100
0000
0001
0100
0000
0010
0000
1000
0000
,  // measure 2
0100
0000
0000
1100
0000
0000
0011
0000
0000
0101
0000
0000
0020
0000
0030
0000
,  // measure 3
0100
0000
0100
0000
0001
0000
0010
0001
0000
0010
0001
0000
0100
0010
0000
0000
,  // measure 4
1000
0001
0010
0100
0010
0001
0100
0010
0100
0010
1000
0000
1001
0000
0101
0000
,  // measure 5
0100
0000
0001
0010
0000
0010
0100
0000
1000
0001
0100
0000
1010
0000
0101
0000
,  // measure 6
0011
0000
1100
0000
0001
0000
0001
0000
1001
0000
1000
0001
0000
0001
1000
0000
,  // measure 7
1000
0010
0100
0000
0001
0100
0001
0100
0001
0100
0001
0100
0020
0000
0030
0000
,  // measure 8
0100
0000
0001
0000
1001
0000
1000
0100
0000
0010
0001
0000
0010
0000
0001
0000
,  // measure 9
0100
0000
0100
0000
0110
0000
0010
0100
0000
0010
1000
0000
0001
0000
0010
0000
,  // measure 10
0001
0000
1000
0000
1001
0000
1000
0100
0000
1000
0100
0000
0010
0000
0001
0000
,  // measure 11
0010
1000
0010
0001
0100
0010
1001
0000
,  // measure 12
0101
0101
0101
0100
0010
1000
0100
0000
,  // measure 13
1100
1100
1100
1000
0001
0010
0100
0000
,  // measure 14
1100
0000
0000
0101
0000
0000
0110
0000
0000
1001
0000
0000
0011
0000
0100
0000
,  // measure 15
1010
0000
1000
0000
0001
1000
0010
1000
0100
0001
0100
1000
0020
0000
0000
0000
,  // measure 16
1030
0001
0100
0000
0000
0010
1000
0100
1000
0010
0000
0100
,  // measure 17
0001
0000
0001
0000
0000
0010
0001
0010
0100
1000
0010
0100
,  // measure 18
0010
0000
0010
0000
0000
0100
0010
1000
0001
0010
0000
0100
,  // measure 19
0010
0000
0010
0000
0000
0100
0001
0100
1000
0010
0100
0001
,  // measure 20
1000
0000
0000
1100
0000
0100
0010
0000
0010
0001
0000
0000
,  // measure 21
0101
0000
0000
0110
0000
0010
1000
0000
1000
0001
0010
0001
,  // measure 22
0100
0000
0000
1010
0000
1000
0100
0000
0010
0100
0000
0000
,  // measure 23
0110
0000
0000
0011
0000
0001
0010
1000
0010
0001
0100
0010
,  // measure 24
1000
0000
1000
0001
0010
0100
0010
0000
0010
0001
0100
0010
,  // measure 25
1000
0000
1000
0001
0010
0100
1000
0000
0100
1000
0010
0100
,  // measure 26
0001
0000
0001
0010
0001
1000
0100
0000
0100
0010
0100
1000
,  // measure 27
0010
0000
0010
0100
0001
0010
1000
0010
0100
0010
0001
1000
,  // measure 28
0100
0000
0100
1000
0010
0100
0010
0000
0010
0100
0001
1000
,  // measure 29
0100
0000
0100
0010
0001
0010
0100
0000
0010
0001
0100
0010
,  // measure 30
1000
0000
0100
1000
0010
0100
0001
0000
0001
0010
0100
0010
,  // measure 31
0001
0000
1000
0001
0010
0100
0010
0000
0100
1000
0010
0100
,  // measure 32
0001
0100
1000
0100
0001
0010
1000
0010
0001
0100
1000
0100
,  // measure 33
0001
0010
1000
0010
0001
0100
0010
0001
1000
0001
0000
0000
,  // measure 34
1000
0010
0001
0010
1000
0100
0001
0100
1000
0010
0001
0010
,  // measure 35
1000
0010
0001
0010
1000
0010
0100
1000
0001
1000
0000
0000
,  // measure 36
0001
0000
0001
1000
1000
0010
1000
0000
1000
0010
0010
0100
,  // measure 37
0001
0000
0010
0100
0100
1000
0010
0000
0100
0010
0010
1000
,  // measure 38
0001
0100
0010
1000
0001
0100
0010
1000
0001
0100
0010
1000
,  // measure 39
0001
0100
0010
1000
0001
0100
0010
1000
0001
0100
0010
1000
,  // measure 40
0100
1000
0010
0100
,  // measure 41
0001
0000
0010
0000
0100
0000
0010
0001
,  // measure 42
1000
0001
0100
0001
,  // measure 43
1000
0100
0010
0001
1000
0100
0010
0001
,  // measure 44
1000
0001
0100
0001
,  // measure 45
0010
0000
0100
0000
0010
0000
0100
1000
,  // measure 46
0010
0100
0001
0010
,  // measure 47
0100
0010
0001
0100
1000
0100
0010
1000
,  // measure 48
0001
0000
0010
0000
0100
0000
0010
0001
,  // measure 49
1000
0000
0100
0000
0010
0000
0100
1000
,  // measure 50
0010
0000
0100
0000
0001
1000
0001
0000
,  // measure 51
0001
0010
0001
0010
0100
1000
0001
0010
,  // measure 52
0100
1000
0100
0000
1000
0000
0010
0000
,  // measure 53
1000
0100
0010
0000
0010
0000
0001
0000
,  // measure 54
1000
0001
0010
0000
0001
0000
0100
0000
,  // measure 55
0010
1000
0100
1000
0001
0010
0100
0010
,  // measure 56
0001
0100
0010
0000
0100
0001
1000
0000
,  // measure 57
0001
0010
0100
0000
0010
0001
0100
0010
,  // measure 58
1000
0100
0010
0000
0100
1000
0010
0000
,  // measure 59
0100
0010
1000
0001
0010
0100
0010
0001
,  // measure 60
1000
0100
1000
0000
0010
0100
0010
0000
,  // measure 61
0100
0001
0100
0000
0001
0010
0100
0010
,  // measure 62
0001
1000
0001
0000
0100
0010
0100
0000
,  // measure 63
0001
0010
0001
0010
0100
1000
0010
0100
,  // measure 64
0001
0010
0200
0000
0310
1000
0002
0000
,  // measure 65
0013
0100
2000
0000
3100
0001
0100
1000
,  // measure 66
0010
0100
0002
0000
0013
0100
2000
0000
,  // measure 67
3100
1000
0010
0100
0001
0010
0100
0010
,  // measure 68
0001
1000
0200
0000
1300
0010
0200
0000
,  // measure 69
0310
1000
0002
0000
0013
0100
0010
0001
,  // measure 70
1000
0100
0020
0000
0130
1000
0020
0000
,  // measure 71
0130
1000
0100
0001
0010
1000
0010
0001
,  // measure 72
2002
0000
0000
0000
,  // measure 73
0000
0000
0000
0000
,  // measure 74
0000
0000
0000
0000
,  // measure 75
0000
0000
0000
0000
,  // measure 76
0000
0000
0000
0000
,  // measure 77
0000
0000
0000
3003
,  // measure 78
0001
0000
1000
0000
,  // measure 79
0001
1000
0001
1000
,  // measure 80
1001
0000
0000
0000
;

//---------------dance-single - ----------------
#NOTEDATA:;
#CHARTNAME:;
#STEPSTYPE:dance-single;
#DESCRIPTION:;
#CHARTSTYLE:;
#DIFFICULTY:Challenge;
#METER:17;
#RADARVALUES:0.875767,1.199420,0.374819,0.041647,1.578404,736.000000,691.000000,45.000000,5.000000,0.000000,0.000000,2.000000,0.000000,0.000000,0.875767,1.199420,0.374819,0.041647,1.578404,736.000000,691.000000,45.000000,5.000000,0.000000,0.000000,2.000000,0.000000,0.000000;
#CREDIT:Pandemonium X;
#NOTES:
// measure 0
0000
0000
0000
0000
,  // measure 1
1000
0000
1000
0000
0101
0000
0001
0010
0000
0010
0100
0000
1000
0001
0010
0100
,  // measure 2
1100
0000
0000
0011
0000
0000
1100
0000
0000
0011
0000
0000
2002
0000
3003
0000
,  // measure 3
0001
0000
0001
0000
1010
0000
0100
0010
0000
0100
0001
0000
1000
0100
0010
0001
,  // measure 4
0100
0000
0010
0000
0100
0000
0010
0000
0100
0000
0010
0000
1000
0000
0001
0000
1000
0000
0001
0000
1000
0000
0001
0000
1001
0000
0000
0110
0000
0000
0011
0000
0000
0000
0000
0000
0100
0000
0000
0000
0000
0000
0100
0000
0000
0000
0000
0000
,  // measure 5
0011
0000
0001
0100
0000
0001
1000
0000
0001
0010
0100
1000
1100
0000
0101
0000
,  // measure 6
1100
0000
0110
0000
0010
0000
0010
0000
1100
0000
0010
1000
0000
0001
0010
0000
,  // measure 7
0100
0010
0001
1000
0010
0100
0010
0100
0010
0100
0010
0100
0001
0000
0000
0000
,  // measure 8
0010
0000
0010
0000
0101
0000
0001
0010
0000
0010
0100
0000
0100
1000
0000
0100
,  // measure 9
0010
0001
1000
0000
1001
0000
0001
0100
0000
0001
0010
0000
0100
0010
0001
1000
,  // measure 10
0100
0000
0100
0000
1100
0000
1000
0001
0000
0010
0100
0000
0010
0001
0000
0000
,  // measure 11
0100
0001
0010
0000
0100
0000
0010
0001
0000
0100
0010
0000
1000
0001
0000
0010
,  // measure 12
0100
0000
1000
0000
0011
0000
0001
0100
0000
0001
1000
0000
0100
0010
0000
0100
,  // measure 13
1000
0001
1000
0000
1010
0000
0010
0100
0000
0001
0010
0000
0100
0010
0001
1000
,  // measure 14
1001
0000
0000
1001
0000
0000
0110
0000
0000
0110
0000
0000
1001
0000
0010
0000
,  // measure 15
1001
0000
0000
0000
0000
0000
0101
0000
0000
0000
0000
0000
1000
0000
0000
0010
0000
0000
0100
0000
0000
0001
0000
0000
0010
0000
0100
0000
1000
0000
0100
0000
0010
0000
0001
0000
2000
0000
0000
0000
0000
0000
3002
0000
0000
0000
0000
0000
,  // measure 16
0103
1000
0100
0000
0000
1000
0100
0010
1000
0001
0000
0010
,  // measure 17
0100
0000
1100
0000
0000
1000
0100
0001
0100
1000
0010
0100
,  // measure 18
0001
0000
1001
0000
0000
0001
0010
1000
0010
0001
0000
0010
,  // measure 19
0100
0000
1100
0000
0000
1000
0100
0001
0100
0010
0001
0010
,  // measure 20
0100
0000
1100
0000
0000
1000
0100
0001
0100
0010
0000
0100
,  // measure 21
1000
0000
0011
0000
0000
0001
0100
1000
0100
0010
1000
0001
,  // measure 22
0010
0000
1001
0000
0000
0001
0010
0001
0100
0010
0000
1000
,  // measure 23
0001
0000
1010
0000
0000
1000
0001
0001
1000
0010
0010
0100
,  // measure 24
0001
0000
0010
0001
0010
0100
1000
0000
1000
0100
0010
0001
,  // measure 25
1000
0000
1000
0100
0010
0001
0010
0000
0010
0100
1000
0100
,  // measure 26
0010
0000
0010
0100
1000
0100
0010
0000
0010
0001
0010
0100
,  // measure 27
0010
0000
0010
0001
0010
0100
0010
0001
0100
0010
1000
0001
,  // measure 28
1000
0000
0001
0100
1000
0100
0010
0000
0010
1000
0001
0010
,  // measure 29
0100
0000
0010
0001
0010
0100
1000
0000
0100
1000
0010
0100
,  // measure 30
0001
0000
1000
0100
0001
0100
1000
0000
1000
0010
0001
0010
,  // measure 31
1000
0000
1000
0010
0001
0010
0100
0100
0010
1000
1000
0001
,  // measure 32
1000
0100
0001
0100
1000
0010
0001
0010
1000
0100
0001
0100
,  // measure 33
1000
0010
0001
0010
1000
0100
0001
0100
1000
1001
0000
0000
,  // measure 34
0001
0010
1000
0010
0001
0100
1000
0100
0001
0010
1000
0010
,  // measure 35
0001
0100
1000
0100
0001
0010
1000
0010
0001
0100
0010
1000
,  // measure 36
0001
0000
1000
0001
0001
0100
0010
0000
1000
0010
0010
0100
,  // measure 37
0001
0000
1000
0100
0100
0010
0100
0000
0100
1000
1000
0010
,  // measure 38
4004
0000
0000
0000
,  // measure 39
0000
0000
0000
0000
0000
0000
0000
0000
0000
0000
0000
3003
,  // measure 40
0110
0000
1000
0010
0000
0010
1000
0000
1000
0001
0000
0001
,  // measure 41
0010
0000
0010
0100
0000
0100
0010
0001
0010
0001
0010
0001
,  // measure 42
1000
0000
0001
0100
0000
0100
0010
0000
0010
1000
0000
1000
,  // measure 43
0001
0010
0001
0010
0001
0010
0100
1000
0100
1000
0100
1000
,  // measure 44
0100
0000
1000
0001
0000
0001
0100
0000
0100
0010
0000
0010
,  // measure 45
0100
0000
0010
1000
0000
1000
0001
0010
0001
0100
0001
0100
,  // measure 46
0001
0000
0100
0001
0000
0001
1000
0000
1000
0100
0000
0100
,  // measure 47
0010
0100
0010
0100
0010
0100
1000
0001
1000
0001
1000
0001
,  // measure 48
1000
0000
0100
0010
0000
0100
1000
0000
0010
0100
0000
0001
,  // measure 49
0010
0000
0100
0010
0000
0001
0100
0001
0010
0001
0010
0001
,  // measure 50
0010
0000
0100
1000
0000
0010
0100
0000
0001
0010
0000
0100
,  // measure 51
0010
0001
0010
0001
0010
0001
1000
0010
1000
0010
1000
0010
,  // measure 52
1000
0000
0001
0010
0000
0100
0010
0000
0001
0100
0000
0100
,  // measure 53
0010
0000
1000
0001
0000
0010
0100
1000
0100
0010
0001
0010
,  // measure 54
0001
0000
1000
0001
0000
0100
0010
0000
1000
0010
0000
0100
,  // measure 55
0001
0010
0001
1000
0010
1000
0001
0100
0001
0100
0010
0100
,  // measure 56
0001
0000
1000
0100
0000
0100
0010
0000
0010
0100
0000
0100
,  // measure 57
0010
0000
0010
0001
0000
0001
0010
0100
0010
0100
1000
0100
,  // measure 58
0010
0000
0100
1000
0000
1000
0100
0000
0100
0010
0000
0010
,  // measure 59
0001
0100
0001
0100
0001
0100
0010
1000
0010
1000
0010
1000
,  // measure 60
0001
0000
1000
0001
0000
0001
0010
0000
0010
0100
0000
0100
,  // measure 61
0010
0000
0010
0001
0000
0001
0100
0010
0100
0010
1000
0001
,  // measure 62
1000
0000
0001
0100
0000
0100
0010
0000
0010
1000
0000
1000
,  // measure 63
0001
0010
0001
0010
0001
0010
0100
1000
0100
1000
0100
1000
,  // measure 64
0100
0000
0010
0001
0000
1000
0100
0000
1000
0010
0000
0010
,  // measure 65
0100
0000
0001
0100
0000
0010
1000
0001
0010
0100
0010
0001
,  // measure 66
1000
0000
0001
0010
0000
0100
1000
0000
0100
0010
0000
0100
,  // measure 67
1000
0010
1000
0010
1000
0010
0100
0001
0010
0100
1000
0001
,  // measure 68
0100
0000
0100
0010
0000
0100
0001
0000
0010
0100
0000
0100
,  // measure 69
0010
0000
0001
0010
0000
0100
1000
0010
1000
0001
0010
0100
,  // measure 70
1000
0000
0100
1000
0000
0010
0100
0000
0001
1000
0000
0100
,  // measure 71
1000
0010
0100
0001
1000
0100
0010
0100
1000
0001
0100
0010
,  // measure 72
2000
0000
0000
0000
,  // measure 73
0000
0000
0000
0000
,  // measure 74
0000
0000
0000
0000
,  // measure 75
0000
0000
0000
0000
,  // measure 76
0000
0000
0000
0000
,  // measure 77
0000
0000
0000
3000
,  // measure 78
1001
0000
0110
0000
,  // measure 79
1001
1001
1001
1001
,  // measure 80
1001
0000
0000
0000
;
