#TITLE:evergreen;
#SUBTITLE:;
#ARTIST:kors k;
#TITLETRANSLIT:;
#SUBTITLETRANSLIT:;
#ARTISTTRANSLIT:;
#GENRE:PROG;
#CREDIT:;
#BANNER:evergreen.png;
#BACKGROUND:evergreen-bg.png;
#LYRICSPATH:;
#CDTITLE:;
#MUSIC:evergreen.ogg;
#OFFSET:0.226000;
#SAMPLESTART:96.995041;
#SAMPLELENGTH:14.661659;
#SELECTABLE:YES;
#BPMS:0.000000=133.000000
;
#STOPS:
;
#BGCHANGES:0.500=evergreen.avi=1.000=0=0=1=====,
99999=-nosongbg-=1.000=0=0=0 // don't automatically add -songbackground-
;
#KEYSOUNDS:;
#ATTACKS:;

//---------------dance-single - ----------------
#NOTES:
     dance-single:
     :
     Hard:
     12:
     0.375596,0.560128,0.068587,0.076208,0.274348,345.000000,336.000000,9.000000,10.000000,0.000000,0.000000,0.375596,0.560128,0.068587,0.076208,0.274348,345.000000,336.000000,9.000000,10.000000,0.000000,0.000000:
// measure 0
0000
0000
0000
0000
,  // measure 1
0000
0000
0000
0000
,  // measure 2
0000
0000
0000
0000
,  // measure 3
0000
0000
0000
0000
,  // measure 4
2001
0010
0100
3010
,  // measure 5
0002
0100
0010
0103
,  // measure 6
2000
0010
0100
3010
,  // measure 7
0002
0100
0010
0103
,  // measure 8
1001
0000
0000
0000
,  // measure 9
0000
0000
0000
0000
,  // measure 10
1000
1000
1000
0001
,  // measure 11
0100
0100
0100
0010
,  // measure 12
1000
1000
1000
0100
,  // measure 13
0010
0010
0110
0011
,  // measure 14
0110
0100
0100
1000
,  // measure 15
0001
0001
0001
0100
,  // measure 16
0010
0000
0000
1000
0000
0000
0100
0000
0000
0000
0000
0000
0010
0000
0000
0000
,  // measure 17
0001
0100
0001
1000
,  // measure 18
0000
0001
0100
1000
0000
0001
0100
1000
,  // measure 19
0000
0001
0100
1000
0000
0100
0010
1000
,  // measure 20
0000
0001
0010
1000
0000
0001
0010
1000
,  // measure 21
0000
0001
0010
1000
0000
0001
0010
0100
,  // measure 22
1000
0001
0100
0010
0000
0001
0100
0010
,  // measure 23
0000
0001
0100
0010
0000
0100
0010
1000
,  // measure 24
0001
0000
0000
0010
0000
0000
0100
0000
0010
0000
0000
0000
0001
0000
0000
0000
,  // measure 25
0100
0000
0000
0000
0010
0000
0000
0000
1000
0000
0000
1000
0000
0000
1000
0000
,  // measure 26
2002
0000
0000
0000
,  // measure 27
3003
0000
0000
0000
,  // measure 28
1000
0001
0000
0000
0000
0000
0100
0010
0000
0000
0000
0000
0000
0000
0000
0000
,  // measure 29
0000
0000
0100
0000
0000
0100
0000
0000
0100
0000
0000
0000
0000
0000
0000
0000
,  // measure 30
1001
0000
0000
0000
,  // measure 31
0000
0000
0000
0000
,  // measure 32
0000
0000
0000
0000
,  // measure 33
0000
0000
0000
0000
,  // measure 34
2000
0000
0000
0000
,  // measure 35
0000
0000
3002
0000
,  // measure 36
0203
0000
0000
0000
,  // measure 37
0000
0000
0302
0000
,  // measure 38
0013
0000
0000
0100
0000
0000
1000
0000
0000
0000
0000
0000
0000
0000
0100
1000
,  // measure 39
0010
0000
0000
0000
0000
0000
0000
0000
0000
0000
0100
0010
1000
0000
0001
0000
,  // measure 40
1000
0000
0000
0001
0000
0000
0010
0000
0000
0000
0000
0000
0000
0000
0100
0010
,  // measure 41
0001
0000
0000
0000
0000
0000
0010
0001
0100
0000
0001
0000
1000
0000
0001
1000
,  // measure 42
0100
0000
0000
1000
0000
0000
0010
0000
0000
0000
0000
0000
0000
0000
0100
0001
,  // measure 43
1000
0000
0000
0000
0000
0000
0000
0000
0000
0000
0100
1000
0010
0000
1000
0000
,  // measure 44
0001
0000
0000
0010
0000
0000
0100
0000
0000
0000
0000
0000
0010
0100
1000
0000
,  // measure 45
0100
0000
0000
0010
0000
0000
0001
0000
0000
0000
1000
0000
0000
0000
0001
1000
,  // measure 46
0100
0000
0000
1000
0000
0000
0010
0000
0000
0000
0000
0000
0000
0000
0100
0010
,  // measure 47
1000
0000
0000
0000
0000
0000
0000
0000
0000
0000
0010
1000
0100
0000
0010
0000
,  // measure 48
0001
0000
0000
0010
0000
0000
0100
0000
0000
0000
0000
0000
0000
0000
0010
0001
,  // measure 49
0100
0000
0000
0000
0000
0000
0010
0100
0001
0000
0100
0000
0010
0000
1000
0001
,  // measure 50
1000
0000
0000
0100
0000
0000
1000
0000
0000
0000
0000
0000
0000
0000
0100
1000
,  // measure 51
0010
0000
0000
0000
0000
0000
0000
0000
0000
0000
0100
0010
1000
0000
0001
0000
,  // measure 52
1000
0000
0000
0100
0000
0000
0010
0000
0000
0000
0000
0000
0010
0001
0100
0000
,  // measure 53
0010
0000
1000
0010
0000
0100
0001
0000
1000
0010
0000
0100
0001
0000
1000
0001
,  // measure 54
1000
0000
0100
0010
0000
0100
1000
0000
0001
0000
0000
0000
1000
0000
0010
0100
,  // measure 55
0001
0000
0000
0000
1000
0000
0000
0000
0001
0000
1000
0001
0010
0000
0100
0000
,  // measure 56
0010
0000
0001
0010
0000
0001
0100
0000
0010
0000
0000
0000
1000
0000
0100
0010
,  // measure 57
0001
0000
0000
0000
0010
0000
0100
0010
0001
0000
1000
0000
0010
0000
0100
0001
,  // measure 58
1000
0000
0001
0100
0000
0010
1000
0000
0100
0000
0000
0000
0010
0000
0100
1000
,  // measure 59
0001
0000
0000
0000
1000
0000
0000
0000
0100
0000
0010
0100
1000
0000
0010
0000
,  // measure 60
0100
0000
0001
0010
0000
0010
0001
0000
1000
0000
0000
0000
0001
0100
0010
0000
,  // measure 61
1000
0000
0010
1000
0000
1000
0100
0000
0010
0000
0100
0000
1001
0000
0000
0000
,  // measure 62
0010
0000
1000
0001
0000
0010
0100
0000
0010
0000
0000
0000
0001
0000
0010
0001
,  // measure 63
1000
0000
0000
0000
0010
0000
0000
0000
1000
0000
0100
1000
0001
0000
0100
0000
,  // measure 64
0010
0000
1000
0001
0000
0010
0100
0000
0010
0000
0000
0000
0001
0000
0010
0001
,  // measure 65
0100
0000
0000
0000
0010
0000
0100
0001
1000
0000
0100
0000
0010
0000
0100
1000
,  // measure 66
0001
0000
1000
0010
0000
0010
0100
0000
0001
0000
0000
0000
0010
0000
0100
1000
,  // measure 67
0001
0000
0000
0000
1000
0000
0000
0000
0010
0000
1000
0001
0010
0000
0100
0000
,  // measure 68
0010
0000
0000
0001
0000
0000
0100
0000
0000
0000
0000
0000
0010
0100
0001
0000
,  // measure 69
1000
0000
0100
0010
0000
0010
0001
0000
1000
0000
0001
0000
0100
0000
0000
0000
,  // measure 70
1001
0000
0000
0000
;

//---------------dance-single - ----------------
#NOTES:
     dance-single:
     :
     Challenge:
     14:
     0.519302,0.710829,0.221003,0.251486,0.491541,477.000000,448.000000,29.000000,33.000000,0.000000,0.000000,0.519302,0.710829,0.221003,0.251486,0.491541,477.000000,448.000000,29.000000,33.000000,0.000000,0.000000:
0000
0000
0000
0000
,
0000
0000
0000
0000
,
0000
0000
0000
0000
,
0000
0000
0000
0000
,
0000
0000
1000
0010
0000
0000
0000
0000
0100
0000
0001
0010
0000
0000
0000
0000
,
0000
0000
0100
0010
0000
0000
0000
0000
0100
0000
1000
0010
0100
0000
0001
0000
,
1000
1000
0000
0000
0000
0000
1000
0001
0000
0000
0100
0010
0000
0000
0000
0000
,
0000
0000
1000
0010
0000
0000
0000
0000
0100
0000
0010
1000
0001
0000
0010
0000
,
0110
0000
0000
0000
,
0000
0000
0000
0000
,
0002
0013
0002
0103
0002
1003
0002
0013
,
0002
0103
0002
1003
0002
0013
0002
1003
,
0100
0010
0100
1000
0010
0100
0001
0010
,
0100
0000
0000
0010
0000
0000
0001
0000
0000
0100
0000
0000
0001
0000
0000
1000
0000
0001
1000
0000
0000
0001
0000
0000
,
0010
1000
0010
0001
0100
0010
1000
0001
,
1000
0100
0001
0100
1000
0010
0100
0001
,
2000
0000
0000
3200
0000
0000
0320
0000
0031
0000
0100
0000
1000
0000
0100
0000
,
0001
0000
0000
1000
0000
0000
0001
0000
0000
0010
0000
0000
0100
0000
0000
1000
0000
0001
1000
0000
0000
0001
0000
0000
,
0000
0000
1000
0010
0000
0000
0100
0000
0000
0001
0000
0000
0000
0000
1000
0010
0000
0000
0100
0000
0000
0001
0000
0000
,
0000
0000
1000
0010
0000
0000
0100
0000
0000
0001
0000
0000
1000
0000
0000
0100
0000
0000
0010
0000
0000
0001
0000
0000
,
1000
0000
0001
0010
0000
0000
0100
0000
0000
1000
0000
0000
0000
0000
0001
0010
0000
0000
0100
0000
0000
1000
0000
0000
,
0000
0000
0001
0010
0000
0000
0100
0000
0000
1000
0000
0000
1100
0000
0000
0000
0000
0000
0101
0000
0000
0000
0000
0000
,
0100
0000
0010
0100
0000
0000
0001
0000
0000
1000
0000
0000
0000
0000
0010
0100
0000
0000
0001
0000
0000
1000
0000
0000
,
0000
0000
0010
0100
0000
0000
0001
0000
0000
1000
0000
0000
0100
0000
0000
1000
0000
0000
0010
0000
0000
0000
0000
0000
,
0210
0000
0000
0302
0000
0000
0023
0000
0000
0000
0000
0000
0030
0000
0000
0000
,
0000
0000
0100
0000
0000
0100
0000
0000
0110
0000
0000
0011
0000
0000
1100
0000
,
1001
1000
0000
0000
0000
0000
0001
0001
0000
0000
0000
0000
0000
0000
0000
0000
,
0000
0000
0000
0000
,
0100
0100
0000
0000
0000
0000
0010
0100
0000
0000
0000
0000
0000
0000
0000
0000
,
0000
0000
0002
0000
0000
2003
0000
0000
3002
0000
0000
2003
0000
0000
3002
0000
,
0203
0000
0000
0000
,
0320
0000
2030
0000
,
3020
0000
0000
0000
,
0230
0000
0302
0000
,
2003
0000
0000
0000
,
0000
0000
3200
0000
,
2300
0000
0000
0000
,
0000
0000
0000
0000
0000
0000
0000
0000
3002
0000
0000
0000
0003
0000
1000
0001
,
0010
0000
0000
0000
0000
0000
0100
0000
0000
1000
0000
0000
0000
0000
0000
0001
0000
0000
1000
0000
0000
0000
0000
0000
0000
0000
0000
0000
0000
0000
0000
0000
0000
0000
0000
0000
0000
0000
0000
0000
0000
0000
0010
0000
1000
0000
0010
0000
,
0100
0000
0000
0000
0000
0000
0000
0000
0000
0000
0000
0000
0000
0000
0000
0010
0100
0010
1000
0000
0000
0001
0000
0000
,
0010
0000
0000
0000
0000
0000
0000
0000
0000
0100
0000
0000
0000
0000
0000
0000
0000
0000
0010
0000
0000
0000
0000
0000
0000
0000
0000
0000
0000
0000
0000
0000
0000
0000
0000
0000
0000
0000
0000
0000
0000
0000
0001
0000
0010
0000
0001
0000
,
1000
0000
0000
0000
0000
0000
0000
0000
1000
0001
0000
0001
0100
0000
0000
0010
0000
0000
1000
0000
0000
0001
1000
0001
,
1000
0000
0000
0000
0000
0000
0100
0000
0000
0010
0000
0000
0000
0000
0000
0001
0000
0000
1000
0000
0000
0000
0000
0000
0000
0000
0000
0000
0000
0000
0000
0000
0000
0000
0000
0000
0000
0000
0000
0000
0000
0000
0010
0000
0100
0000
0010
0000
,
1000
0000
0000
0000
0000
0000
0000
0000
0000
0000
0000
0000
0000
0000
0000
0001
0000
0010
0100
0000
0000
1000
0000
0000
,
1100
0000
0000
0000
0000
0000
0000
0000
0000
0011
0000
0000
0000
0000
0000
0000
0000
0000
0101
0000
0000
0000
0000
0000
0000
0000
0000
0000
0000
0000
0000
0000
0000
0000
0000
0000
0001
0000
0100
0000
0001
0000
0010
0000
0000
0000
0000
0000
,
1100
0000
0000
0011
0000
0000
1001
0000
0000
0000
0110
0000
0000
0000
1000
0010
,
0100
0000
0000
0000
0000
0000
0001
0000
0000
0010
0000
0000
0000
0000
0000
0100
0000
0000
1000
0000
0000
0000
0000
0000
0000
0000
0000
0000
0000
0000
0000
0000
0000
0000
0000
0000
0000
0000
0000
0000
0000
0000
0001
0000
1000
0000
0001
0000
,
0010
0000
0000
0000
0000
0000
0000
0000
0000
0000
0000
0000
0000
0000
0000
0100
0010
0100
1000
0000
0000
0001
0000
0000
,
0100
0000
0000
0000
0000
0000
0000
0000
0000
0010
0000
0000
0000
0000
0000
0000
0000
0000
1000
0000
0000
0000
0000
0000
0000
0000
0000
0000
0000
0000
0000
0000
0000
0000
0000
0000
0000
0000
0000
0000
0000
0000
0001
0000
0010
0000
0001
0000
,
0100
0000
0000
0000
0000
0000
0000
0000
0000
0000
0000
0000
0000
0000
0000
0010
0000
0000
0100
0000
0000
0001
0000
0000
1000
0000
0000
0000
0000
0000
0100
0000
0000
0000
0000
0000
0010
0000
0000
0000
0000
0000
0001
0000
0010
0000
0001
0000
,
1000
0000
0000
0000
0000
0000
0100
0000
0000
0010
0000
0000
0000
0000
0000
0100
0000
0000
1000
0000
0000
0000
0000
0000
0000
0000
0000
0000
0000
0000
0000
0000
0000
0000
0000
0000
0000
0000
0000
0000
0000
0000
0001
0000
1000
0000
0001
0000
,
0100
0000
0000
0000
0000
0000
0000
0000
0000
0000
0000
0000
0000
0000
0000
0010
0000
0100
0010
0000
0000
0100
0000
0000
,
0101
0000
0000
0011
0000
0000
1001
0000
0000
0000
1000
0100
0001
0200
0000
0300
,
0110
0000
0000
0000
0000
0000
0010
0000
0000
0010
0000
0000
0000
0000
0000
0100
0000
0000
0100
0000
0000
0000
0000
0000
0010
0000
0000
0110
0000
0000
0000
0000
0000
0010
0000
0000
1001
0000
0000
0000
0000
0000
0001
0000
1000
0000
0001
0000
,
0100
0000
0000
0000
0000
0000
0010
0000
0000
1000
0000
0000
0000
0000
0000
0001
0000
0000
0010
0000
0000
0000
0000
0000
0100
0000
0000
0000
0000
0000
0000
0000
0000
0000
0000
0000
0010
0000
0000
0000
0000
0000
0001
0000
0010
0000
0100
0000
,
0010
0000
0000
0000
0000
0000
0100
0000
0000
0000
0000
0000
1000
0000
0000
0010
1000
0010
0100
0000
0000
0001
0000
0000
,
1000
0000
0000
0000
0000
0000
0000
0000
0000
0100
0000
0000
0000
0000
0000
0000
0000
0000
0010
0000
0000
0000
0000
0000
0100
0000
0000
0000
0000
0000
0000
0000
0000
0000
0000
0000
1000
0000
0000
0000
0000
0000
0010
0000
0100
0000
0010
0000
,
1000
0000
0000
0000
0000
0000
0001
0000
0010
0001
0000
0001
0100
0000
0000
0010
0000
0000
1000
0000
0000
0001
1000
0001
,
0010
0000
0000
0000
0000
0000
0100
0000
0000
1000
0000
0000
0000
0000
0000
0100
0000
0000
0010
0000
0000
0000
0000
0000
0001
0000
0000
0000
0000
0000
0000
0000
0000
0000
0000
0000
0100
0000
0000
0000
0000
0000
0010
0000
1000
0000
0010
0000
,
0100
0000
0000
0000
0000
0000
0001
0000
0000
0000
0000
0000
0010
0000
0000
0100
0000
0100
1000
0000
0000
0010
0000
0000
,
0110
0000
0000
0000
0000
0000
0000
0000
0000
0101
0000
0000
0000
0000
0000
0000
0000
0000
0011
0000
0000
0000
0000
0000
0010
0000
0000
0000
0000
0000
0000
0000
0000
0000
0000
0000
0100
0000
1000
0000
0100
0000
0010
0000
0000
0000
0000
0000
,
0011
0000
0000
0000
0000
0000
0000
0000
0000
1100
0000
0000
0000
0000
0000
0000
0000
0000
0011
0000
0000
0000
0000
0000
0002
0000
0000
0000
0000
0000
2003
0000
0000
0000
0000
0000
3020
0000
0000
0000
0000
0000
0130
0000
0000
0000
0001
0000
,
0010
0000
0000
0000
0000
0000
0100
0000
0000
0010
0000
0000
0000
0000
0000
0001
0000
0000
0100
0000
0000
0000
0000
0000
0010
0000
0000
0000
0000
0000
1000
0000
0000
0000
0000
0000
0001
0000
0000
0000
0000
0000
1000
0000
0001
0000
1000
0000
,
0010
0000
0000
0100
0000
0000
0001
0000
0000
0010
0000
0000
0100
0000
0000
1000
0100
1000
0001
0000
0000
0100
0000
0000
,
0001
0000
0000
0000
0000
0000
0000
0000
0000
0010
0000
0000
0000
0000
0000
0000
0000
0000
0100
0000
0000
0000
0000
0000
0010
0000
0000
0000
0000
0000
0001
0000
0000
0000
0000
0000
0100
0000
0000
0000
0000
0000
0010
0000
0100
0000
0010
0000
,
1000
0000
0000
0100
0000
0000
1000
0000
0001
1000
0000
1000
0010
0000
0000
0100
0000
0000
0001
0000
0000
0010
0001
0010
,
0100
0000
0000
0000
0000
0000
1000
0000
0000
0100
0000
0000
0000
0000
0000
1000
0000
0000
0010
0000
0000
0000
0000
0000
0100
0000
0000
0000
0000
0000
0001
0000
0000
0000
0000
0000
0010
0000
0000
0000
0000
0000
0100
0000
0010
0000
0100
0000
,
1000
0000
0000
0001
0000
0000
0100
0000
0000
0001
0000
0000
0010
0000
0000
0100
0000
0100
1000
0000
0000
0010
0000
0000
,
0110
0000
0000
0000
0000
0000
0000
0000
0000
0100
0000
0000
0000
0000
0000
0000
0000
0000
1001
0000
0000
0000
0000
0000
0000
0000
0000
0000
0000
0000
0000
0000
0000
0000
0000
0000
0010
0000
0100
0000
0010
0000
0100
0000
0000
0000
0001
0000
,
1000
0000
0000
1000
0000
0000
1000
0000
0000
1000
0000
0000
1000
0000
0000
0001
0000
1000
0001
0000
0001
1000
0000
1000
,
0010
0010
0010
0010
,
0010
0010
0010
0010
;

//---------------dance-single - ----------------
#NOTES:
     dance-single:
     :
     Medium:
     8:
     0.284147,0.373419,0.129553,0.083829,0.057156,261.000000,244.000000,17.000000,11.000000,0.000000,0.000000,0.284147,0.373419,0.129553,0.083829,0.057156,261.000000,244.000000,17.000000,11.000000,0.000000,0.000000:
0000
0000
0000
0000
,
0000
0000
0000
0000
,
0000
0000
0000
0000
,
0000
0000
0000
0000
,
2001
0000
0001
0000
,
0001
0000
0001
0000
,
0010
0000
0010
0000
,
0010
0000
0010
3000
,
0202
0000
0000
0000
,
0000
0000
0000
0303
,
0001
1000
0010
1000
,
0100
1000
1001
0110
,
1001
1000
0100
0010
,
0001
1000
1010
0011
,
1010
1000
0001
0010
,
0100
0000
0010
0000
0001
1000
0100
0000
,
1000
0000
0000
0001
0000
0000
1000
0000
0001
0000
0000
0000
0100
0000
0000
0000
,
0010
0000
1000
0000
0001
0010
0100
0000
,
0000
0010
0001
0010
0000
0001
0010
0001
,
0000
0010
0001
0010
0000
0001
0010
0000
,
0000
1000
0100
1000
0000
0100
1000
0100
,
0000
1000
0100
1000
0000
0100
0010
0001
,
0000
1000
0001
1000
0000
0001
1000
0001
,
0000
1000
0001
1000
0000
0001
1000
0010
,
0100
0000
0000
0001
0000
0000
0010
0000
0100
0000
0000
0000
1000
0000
0000
0000
,
0010
0000
0200
0000
0000
0000
0000
0000
0310
0000
0000
0010
0000
0000
0010
0000
,
0100
0000
0000
0001
0000
0000
0000
0000
,
0000
0000
0000
0000
,
1000
0000
0000
0010
0000
0000
0000
0000
,
0000
0200
0000
0000
0000
0000
0300
0000
,
0020
0000
0000
0000
,
1000
0000
1000
0000
,
2030
0000
0000
0000
,
0001
0000
0001
0000
,
3002
0000
0000
0000
,
0000
0000
0010
0000
,
0023
0000
0000
0000
,
0000
0000
0230
0000
,
1300
0001
0100
0000
,
0110
0000
0000
0010
,
1000
0100
0010
0000
,
1001
0000
0000
0000
0001
0000
0100
0010
,
1000
0001
0010
0000
,
1100
0000
0000
0010
,
0011
0001
1001
0000
,
1010
0000
0010
0000
0110
0000
0000
1000
,
0001
0000
0010
0000
0100
0000
0010
0001
,
0100
0000
0010
0000
1000
0001
0010
0100
,
0010
0000
0001
0000
0100
0000
0010
1000
,
0100
0000
0010
0100
1000
0100
0010
0001
,
1000
0000
0000
0000
0001
0000
0010
0100
,
1000
0000
0010
0000
0100
0000
0010
1000
,
0002
0000
0000
0000
0000
0000
0000
0000
0003
0000
1000
0001
0000
0000
0000
0000
,
0100
0000
0000
0010
0000
0000
1000
0000
0001
0000
0010
0000
0100
0000
0000
0000
,
1000
0000
0000
0100
0000
0000
1000
0000
0000
0000
0000
0000
0000
0000
0100
0000
,
0010
0000
0000
0000
0000
0100
0010
0001
,
1000
0000
0000
0001
0000
0000
0100
0000
0000
0000
0000
0000
0000
0000
0001
0000
,
0010
0000
0000
0100
0010
0001
1000
0010
,
0100
0000
0000
0010
0000
0000
1000
0000
0000
0000
0000
0000
0000
0000
0100
0000
,
0010
0000
0000
0000
0000
0100
1000
0010
,
0100
0000
0000
0001
0000
0000
0100
0000
0000
0000
0000
0000
0001
0000
0010
0000
,
0100
0000
0000
0010
0000
0000
0001
0000
1000
0000
0001
0000
1001
0000
0000
0000
,
0001
0000
0000
1000
0000
0000
0010
0000
0000
0000
0000
0000
0000
0000
0100
0000
,
0010
0000
0000
0000
0000
1000
0100
0010
,
0100
0000
0000
1000
0000
0000
0010
0000
0000
0000
0000
0000
0000
0000
0100
0000
,
0001
0000
0000
0010
0001
1000
0100
0010
,
0100
0000
0000
1000
0000
0000
0001
0000
0000
0000
0000
0000
0000
0000
0100
0000
,
0010
0000
0000
0000
0000
0100
0010
1000
,
0001
0000
0000
0001
0000
0000
1000
0000
0000
0000
0000
0000
0001
0000
1000
0000
,
0001
0000
0000
0001
0000
0000
0001
0000
1000
0000
0100
0000
0010
0000
0000
0000
,
1001
0000
0000
0000
;

//---------------dance-single - ----------------
#NOTES:
     dance-single:
     :
     Easy:
     5:
     0.177456,0.320073,0.144795,0.045725,0.000000,163.000000,144.000000,19.000000,6.000000,0.000000,0.000000,0.177456,0.320073,0.144795,0.045725,0.000000,163.000000,144.000000,19.000000,6.000000,0.000000,0.000000:
0000
0000
0000
0000
,
0000
0000
0000
0000
,
0000
0000
0000
0000
,
0000
0000
0000
0000
,
1001
0000
0000
0000
,
1000
0000
0000
0000
,
0001
0000
0000
0000
,
0100
0000
0000
0000
,
0110
0000
0000
0000
,
0000
0000
0000
0000
,
1000
1000
1000
1000
,
0001
0001
0001
0001
,
0100
0100
0100
0100
,
0010
0010
0110
1001
,
0110
0010
1000
0001
,
0010
0100
0010
0001
,
1000
0001
0100
0001
,
1000
0100
0010
0001
,
1000
0001
1000
0010
,
1000
0100
1000
0001
,
1000
0010
1000
0001
,
1000
0100
0110
0011
,
1100
0100
0010
0100
,
1000
0100
0010
0100
,
0020
0000
0000
0030
0000
0000
0000
0000
,
0000
0002
0000
0000
0000
0000
0000
0000
,
1003
0000
0000
1000
0000
0000
0000
0000
,
0000
0000
0000
0000
,
1000
0000
0000
1000
0000
0000
0000
0000
,
0000
0020
0000
0000
0000
0000
0000
0000
,
0130
0000
0000
0000
,
0001
0000
1000
0000
,
0001
0000
0000
0000
,
0010
0000
0100
0000
,
1000
0000
0000
0000
,
0000
0000
0100
0000
,
0010
0000
0000
0000
,
0000
0000
0100
0000
,
1001
0000
0000
0000
,
0010
0000
0000
0000
,
0100
0000
0000
0000
,
0001
0000
1000
0000
,
0100
0000
0000
0000
,
0010
0000
0000
0100
,
1000
0000
0000
0010
,
0100
0000
0000
0000
,
1001
0000
0000
0000
,
0010
0000
0000
1000
,
0001
0000
0000
0000
,
0010
0000
0100
0010
,
0001
0000
0000
0000
,
1000
0000
0000
0001
,
1000
0000
0000
0000
0000
0020
0000
0000
,
0000
0000
0000
0030
,
0100
0001
0010
0000
,
1100
0000
0000
0100
,
1000
0010
0100
0000
,
0110
0000
0100
0001
,
0010
0100
1000
0000
,
0011
0000
0000
0010
,
0001
0001
1000
0001
,
1000
1000
0010
0110
,
1001
1000
0100
0000
,
1100
0000
0000
0010
,
0100
0001
1000
0000
,
0011
0000
0001
0100
,
0001
1000
0100
0000
,
0110
0000
0000
0100
,
2000
0000
3000
0000
,
0002
0000
0000
0003
,
0110
0000
0000
0000
;

//---------------dance-single - ----------------
#NOTES:
     dance-single:
     :
     Beginner:
     3:
     0.116489,0.240055,0.114312,0.000000,0.000000,107.000000,92.000000,15.000000,0.000000,0.000000,0.000000,0.116489,0.240055,0.114312,0.000000,0.000000,107.000000,92.000000,15.000000,0.000000,0.000000,0.000000:
0000
0000
0000
0000
,
0000
0000
0000
0000
,
0000
0000
0000
0000
,
0000
0000
0000
0000
,
1001
0000
0000
0000
,
0000
0000
0000
0000
,
1000
0000
0000
0000
,
0000
0000
0000
0000
,
0110
0000
0000
0000
,
0000
0000
0000
0000
,
0001
0000
0000
0000
,
1000
0000
0000
0000
,
0010
0000
0000
0000
,
1000
0000
0001
1000
,
0001
0000
0000
0000
,
0010
0000
0000
0000
,
0100
0000
0000
0000
,
1000
0000
0000
0000
,
1001
0000
0000
0000
,
0010
0000
0000
0000
,
0100
0000
0000
0000
,
0001
0000
1000
0001
,
1000
0000
0000
0000
,
0010
0000
0000
0000
,
0100
0000
0000
0000
,
0000
0000
0000
0000
,
1001
0000
0000
0000
,
0000
0000
0000
0000
,
0100
0000
0000
0000
,
0010
0000
0000
0000
,
1001
0000
0000
0000
,
0000
0000
0000
0000
,
0000
0000
0000
0000
,
0000
0000
0000
0000
,
1000
0000
0000
0000
,
0000
0000
0001
0000
,
0010
0000
0000
0000
,
0000
0000
0100
0000
,
1001
0000
0000
0000
,
0100
0000
0000
0010
,
1000
0000
0000
0000
,
0001
0000
0010
0001
,
0010
0000
0000
0000
,
0110
0000
0000
0100
,
1000
0000
0000
0001
,
1000
0000
0000
0000
,
0110
0000
0000
0000
,
0100
0000
0000
0010
,
1000
0000
0000
0000
,
0001
0000
0010
0001
,
0100
0000
0000
0000
,
0010
0000
0000
0100
,
0010
0000
0000
1000
,
0001
0000
0000
0000
,
1001
0000
0001
0000
,
0100
0000
0000
0000
,
0010
0000
1000
0000
,
0100
0000
1000
0000
,
0001
0000
1000
0000
,
0010
0000
0000
0000
,
0100
0100
0100
0000
,
0010
0010
0010
0000
,
1000
0001
0010
0000
,
1001
0000
0000
1000
,
0001
0100
0010
0000
,
0110
0000
0010
0010
,
1000
0001
0010
0000
,
1001
0000
0000
1000
,
1001
0000
0000
0010
,
1001
0000
0000
0000
,
0110
0000
0000
0000
;
