#TITLE:dazzle;
#SUBTITLE:;
#ARTIST:kobo feat. krague;
#TITLETRANSLIT:;
#SUBTITLETRANSLIT:;
#ARTISTTRANSLIT:;
#GENRE:;
#CREDIT:;
#BANNER:;
#BACKGROUND:;
#LYRICSPATH:;
#CDTITLE:;
#MUSIC:dazzle.ogg;
#OFFSET:-0.185000;
#SAMPLESTART:78.532349;
#SAMPLELENGTH:9.795921;
#SELECTABLE:YES;
#BPMS:0.000000=98.000000
;
#STOPS:
;
#BGCHANGES:;
#KEYSOUNDS:;
#ATTACKS:;

//---------------dance-single - ----------------
#NOTES:
     dance-single:
     :
     Hard:
     13:
     0.499511,0.622953,0.221048,0.080381,0.643048,348.000000,326.000000,22.000000,8.000000,0.000000,0.000000,0.499511,0.622953,0.221048,0.080381,0.643048,348.000000,326.000000,22.000000,8.000000,0.000000,0.000000:
// measure 0
0000
0000
0000
0000
,  // measure 1
0000
0000
0000
0000
,  // measure 2
1200
0000
0000
0301
0000
0000
0000
0000
0201
0000
0000
1300
0000
0000
0000
0000
,  // measure 3
1200
0000
0000
0301
0000
0000
0000
0000
0201
0000
0000
1300
0010
0000
0010
0000
,  // measure 4
1002
0000
0000
0000
1003
1000
0001
0010
0000
0000
0000
0000
0000
0000
0000
0000
,  // measure 5
0000
0000
0000
0000
0000
0000
0100
0000
0010
0000
0000
0100
0000
0000
1000
0000
,  // measure 6
1001
0000
0000
0000
0000
0000
0000
0010
,  // measure 7
0000
0000
0000
0000
,  // measure 8
1001
0000
0000
0000
0001
0001
0010
0100
1000
0000
0000
0000
0010
0000
0000
0000
,  // measure 9
0100
0000
0000
0000
0001
0000
1000
0000
0100
0000
0000
0100
0000
0000
0010
0000
,  // measure 10
0100
0000
0000
0000
1000
0000
0000
0000
0010
0000
0000
0000
0100
0010
0100
0001
,  // measure 11
1000
0000
0000
0100
0000
0000
0020
0000
0000
0000
0000
0000
0000
0000
0000
0000
,  // measure 12
0130
1000
0100
0000
1000
0010
0000
0100
0010
0000
1000
0010
0000
1000
0100
0000
,  // measure 13
1000
0010
0000
0100
0010
0000
1000
0010
0000
0100
0010
0000
0010
0100
0001
1000
,  // measure 14
0001
0010
0010
0001
0000
0100
0010
0000
0100
0001
0000
0010
0100
0000
0010
0001
,  // measure 15
0000
0100
0010
0000
0100
0001
0000
0010
0100
0000
0010
0001
1000
0000
1000
0000
,  // measure 16
1001
0001
1000
0000
0001
0100
0000
0010
1000
0000
0100
0010
0000
0100
1000
0000
,  // measure 17
0001
0100
0000
0010
1000
0000
0100
0010
0000
0001
0010
0000
0100
1000
0000
0010
,  // measure 18
0100
0000
0001
0010
0000
0001
0100
0000
0010
1000
0000
0100
0010
0000
0100
1000
,  // measure 19
0000
0010
0100
0000
0001
0010
0000
0100
0010
0000
0100
1000
0010
0000
0010
0000
,  // measure 20
1000
0100
0001
0100
1000
0000
0000
0000
0000
0000
0000
0000
0000
0000
0001
0001
,  // measure 21
1000
0010
0001
0010
2000
0000
0000
0000
0000
0000
0000
0000
3000
0000
0000
0000
,  // measure 22
0001
0100
1000
0100
0001
0000
0000
0000
0000
0000
0000
0000
0000
0000
0001
0000
,  // measure 23
1000
0001
0000
0010
0000
0000
0100
1000
0010
0100
0000
0000
0001
0000
1000
0000
,  // measure 24
1001
0000
0001
0010
0100
0000
0010
0000
0001
0000
0100
0000
0110
0000
0000
0000
,  // measure 25
1000
0100
0010
0100
1000
0000
0001
0000
1000
0000
0010
0000
0110
0000
0110
0000
,  // measure 26
0100
0001
1000
0100
0010
0000
0100
0000
1000
0000
0001
0000
0101
0000
0000
0000
,  // measure 27
0001
1000
0010
1000
0100
0000
0010
0000
0100
1000
0010
0100
0001
0000
0010
0000
,  // measure 28
0110
0000
0010
0001
0000
1000
0100
0010
0001
0000
0001
0100
0000
0010
1000
0001
,  // measure 29
1000
0000
0000
0000
0000
0000
1000
0000
0000
0001
0000
0000
0000
0000
0000
0100
0000
0000
0010
0000
1000
0000
0010
0000
0100
0000
0000
0000
0000
0000
0010
0000
0100
0000
0001
0000
0010
0000
0000
0100
0000
0000
1000
0000
0000
0000
0000
0000
,  // measure 30
0001
0000
0000
0100
0000
0000
0000
0000
0000
0101
0000
0000
0000
0000
0000
1100
0000
0000
0000
0000
0000
0000
0000
0000
1001
0000
0000
0000
0000
0000
0100
0000
0010
0000
0001
0000
1000
0000
0000
0001
0000
0000
1000
0000
0000
0001
0000
0000
,  // measure 31
1000
0010
0000
0110
0000
0100
0010
1000
0001
0001
1000
0001
0010
0010
0100
1000
,  // measure 32
0010
0000
0000
0000
0100
1000
0100
0001
1000
0000
0100
0000
0110
0000
0000
0000
,  // measure 33
0100
0000
0010
0001
0100
0000
0010
0000
1000
0001
0010
0000
0100
0010
0001
1000
,  // measure 34
0010
0000
0100
0000
0001
0000
1000
0010
0100
0000
0001
0000
1000
0000
0001
1000
,  // measure 35
0100
0010
0000
0210
0000
0000
0000
0000
1300
0000
0010
0000
0100
0000
0100
0000
,  // measure 36
1001
0000
1000
0001
0100
0000
0010
0000
1000
0100
0000
0010
0001
0000
1000
0001
,  // measure 37
1000
0001
0100
1000
0100
0000
0001
0010
0000
0000
0000
0000
0000
0100
1000
0001
,  // measure 38
1000
0000
0000
0000
0001
0000
0000
0000
1000
0000
0001
0000
0010
0100
0010
0001
,  // measure 39
0000
0000
0000
0000
0000
0000
0000
1000
1000
0001
0010
1000
0010
0010
0100
0010
,  // measure 40
0011
0000
0000
0000
;

//---------------dance-single - ----------------
#NOTES:
     dance-single:
     :
     Medium:
     8:
     0.262674,0.361715,0.170810,0.090429,0.170810,183.000000,166.000000,17.000000,9.000000,0.000000,0.000000,0.262674,0.361715,0.170810,0.090429,0.170810,183.000000,166.000000,17.000000,9.000000,0.000000,0.000000:
0000
0000
0000
0000
,
0000
0000
0000
0000
,
1001
0000
0000
0001
0000
0000
0000
0000
1000
0000
0000
0001
0000
0000
0000
0000
,
1000
0000
0000
0001
0000
0000
0000
0000
1000
0000
0000
0001
0100
0000
0100
0000
,
0010
0000
0000
0000
1000
0100
1000
0010
0000
0000
0000
0000
0000
0000
0000
0000
,
0000
0000
0000
0000
0000
0000
0100
0000
0010
0000
0000
0010
0000
0000
1000
0000
,
0001
0000
0000
0000
0000
0000
0000
0100
,
0000
0000
0000
0000
,
1001
0000
0000
0000
0001
0010
0100
0010
0000
0000
0000
0000
0000
0000
0000
0000
,
0000
0000
0000
0000
0000
0000
0100
0000
1000
0000
0000
1000
0000
0000
0001
0000
,
0100
0000
0000
0000
0000
0000
0000
0000
0000
0000
0000
0000
0000
0010
0100
0001
,
1000
0000
0000
0001
0000
0000
0020
0000
0000
0000
0000
0000
0030
0000
0000
0000
,
0100
1000
0010
0000
0100
0000
0010
0000
,
1000
0001
0010
0000
0100
0000
1000
0000
,
0100
1000
0010
0000
0100
0000
0001
0000
,
0010
0001
0100
0000
0010
1000
0100
0100
,
0010
0100
1000
0000
0100
0000
1000
0000
,
0010
0100
0001
0000
0010
0000
0100
0000
,
1000
0100
0010
0000
0100
0000
1000
0000
,
0001
0100
0010
0000
0100
0001
1000
1000
,
0002
0000
0003
0000
0000
0000
0000
1000
,
0200
0010
0000
0000
,
2300
0000
3000
0000
0000
0000
0000
0010
,
0200
0300
0002
0003
,
1000
0000
0001
0100
0001
0000
0000
0000
0000
0000
0000
0000
0000
0000
0000
0000
,
0100
0000
0010
1000
0010
0000
0000
0000
0000
0000
0000
0000
0000
0000
0000
0000
,
1000
0000
0001
0010
0001
0000
0000
0000
0000
0000
0000
0000
0000
0000
0000
0000
,
1000
0000
0001
0100
0001
0000
0000
0000
0100
0000
0010
1000
0010
0000
0000
0000
,
1001
0010
1001
0010
,
1001
0010
0101
1100
,
0101
1100
1010
0011
,
1001
1010
0101
1001
,
0110
0000
0000
0000
0000
0100
0010
1000
0000
0000
0000
0000
0000
0000
0000
0000
,
0000
0000
0000
0000
0000
0000
0000
0000
0000
0100
0010
0000
0100
0000
1000
0000
,
0020
0000
0000
0000
0000
0000
0000
0000
0000
0000
0000
0000
0030
0000
0000
0100
,
0010
0100
0000
0020
0000
0000
0000
0000
0000
0000
0000
0000
1000
0000
1030
0000
,
1001
0000
0001
0000
1000
0100
0010
0000
,
0100
0000
1000
0000
0010
0000
0100
0001
0000
0000
0000
0000
0000
0010
0000
0010
,
0002
0000
0000
0000
0000
0000
0000
0000
0003
0000
0000
0000
0000
1000
0100
0010
,
0000
0000
0000
0000
0000
0000
0000
0100
0010
0001
0100
0010
1000
0001
0010
0100
,
1000
0000
0000
0000
;

//---------------dance-single - ----------------
#NOTES:
     dance-single:
     :
     Easy:
     5:
     0.183728,0.241143,0.110524,0.110524,0.000000,128.000000,117.000000,11.000000,11.000000,0.000000,0.000000,0.183728,0.241143,0.110524,0.110524,0.000000,128.000000,117.000000,11.000000,11.000000,0.000000,0.000000:
0000
0000
0000
0000
,
0000
0000
0000
0000
,
2002
0000
0000
0000
,
0000
0000
0000
3003
,
0010
0000
2000
0000
0000
3000
0000
0000
,
0000
0000
0100
1000
,
0002
0000
0000
0000
0003
0000
0000
1000
,
0000
0000
0000
0000
,
0110
0000
0020
0000
0000
0030
0000
0000
,
0000
0000
1000
1000
,
0002
0000
0003
0000
,
0010
0001
1000
0000
,
0001
0100
0001
0010
,
0001
0000
1000
0000
0001
0000
0100
0100
,
0010
1000
0100
0010
,
0100
0000
1000
0000
0010
0000
0100
0100
,
0010
1000
0001
0010
,
0001
0000
1000
0000
0100
0000
1000
1000
,
0010
0100
0001
0010
,
0100
0000
0010
0000
0001
0000
1000
1000
,
0002
0003
0000
0000
,
0200
0310
0000
0000
,
2000
3000
0000
0000
,
0200
0300
0020
0030
,
0001
1001
0000
0000
,
1000
0101
0000
0000
,
1000
1001
0000
0000
,
1000
0011
1000
0101
,
0001
0001
1000
1000
,
0001
0001
1001
0110
,
1001
1000
0001
0100
,
0001
0010
0100
1000
,
1001
0001
1000
0010
,
1000
0000
0100
0000
1000
0000
0010
0100
,
0010
1000
0001
0010
,
0100
1000
0010
0000
0100
0000
0010
0010
,
0100
0010
1000
0001
,
0010
0100
1000
0100
,
0010
0000
0000
0000
,
0100
0000
0000
0000
0010
0001
0100
0010
,
1000
0000
0000
0000
;

//---------------dance-single - ----------------
#NOTES:
     dance-single:
     :
     Beginner:
     1:
     0.066027,0.100476,0.030143,0.000000,0.000000,46.000000,43.000000,3.000000,0.000000,0.000000,0.000000,0.066027,0.100476,0.030143,0.000000,0.000000,46.000000,43.000000,3.000000,0.000000,0.000000,0.000000:
0000
0000
0000
0000
,
0000
0000
0000
0000
,
1001
0000
0000
0000
,
0000
0000
0000
0000
,
0000
0010
0000
0000
,
0000
0000
1000
0000
,
0100
0000
0000
0000
,
1000
0000
0000
0000
,
1001
0000
0000
0000
,
0000
0000
0001
0000
,
0010
0000
0000
0000
,
0100
0000
0000
0000
,
0010
0000
0000
0000
,
1000
0000
0000
0000
,
0100
0000
0000
0000
,
1000
0000
0000
0000
,
0001
0000
0000
0000
,
0010
0000
0000
0000
,
0001
0000
0000
0000
,
0100
0000
0000
0000
,
0010
0000
0000
0000
,
1000
0000
0000
0000
,
0100
0000
0000
0000
,
1000
0000
0001
0000
,
0100
0000
0000
0000
,
0010
0000
0000
0000
,
1000
0000
0000
0000
,
0100
0000
1000
0000
,
0001
0000
0001
0000
,
0001
0000
0000
0000
,
1000
0000
1000
0000
,
1000
0000
0000
0000
,
0010
0000
0000
0000
,
0100
0000
0000
0000
,
0001
0000
0000
0000
,
0010
0000
0000
0000
,
0100
0000
0000
0000
,
1000
0000
0000
0000
,
0010
0000
0000
0000
,
0100
0000
0010
0000
,
1001
0000
0000
0000
;
