#VERSION:0.83;
#TITLE:Ypsilon;
#SUBTITLE:;
#ARTIST:setup;
#TITLETRANSLIT:;
#SUBTITLETRANSLIT:;
#ARTISTTRANSLIT:;
#GENRE:HARD STACC;
#ORIGIN:;
#CREDIT:;
#BANNER:Ypsilon.png;
#BACKGROUND:Ypsilon-bg.png;
#PREVIEWVID:;
#JACKET:Ypsilon-jacket.png;
#CDIMAGE:;
#DISCIMAGE:;
#LYRICSPATH:;
#CDTITLE:CDTitle.png;
#MUSIC:Ypsilon.ogg;
#OFFSET:0.412000;
#SAMPLESTART:53.577000;
#SAMPLELENGTH:17.999996;
#SELECTABLE:YES;
#BPMS:0.000=160.000;
#STOPS:;
#DELAYS:;
#WARPS:;
#TIMESIGNATURES:0.000=4=4;
#TICKCOUNTS:0.000=4;
#COMBOS:0.000=1;
#SPEEDS:0.000=1.000=0.000=0;
#SCROLLS:0.000=1.000;
#FAKES:;
#LABELS:0.000=Song Start;
#BGCHANGES:;
#KEYSOUNDS:;
#ATTACKS:
;

//---------------dance-single - ----------------
#NOTEDATA:;
#CHARTNAME:;
#STEPSTYPE:dance-single;
#DESCRIPTION:;
#CHARTSTYLE:;
#DIFFICULTY:Hard;
#METER:15;
#RADARVALUES:0.639111,0.893101,0.074425,0.396934,0.566457,541.000000,532.000000,9.000000,48.000000,0.000000,0.000000,0.000000,0.000000,0.000000,0.639111,0.893101,0.074425,0.396934,0.566457,541.000000,532.000000,9.000000,48.000000,0.000000,0.000000,0.000000,0.000000,0.000000;
#CREDIT:Pandemonium X;
#NOTES:
0000
0000
0000
0000
,
0000
0000
0000
0000
,
0000
0000
0000
0000
,
0000
0000
0000
0000
,
1001
0001
1000
1000
,
0100
0010
0001
0001
,
0010
0001
0100
0100
,
0001
1000
0010
0010
,
2000
0100
0100
0100
,
0001
0001
0001
3001
,
0100
0010
0100
0010
0100
0010
0100
0010
0100
0010
0100
0010
0100
0010
0100
0010
,
1000
0001
0000
0010
0100
0000
1000
0000
0100
0010
0000
0100
1000
0000
0001
0000
,
1000
0000
0000
1000
0000
0000
0001
0000
1000
0000
0000
0000
0000
0100
1000
0000
,
0010
0000
0000
0010
0000
0000
0100
0000
0010
0000
0000
0000
0000
0100
0001
0000
,
0010
0000
0000
0010
0000
0000
0100
0000
0010
0000
0000
0000
0000
0100
0010
0000
,
0100
0000
0000
0100
0000
0000
1000
0000
0010
0000
0000
0000
0000
0100
0001
0000
,
1000
0000
0000
1000
0000
0000
0001
0000
0010
0000
0000
0000
0000
0100
1000
0000
,
0001
0000
0000
0001
0000
0000
1000
0000
0100
0000
0000
0000
0000
0010
0001
0000
,
1000
0000
0000
1000
0000
0000
0001
0000
1000
0000
0000
0000
0000
0100
0010
0000
,
0001
0010
0000
0010
1000
0000
0010
0000
0001
0100
0000
1000
0100
0000
0001
0000
,
1000
0001
0010
0010
0001
1000
0010
0100
,
0001
0000
0000
0000
0010
0000
0000
0000
0100
0000
0000
0000
0010
0001
0010
0100
,
0010
0000
0000
0010
0000
0000
0100
0000
0010
0000
0000
0000
0000
0000
0000
0000
,
0100
0000
0000
0100
0000
0000
1000
0000
0100
0010
0100
0000
1001
0000
0000
0000
,
1000
0001
0010
0010
0100
1000
0010
1000
,
0001
0000
0000
0001
0000
0000
1000
0000
0001
0000
0000
0000
0100
0010
0100
0001
,
0100
0100
0010
0010
1000
1000
0100
0100
,
0010
0001
0010
0001
0010
0001
0010
0001
0010
0001
0010
0001
0010
0001
0010
0001
,
0010
0000
0100
0000
1000
0000
0010
0000
0200
0000
0000
0302
0000
0000
0013
0000
,
0100
0000
1000
0000
0100
0000
1000
0000
0020
0000
0000
0230
0000
0000
0301
0000
,
1000
0000
0010
0000
1000
0000
0010
0000
0200
0000
0000
0320
0000
0000
1030
0000
,
0001
0000
0010
0000
0001
0000
0010
0000
0200
0000
0000
2300
0000
0000
3001
0000
,
0100
0000
0010
0000
0100
0000
0010
0000
2000
0000
0000
3002
0000
0000
0103
0000
,
0001
0000
0010
0000
0001
0000
0010
0000
0200
0000
0000
2300
0000
0000
3010
0000
,
0100
0000
0001
0000
0100
0000
0001
0000
2000
0000
0000
3002
0000
0000
0013
0000
,
0100
1000
0000
1000
0001
0000
0100
0000
0010
1000
0000
0001
0100
0000
0001
0000
,
0010
0000
0100
0000
0010
0000
0001
0000
1000
0000
0000
0001
0000
0000
0100
0000
,
0020
0000
0000
0000
1030
0000
0100
0000
0010
0000
0000
0100
0000
0000
1000
0000
,
0002
0000
0000
0000
0103
0000
0001
0000
0010
0000
0000
0100
0000
0000
0010
0000
,
0000
0000
0001
0000
0000
0001
0000
0000
0100
0010
0100
0010
0100
0000
0000
0000
,
1001
0000
0000
0000
0001
0000
0100
0000
0010
0000
0000
1000
0000
0000
0100
0000
,
1100
0000
0000
0000
0001
0000
0010
0000
0100
0000
0000
0010
0000
0000
0001
0000
,
1001
0000
0010
0100
1001
0000
0100
0010
,
1001
0000
1000
0000
0001
0000
1000
0000
0010
0100
0000
0100
0010
0000
1000
0000
,
0200
0000
1300
0000
0020
0000
0130
0001
,
2000
0000
3100
0000
0020
0000
0130
1000
,
0002
0000
1003
0000
0200
0000
0310
0001
,
2000
3100
2000
3010
,
0200
0000
0310
0000
0200
0000
0301
1000
,
0200
0000
1300
0000
0002
0000
0103
0001
,
0020
0000
0130
0000
2000
0000
3001
0100
,
0020
0000
0000
0000
1030
0000
0000
0000
0001
1000
0001
1000
0001
1000
0001
1000
,
0010
0000
0010
0000
1000
0010
0000
1000
0000
0010
1000
0000
0001
0000
0000
0000
,
0010
0000
0001
0000
0010
0001
0000
0010
0000
0001
0010
0000
0001
0000
0000
0000
,
1000
0000
0001
0000
1000
0001
0000
1000
0000
0001
1000
0000
0001
0000
0000
0000
,
0100
0000
0010
0000
0100
0010
0000
0100
0000
0010
0100
0000
0001
1000
0001
1000
,
0001
0000
0100
0000
0001
0100
0000
0001
0000
0100
0001
0000
0100
0000
0000
0000
,
0001
0000
1000
0000
0001
1000
0000
0001
0000
1000
0001
0000
1000
0000
0000
0000
,
0100
0000
1000
0000
0100
1000
0000
0100
0000
1000
0100
0000
1000
0000
0000
0000
,
0010
0100
0000
0001
1000
0000
0100
0000
0010
0100
0000
0010
0001
0000
1000
0000
,
0010
0000
1000
0000
0100
0010
0000
0100
0000
1000
0001
0000
0100
0000
0001
0000
,
0010
0000
0001
0000
1000
0010
0000
1000
0000
0100
0010
0000
0100
0000
1000
0000
,
0001
0000
0010
0000
0001
0100
0000
0010
0000
1000
0100
0000
0010
0000
0100
0000
,
1000
0000
0001
0000
0100
0001
0000
0010
0000
0001
0100
0010
0100
0000
0001
0000
,
1000
0000
0001
0000
0010
0001
0000
0100
0000
0010
1000
0000
0100
0000
0010
0000
,
0001
0000
0010
0000
0001
0100
0000
0001
0000
1000
0100
0000
0010
0000
0100
0000
,
1000
0000
0001
0000
0100
0010
0000
1000
0000
0100
0010
0000
0100
0000
1000
0000
,
0001
0100
0001
0100
0001
0100
0001
0100
0001
0100
0001
0100
0001
0100
0001
0100
,
0001
0000
1000
0000
0100
0000
0010
0000
0200
0000
0000
2300
0000
0000
3010
0000
,
0100
0000
0001
0000
0010
0000
0001
0000
2000
0000
0000
3002
0000
0000
0103
0000
,
0001
0000
0010
0000
0100
0000
0010
0000
0002
0000
0000
0203
0000
0000
0310
0000
,
1000
0000
0100
0000
0010
0000
0001
1000
0001
1000
0001
0000
1001
0000
0000
0000
,
1000
0000
0001
0000
0010
0000
0100
0000
0020
0000
0000
0032
0000
0000
1003
0000
,
0001
0000
0100
0000
0001
0000
0010
0000
0200
0000
0000
0320
0000
0000
0031
0000
,
1000
0000
0010
0000
1000
0000
0100
0000
0020
0000
0000
0230
0000
0000
1300
0000
,
0010
0000
1000
0000
0001
0000
0010
0000
0200
0000
0000
2300
0000
0000
3010
0000
,
2002
0000
0000
0000
,
0000
0000
0000
0000
,
0000
0000
0000
0000
,
0000
0000
0000
0000
,
3003
0000
0000
0000
;

//---------------dance-single - ----------------
#NOTEDATA:;
#CHARTNAME:;
#STEPSTYPE:dance-single;
#DESCRIPTION:;
#CHARTSTYLE:;
#DIFFICULTY:Challenge;
#METER:17;
#RADARVALUES:0.822220,1.124645,0.107503,0.504437,1.223879,696.000000,683.000000,13.000000,61.000000,0.000000,0.000000,2.000000,0.000000,0.000000,0.822220,1.124645,0.107503,0.504437,1.223879,696.000000,683.000000,13.000000,61.000000,0.000000,0.000000,2.000000,0.000000,0.000000;
#CREDIT:Pandemonium X;
#NOTES:
// measure 0
0000
0000
0000
0000
,  // measure 1
0000
0000
0000
0000
,  // measure 2
0000
0000
0000
0000
,  // measure 3
0000
0000
0000
0000
,  // measure 4
2000
0100
0010
3001
,  // measure 5
0002
0100
0010
1003
,  // measure 6
2000
0100
0010
3001
,  // measure 7
0002
0100
0010
1003
,  // measure 8
0200
1000
0010
0001
,  // measure 9
0010
1000
0010
0301
,  // measure 10
1000
0000
0000
0001
0000
0000
1000
0000
0000
0001
0000
0000
1000
0000
0000
0001
0000
0000
1000
0000
0000
0001
0000
0000
1000
0000
0001
0000
1000
0000
0001
0000
1000
0000
0001
0000
1000
0000
0001
0000
1000
0000
0001
0000
1000
0000
0001
0000
,  // measure 11
1000
0001
0000
0010
0100
0000
1100
0000
1000
0010
0000
0100
0001
0000
1001
0000
,  // measure 12
1010
0000
0000
1000
0000
0000
0100
0000
1000
0000
0000
0000
0000
0010
0100
0000
,  // measure 13
0001
0000
0000
0001
0000
0000
0100
0000
0001
0000
0000
0000
0000
0100
0010
0000
,  // measure 14
0100
0000
0000
0100
0000
0000
0001
0000
0010
0000
0000
0000
0000
0100
0010
0000
,  // measure 15
0001
0000
0000
0001
0000
0000
1000
0000
0001
0000
0000
0000
0000
0100
0010
0000
,  // measure 16
1000
0000
0000
1000
0000
0000
0001
0000
0010
0000
0000
0000
0000
0100
0010
0000
,  // measure 17
0001
0000
0000
0001
0000
0000
0100
0000
0010
0000
0000
0000
0000
0100
0010
0000
,  // measure 18
1000
0000
0000
1000
0000
0000
0100
0000
0010
0000
0000
0000
0000
0100
1000
0000
,  // measure 19
0001
0010
0000
0010
1000
0000
1001
0000
1000
0100
0000
0100
0001
0000
1001
0000
,  // measure 20
1000
0010
0000
0000
0100
0010
1000
0000
0100
0010
0001
0000
0010
0100
1000
0001
,  // measure 21
1000
0000
0000
0100
0000
0000
1000
0000
0010
0000
0000
0000
0100
0010
0100
0001
,  // measure 22
1000
0000
0000
0001
0000
0000
1000
0000
0100
0000
0000
0000
1000
0000
0000
0000
,  // measure 23
0010
0000
0000
1000
0000
0000
0001
0000
0010
0000
0200
0320
0200
0330
0000
0000
,  // measure 24
1000
0000
0001
0000
0100
0010
0000
0000
1000
0010
0000
0000
0100
0001
0000
0000
,  // measure 25
0001
0000
0000
0010
0000
0000
0001
0000
1000
0000
0000
0000
0001
0010
0001
1000
,  // measure 26
0100
0100
1000
1000
0010
0010
0100
0100
,  // measure 27
0001
0000
0000
1000
0000
0000
0001
0000
0000
1000
0000
0000
0001
0000
0000
1000
0000
0000
0001
0000
0000
1000
0000
0000
0001
0000
1000
0000
0001
0000
1000
0000
0001
0000
1000
0000
0001
0000
1000
0000
0001
0000
1000
0000
0001
0000
1000
0000
,  // measure 28
0001
0000
0100
0001
0010
0000
0010
0001
0100
0000
0100
0010
0000
0010
1000
0000
,  // measure 29
0001
0000
1000
0100
0010
0000
0010
0100
1000
0000
0001
0100
0000
0001
1000
0000
,  // measure 30
0100
0000
0010
0100
1000
0000
1000
0100
0010
0000
0100
0010
0000
0100
1000
0000
,  // measure 31
0001
0000
0100
0001
0010
0000
0010
0001
0100
0000
0001
1000
0000
0100
0010
0000
,  // measure 32
0110
0000
0010
0001
0100
0000
0001
1000
0100
0000
0010
0100
0000
0010
0001
0000
,  // measure 33
0010
0000
0001
1000
0010
0000
0100
0001
0010
0000
0100
1000
0000
0100
0010
0000
,  // measure 34
0100
0000
1000
0010
0100
0000
0010
1000
0001
0000
0010
0001
0000
1000
0001
0000
,  // measure 35
1000
0100
0000
0100
0001
0000
1001
0000
0001
0010
0000
0010
1000
0000
0110
0000
,  // measure 36
0001
0100
0000
0001
1000
0000
0100
0000
0020
0000
0000
0230
0000
0000
1000
0000
,  // measure 37
2300
0000
0000
0000
3010
0000
0100
0000
0002
0000
0000
2003
0000
0000
0010
0000
,  // measure 38
3020
0000
0000
0000
0130
0000
0001
0000
0020
0000
0000
0230
0000
0000
0320
0000
,  // measure 39
0030
0000
0000
0000
0000
0000
0002
0000
0000
0000
0000
0000
0000
0000
0000
0023
0000
0000
0000
0000
0000
0000
0000
0000
0230
0000
0300
0000
0020
0000
0230
0000
0300
0000
0200
0000
0320
0000
0030
0000
0000
0000
0000
0000
0000
0000
0000
0000
,  // measure 40
1000
0001
0000
0010
0100
0000
0010
0000
0002
0000
0000
0103
0001
1000
0001
1000
,  // measure 41
0001
0000
0000
0000
1000
0000
0100
0000
0010
0000
0000
0000
0100
1000
0100
1000
,  // measure 42
0100
0000
0000
0000
1000
0010
1000
0010
1000
0000
0000
0000
0001
0100
0001
0100
,  // measure 43
0001
0000
0010
0000
1000
0000
0010
0000
0001
0010
0000
0100
1000
0000
0001
0000
,  // measure 44
1001
0000
1000
0000
0010
0000
1000
0000
0001
0010
0000
0100
0000
0010
0000
0001
,  // measure 45
0100
0001
0000
1000
0001
0010
0100
0000
0010
0000
0000
0100
0000
1000
0000
0001
,  // measure 46
1000
0000
0100
0000
0000
0010
0000
0001
0000
0100
0000
0001
0000
1000
0000
0100
,  // measure 47
0010
0001
0000
0100
0010
1000
0001
0000
1000
0000
0000
0001
0000
0010
0000
0100
,  // measure 48
0010
0000
0000
0000
0100
0000
1000
0000
0010
1000
0000
0001
0000
0010
0000
0100
,  // measure 49
1000
0001
0000
1000
0001
0010
0100
0000
0010
0000
0000
0100
0000
0010
0000
0001
,  // measure 50
1000
0000
0001
0000
0000
0100
0000
0010
0000
1000
0000
0010
0000
0100
0000
0001
,  // measure 51
0010
0000
0000
0100
0000
0000
0000
0000
0000
0100
0000
0000
0010
0000
0000
0001
0000
0000
1000
0000
0000
0000
0000
0000
0001
0000
0000
1000
0000
0000
0001
0000
1000
0000
0001
0000
1000
0000
0001
0000
1000
0000
0001
0000
0000
1000
0000
0000
,  // measure 52
0001
0000
0100
0000
0001
0100
0000
0001
0000
0100
0001
0000
0100
0001
0100
0001
,  // measure 53
1000
0000
0100
0000
1000
0100
0000
1000
0000
0100
1000
0000
0100
1000
0100
0010
,  // measure 54
0001
0000
1000
0000
0001
1000
0000
0001
0000
1000
0001
0000
1000
0001
1000
0001
,  // measure 55
0010
0000
0000
0000
0000
0000
0100
0000
0000
0000
0000
0000
0010
0000
0000
0100
0000
0000
0000
0000
0000
0010
0000
0000
0000
0000
0000
0100
0000
0000
0010
0000
0000
0000
0000
0000
0200
0000
0300
0000
0200
0000
2300
0000
3000
0000
2000
0000
,  // measure 56
3002
0000
0003
0000
0000
0000
1000
0000
0000
0000
0000
0000
0001
0000
0000
1000
0000
0000
0000
0000
0000
0010
0000
0000
0000
0000
0000
1000
0000
0000
0001
0000
0000
0000
0000
0000
1000
0000
0000
0100
0000
0000
0010
0000
0000
0001
0000
0000
,  // measure 57
0010
0000
0100
0000
0010
0100
0000
1000
0000
0100
0010
0000
0001
0010
0100
1000
,  // measure 58
0001
0000
0000
0000
0000
0000
0100
0000
0000
0010
0000
0000
0100
0000
0000
0010
0000
0000
0100
0000
0000
0010
0000
0000
0100
0000
0000
0010
0000
0000
0100
0000
0010
0000
0100
0000
0010
0000
0100
0000
0010
0000
0100
0000
0000
0010
0000
0000
,  // measure 59
0100
0100
0000
0001
0001
0000
1001
0000
1000
1000
0000
0100
0100
0000
0110
0000
,  // measure 60
0010
0000
0100
0000
1000
0010
0000
0100
0000
0001
0010
0000
0100
0010
0001
1000
,  // measure 61
0001
0000
0100
0000
0001
0010
0000
0100
0000
0010
0001
0000
1000
0100
0001
0100
,  // measure 62
1000
0000
0100
0000
0010
0001
0000
0010
0000
0100
0010
0000
0100
1000
0010
0100
,  // measure 63
0001
0000
0000
0000
1000
0000
0000
0000
0001
0000
0010
0000
0000
0000
0100
0000
0000
0000
0010
0000
0002
0000
2003
3000
2002
0000
3003
0000
0000
0000
0000
0000
,  // measure 64
1000
0000
0010
0000
0100
0001
0000
0010
0000
0100
0010
0000
0100
1000
0001
0100
,  // measure 65
0010
0000
1000
0000
0001
0010
0000
0100
0000
0010
0001
0000
1000
0100
0001
0100
,  // measure 66
1000
0000
0010
0000
0100
0001
0000
0010
0000
0001
1000
0000
0010
0100
0001
0010
,  // measure 67
0100
0000
0000
1000
0000
0000
0100
0000
0000
1000
0000
0000
0100
0000
0000
1000
0000
0000
0100
0000
0000
1000
0000
0000
0100
0000
1000
0000
0100
0000
1000
0000
0100
0000
1000
0000
0100
0000
0000
1000
0000
0000
0100
0000
0000
1000
0000
0000
,  // measure 68
0100
0000
0010
0001
0100
0010
1000
0001
0020
0000
0000
0230
0000
0000
2300
0000
,  // measure 69
3001
0000
1000
0010
1000
0001
0010
0100
2000
0000
0000
3020
0000
0000
0230
0000
,  // measure 70
0301
0000
1000
0100
1000
0001
0010
0100
0020
0000
0000
0032
0000
0000
0203
0000
,  // measure 71
0310
0000
0000
0000
0000
0000
1000
0000
0000
0010
0000
0000
1000
0000
0000
0001
0000
0000
2000
0000
3002
0000
2003
0000
3002
0000
0003
0000
2000
0000
3020
0000
0030
0000
0020
0000
0230
0000
0300
0000
0000
0000
0000
0000
0000
0000
0000
0000
,  // measure 72
0010
0000
0100
0001
0100
0001
1000
0100
0020
0000
0000
0230
0000
0000
2300
0000
,  // measure 73
3010
0000
0100
0010
1000
0001
0010
0001
2000
0000
0000
3002
0000
0000
0023
0000
,  // measure 74
0130
0000
0010
0001
1000
0100
0010
0100
2000
0000
0000
3020
0000
0000
0230
0000
,  // measure 75
0301
0000
1000
0010
0100
0001
0010
0100
2000
0000
0000
3001
0000
0000
0100
0000
,  // measure 76
4004
0000
0000
0000
,  // measure 77
0000
0000
0000
0000
,  // measure 78
0000
0000
0000
0000
,  // measure 79
0000
0000
0000
0000
,  // measure 80
3003
0000
0000
0000
;

//---------------dance-single - ----------------
#NOTEDATA:;
#CHARTNAME:;
#STEPSTYPE:dance-single;
#DESCRIPTION:;
#CHARTSTYLE:;
#DIFFICULTY:Medium;
#METER:11;
#RADARVALUES:0.466633,0.628478,0.090964,0.132311,0.272892,395.000000,384.000000,11.000000,16.000000,0.000000,0.000000,0.000000,0.000000,0.000000,0.466633,0.628478,0.090964,0.132311,0.272892,395.000000,384.000000,11.000000,16.000000,0.000000,0.000000,0.000000,0.000000,0.000000;
#CREDIT:Pandemonium X;
#NOTES:
0000
0000
0000
0000
,
0000
0000
0000
0000
,
0000
0000
0000
0000
,
0000
0000
0000
0000
,
1000
0001
0010
0010
,
0001
1000
0100
0100
,
0010
0001
1000
1000
,
0100
0010
0001
0001
,
0200
0010
0010
0001
,
0001
0010
0010
0001
,
0310
1000
0010
1000
0001
0100
0001
0100
,
0001
1000
0000
0001
1000
0000
0001
0000
0100
0010
0000
0100
0010
0000
1000
0000
,
0001
0000
0000
0010
0000
0000
0001
0000
0100
0000
0000
0000
0000
0000
0000
0000
,
0010
0000
0000
1000
0000
0000
0100
0000
1000
0000
0000
0000
0000
0000
0000
0000
,
0001
0000
0000
0010
0000
0000
0100
0000
0010
0000
0000
0000
0000
0000
0000
0000
,
0100
0000
0000
1000
0000
0000
0010
0000
0100
0000
0000
0000
0000
0000
0000
0000
,
0110
0000
0000
0100
0000
0000
0001
0000
1000
0000
0000
0000
0000
0000
0000
0000
,
0001
0000
0000
1000
0000
0000
0100
0000
1000
0000
0000
0000
0000
0000
0000
0000
,
0010
0000
0000
0100
0000
0000
0001
0000
0010
0000
0000
0000
0000
0000
0000
0000
,
0100
0010
0000
0100
1000
0000
0100
0000
0010
0001
0000
0010
0100
0000
1000
0000
,
0001
1000
0001
0000
0100
0001
0100
0000
,
0001
0010
0001
0000
0010
0000
0100
1000
,
0010
0000
0000
0100
0000
0000
0001
0000
0010
0000
0000
0000
0100
0000
0000
0000
,
0010
0000
0000
0001
0000
0000
1000
0000
0010
0000
0200
0000
0301
0000
0000
0000
,
1000
0010
0100
0000
0010
1000
0001
0000
,
0010
0100
1000
0000
0100
0000
0010
0001
,
1000
0001
1000
0001
1000
0001
1000
0001
,
2000
3020
0230
0302
,
0013
0000
0000
0000
0100
0000
0000
0000
1000
0000
0000
0100
0000
0000
1000
0000
,
0010
0000
0000
0000
0100
0000
0000
0000
0010
0000
0000
1000
0000
0000
0001
0000
,
0010
0000
0000
0000
0100
0000
0000
0000
0010
0000
0000
0001
0000
0000
1000
0000
,
0100
0000
0000
0000
1000
0000
0000
0000
0010
0000
0000
0100
0000
0000
0001
0000
,
1000
0000
0000
0000
0001
0000
0000
0000
0010
0000
0000
0001
0000
0000
0100
0000
,
0010
0000
0000
0000
0100
0000
0000
0000
0010
0000
0000
0100
0000
0000
0001
0000
,
1000
0000
0000
0000
0100
0000
0000
0000
0010
0000
0000
0100
0000
0000
1000
0000
,
0001
0100
0000
0010
1000
0000
0001
0000
1000
0100
0000
0010
0001
0000
1000
0000
,
0001
0000
0000
0100
0000
0000
0001
0000
0010
0000
0000
0100
0000
0000
1000
0000
,
2000
0000
0000
0000
3000
0000
0000
0000
0001
0000
0000
0010
0000
0000
0001
0000
,
0002
0000
0000
0000
0003
0000
0000
0000
0100
0000
0000
0010
0000
0000
1000
0000
,
0000
0000
0001
0000
0000
0010
0000
0000
0100
0000
0100
0000
0110
0000
0000
0000
,
1001
0000
0000
0000
1000
0000
0001
0000
0010
0000
0000
0001
0000
0000
0100
0000
,
0020
0000
0000
0000
0030
0000
0000
0000
0100
0000
0000
0001
0000
0000
0010
0000
,
0200
0000
0000
0000
0300
0000
0000
0000
0010
0000
0000
0001
0000
0000
1000
0000
,
0001
0000
0100
0000
0010
0000
1000
0000
0001
0000
0000
0100
0000
0000
0010
0000
,
1001
1000
0001
0010
,
0001
1000
0100
0001
,
0100
1000
0010
1000
,
0001
0010
1000
0010
,
0100
0010
0001
0100
,
1000
0100
0010
1000
,
0001
0010
0100
0010
,
0001
1000
0020
0000
,
0130
0000
0100
0000
0001
0000
0000
0010
0000
0000
0100
0000
1000
0000
0000
0000
,
0100
0000
0100
0000
1000
0000
0000
0100
0000
0000
0010
0000
0001
0000
0000
0000
,
0010
0000
0010
0000
0100
0000
0000
1000
0000
0000
0001
0000
0100
0000
0000
0000
,
0001
0000
0001
0000
1000
0000
0000
0001
0000
0000
1000
0000
0020
0030
0020
0030
,
0110
0000
0100
0000
0010
0000
0000
1000
0000
0000
0001
0000
0010
0000
0000
0000
,
0100
0000
0010
0000
0001
0000
0000
0010
0000
0000
0100
0000
1000
0000
0000
0000
,
0100
0000
1000
0000
0010
0000
0000
0100
0000
0000
0010
0000
1000
0000
0000
0000
,
0001
0100
0000
0010
1000
0000
0001
0000
1000
0100
0000
0010
0001
0000
1000
0000
,
0001
0000
0100
0000
0010
0000
0000
0100
0000
0000
0001
0000
0011
0000
0000
0000
,
0010
0000
0100
0000
1000
0000
0000
0001
0000
0000
1000
0000
0001
0000
0010
0000
,
0100
0000
0010
0000
0001
0000
0000
1000
0000
0000
0010
0000
0110
0000
0000
0000
,
0100
0000
0010
0000
1000
0000
0000
0001
0000
0000
0010
0100
1000
0000
0000
0000
,
0001
0000
1000
0000
0100
0000
0000
1000
0000
0000
0010
0000
0110
0000
0000
0000
,
0100
0000
0001
0000
0010
0000
0000
0100
0000
0000
0010
0000
0100
0000
1000
0000
,
0001
0000
1000
0000
0010
0000
0000
1000
0000
0000
0100
0000
0110
0000
0000
0000
,
0020
0000
0000
0000
,
0031
0000
0000
0000
0100
0000
0000
0000
0010
0000
0000
0100
0000
0000
0001
0000
,
1000
0000
0000
0000
0100
0000
0000
0000
0010
0000
0000
0100
0000
0000
1000
0000
,
0010
0000
0000
0000
0100
0000
0000
0000
0010
0000
0000
1000
0000
0000
0001
0000
,
1000
0000
0000
0000
0100
0000
0000
1000
0100
0000
0010
0000
0011
0000
0000
0000
,
1000
0000
0000
0000
0010
0000
0000
0000
1000
0000
0000
0001
0000
0000
0010
0000
,
0100
0000
0000
0000
0010
0000
0000
0000
0001
0000
0000
0010
0000
0000
0100
0000
,
0010
0000
0000
0000
0001
0000
0000
0000
1000
0000
0000
0010
0000
0000
0100
0000
,
0001
0000
0000
0000
0100
0000
0000
0000
0010
0000
0000
1000
0000
0000
0010
0000
,
2002
0000
0000
0000
,
0000
0000
0000
0000
,
0000
0000
0000
0000
,
0000
0000
0000
0000
,
3003
0000
0000
0000
;

//---------------dance-single - ----------------
#NOTEDATA:;
#CHARTNAME:;
#STEPSTYPE:dance-single;
#DESCRIPTION:;
#CHARTSTYLE:;
#DIFFICULTY:Easy;
#METER:7;
#RADARVALUES:0.308332,0.430011,0.148850,0.305970,0.000000,261.000000,243.000000,18.000000,37.000000,0.000000,0.000000,0.000000,0.000000,0.000000,0.308332,0.430011,0.148850,0.305970,0.000000,261.000000,243.000000,18.000000,37.000000,0.000000,0.000000,0.000000,0.000000,0.000000;
#CREDIT:Pandemonium X;
#NOTES:
0000
0000
0000
0000
,
0000
0000
0000
0000
,
0000
0000
0000
0000
,
0000
0000
0000
0000
,
2002
0000
0000
0000
,
0000
0000
0000
0000
,
0000
0000
0000
0000
,
0000
0000
0000
3003
,
0020
0000
0000
0000
,
0000
0000
0000
0030
,
1000
1000
0001
0001
,
0101
0001
1100
0001
,
1000
0001
0010
0000
,
0100
1000
0010
0000
,
0100
0001
1000
0000
,
0001
1000
0010
0000
,
0100
0010
1000
0000
,
0100
1000
0010
0000
,
0100
0001
0010
0000
,
0110
0001
0110
1000
,
1001
0001
0100
0010
,
1000
0000
0100
0000
0010
0000
0100
1000
,
0010
0100
0001
0000
,
0100
0000
0001
0000
1000
0001
0110
0000
,
0001
1000
0100
0010
,
0100
0000
1000
0000
0010
0000
0100
0001
,
1000
1000
0001
0001
,
0200
0000
0000
0000
,
0310
1000
0200
0000
,
0310
0100
2000
0000
,
3001
1000
0200
0000
,
1300
0010
0200
0000
,
0310
0100
0002
0000
,
0013
0001
2000
0000
,
3001
1000
0020
0000
,
1030
0101
0001
1100
,
1001
0001
0010
0001
,
0200
0301
0100
0010
,
2000
3010
0100
0001
,
1000
0000
0100
0000
0010
0001
0011
0000
,
0001
0100
0010
1000
,
0002
0013
0001
0100
,
0020
1030
0100
0010
,
0100
1000
0010
0100
,
1001
0000
0001
0000
,
1000
0000
0010
0000
,
1000
0000
0100
0000
,
1000
0000
0010
0100
,
0001
0000
0010
0000
,
0100
0000
0010
0000
,
0001
0000
1000
0000
,
0010
0000
0200
0000
,
0310
1000
0200
1300
,
0100
0010
0002
1003
,
0001
0100
0020
1030
,
0010
0000
0100
0000
0002
0000
1003
0001
,
1000
0001
0010
0200
,
1300
0100
1000
0020
,
0130
0001
1000
0100
,
0110
0001
0110
1000
,
1001
0000
0001
0000
1000
0000
0010
1000
,
0010
0000
1000
0000
0001
0000
0010
0100
,
0010
0000
0100
0000
1000
0000
0001
0100
,
0001
0000
0100
0000
0001
1000
1001
0000
,
0001
0000
0100
0000
0010
0000
1000
0010
,
1000
0000
0010
0000
0100
0000
0001
0010
,
0001
0010
0100
1000
,
1200
0000
0000
0000
,
0310
0001
2000
3002
,
1003
0001
0020
0230
,
1300
0010
0200
0302
,
0013
0000
0001
0000
1000
0001
1000
0000
,
0001
0100
0002
0023
,
0130
0010
0002
2003
,
3100
1000
0020
2030
,
3001
0100
0010
1000
,
2002
0000
0000
0000
,
0000
0000
0000
0000
,
0000
0000
0000
0000
,
0000
0000
0000
0000
,
3003
0000
0000
0000
;

//---------------dance-single - ----------------
#NOTEDATA:;
#CHARTNAME:;
#STEPSTYPE:dance-single;
#DESCRIPTION:;
#CHARTSTYLE:;
#DIFFICULTY:Beginner;
#METER:5;
#RADARVALUES:0.172477,0.251391,0.082695,0.165389,0.000000,146.000000,136.000000,10.000000,20.000000,0.000000,0.000000,0.000000,0.000000,0.000000,0.172477,0.251391,0.082695,0.165389,0.000000,146.000000,136.000000,10.000000,20.000000,0.000000,0.000000,0.000000,0.000000,0.000000;
#CREDIT:Pandemonium X;
#NOTES:
0000
0000
0000
0000
,
0000
0000
0000
0000
,
0000
0000
0000
0000
,
0000
0000
0000
0000
,
1001
0000
0000
0000
,
0000
0000
0000
0000
,
0000
0000
0000
0000
,
0000
0000
0000
0000
,
0010
0000
0000
0000
,
0000
0000
0000
0000
,
1000
0000
0001
0000
,
0100
0000
0110
0000
,
0001
1000
0001
0000
,
1000
0001
1000
0000
,
0001
1000
0001
0000
,
1000
0001
1000
0000
,
0010
0100
0010
0000
,
0100
0010
0100
0000
,
0010
0100
0010
0000
,
2000
0000
0000
3000
,
0001
0000
0010
0000
,
0001
0000
1000
0001
,
0100
0000
0001
0000
,
0010
0000
0001
1001
,
1000
0000
0010
0000
,
1000
0000
0100
0010
,
0001
0001
1000
1000
,
0020
0000
0000
0030
,
0100
0000
0002
0003
,
0010
0000
0200
0300
,
0010
0000
0002
0003
,
1000
0000
0200
0300
,
1000
0000
0020
0030
,
0100
0000
0002
0003
,
0010
0000
0200
0300
,
2000
0000
0000
0000
,
3001
0000
1000
0000
,
0020
0030
1000
0000
,
0002
0003
0010
0000
,
0100
0000
0010
1001
,
0110
0000
0010
0000
,
2000
3000
0001
0000
,
0020
0030
0001
0000
,
1000
0000
0001
0000
,
0110
0000
0000
0000
,
0010
0000
0000
0000
,
1000
0000
0000
0000
,
0100
0000
0000
0000
,
1000
0000
0000
0000
,
0001
0000
0000
0000
,
0010
0000
0000
0000
,
0100
0000
1000
0000
,
0001
0000
0000
0000
,
1000
0000
0000
0000
,
0010
0000
0000
0000
,
1000
0000
0000
0001
,
1001
0000
0000
0000
,
0100
0000
0000
0000
,
0010
0000
1000
0000
,
1001
0000
0000
0000
,
0001
0000
0000
1000
,
0010
0000
0000
0100
,
0001
0000
0000
0010
,
0100
0000
0000
0010
,
0001
0000
0000
1000
,
0010
0000
0000
1000
,
0001
0000
0010
0000
,
0001
1000
0010
0100
,
0001
0000
0020
0030
,
0100
0000
0020
0030
,
0001
0000
2000
3000
,
0001
0000
0010
1001
,
1000
0000
0020
0030
,
0100
0000
0002
0003
,
0010
0000
0002
0003
,
1000
0000
0001
1000
,
0110
0000
0000
0000
;
