#VERSION:0.83;
#TITLE:Wizard;
#SUBTITLE:;
#ARTIST:Tatsh;
#TITLETRANSLIT:;
#SUBTITLETRANSLIT:;
#ARTISTTRANSLIT:;
#GENRE:;
#ORIGIN:;
#CREDIT:;
#BANNER:Wizard.png;
#BACKGROUND:Wizard-bg.png;
#PREVIEWVID:;
#JACKET:Wizard-jacket.png;
#CDIMAGE:;
#DISCIMAGE:;
#LYRICSPATH:;
#CDTITLE:;
#MUSIC:Wizard.ogg;
#OFFSET:0.003000;
#SAMPLESTART:84.005005;
#SAMPLELENGTH:14.400002;
#SELECTABLE:YES;
#BPMS:0.000=200.000;
#STOPS:;
#DELAYS:;
#WARPS:;
#TIMESIGNATURES:0.000=4=4;
#TICKCOUNTS:0.000=4;
#COMBOS:0.000=1;
#SPEEDS:0.000=1.000=0.000=0;
#SCROLLS:0.000=1.000;
#FAKES:;
#LABELS:0.000=Song Start;
#BGCHANGES:;
#KEYSOUNDS:;
#ATTACKS:
;

//---------------dance-single - ----------------
#NOTEDATA:;
#CHARTNAME:;
#STEPSTYPE:dance-single;
#DESCRIPTION:;
#CHARTSTYLE:;
#DIFFICULTY:Medium;
#METER:11;
#RADARVALUES:0.393632,0.503193,0.201190,0.201190,0.017495,315.000000,292.000000,23.000000,23.000000,0.000000,0.000000,0.000000,0.000000,0.000000,0.393632,0.503193,0.201190,0.201190,0.017495,315.000000,292.000000,23.000000,23.000000,0.000000,0.000000,0.000000,0.000000,0.000000;
#CREDIT:Pandemonium X;
#NOTES:
0000
0000
0000
0000
,
0000
0000
0000
0000
,
0000
0000
0000
0000
,
0000
0000
0000
0000
,
0000
0000
0000
0000
,
0000
0000
0000
0000
,
0000
0000
0000
0000
,
2002
0000
0000
0000
,
0000
0000
3003
0001
,
0200
0000
0000
0310
,
2000
0000
3002
0000
,
0013
0000
0011
0000
0000
0010
0100
0000
,
0000
1000
0100
0000
0010
0000
0001
0000
,
0100
0000
0010
0000
0000
1000
0001
0000
,
0200
0000
0000
0310
,
1000
0000
0001
0000
0000
0010
0100
0000
,
0010
0001
0100
0000
0010
0000
1010
0000
,
1000
0000
0100
0000
0000
0010
0100
0000
,
0010
0001
0100
0000
0001
0000
0101
0000
,
0001
0000
1010
0000
0000
0001
0010
0000
,
0100
1000
0010
0000
0100
0000
0110
0000
,
0001
0100
1000
0000
1000
0100
0001
0000
,
0010
0100
1000
0010
,
0001
0010
1000
0001
,
0010
1000
0010
0001
,
1000
0100
0010
0001
1000
0000
0001
0000
,
1000
0100
0010
0001
1000
0000
0001
0000
,
1000
0100
0010
0001
1000
0000
0001
0000
,
0200
0301
2000
3010
,
0100
0010
1000
0001
0010
0000
0001
0000
,
0100
0010
1000
0001
0010
0000
0001
0000
,
0000
1000
0100
0010
0100
0000
1000
0000
,
0001
0000
0100
0010
1000
0000
0001
0010
,
0200
0000
0000
0010
0020
0000
0000
0000
,
0000
0000
0000
0330
,
1000
0001
0100
0000
0000
0010
0100
0000
,
0010
1000
0100
0000
0010
0000
0011
0000
,
0001
0010
0100
0000
0000
1000
0001
0000
,
1000
0100
0010
0000
0001
0010
0100
1000
,
0010
0100
0001
0000
0000
0010
0100
0000
,
0000
0010
0001
0000
0001
1000
0100
0010
,
0002
0103
0020
0130
,
0001
1000
0100
0010
,
0011
0000
0000
0001
0000
0000
0000
0000
0000
0000
0000
0000
1000
0000
0000
0000
,
0020
0000
0000
0000
,
0130
0000
0000
0100
0000
0000
0000
0000
0000
0000
0000
0000
0010
0000
1000
0000
,
0100
0000
0000
1000
0000
0000
0001
0000
2000
0000
0000
0000
0000
0000
0000
0000
,
3010
0000
0000
0010
0000
0000
0000
0000
0000
0000
0000
0000
0100
0000
0001
0000
,
0010
0100
0010
0001
,
2000
0000
3002
0000
,
0000
0000
0000
0013
0100
0000
0010
0000
,
0002
0000
0000
0103
0001
0010
0200
0000
,
1000
2000
0000
0000
0000
0000
3300
0000
,
0011
0000
0101
0000
,
0001
1000
0001
1000
,
1001
0000
1010
0000
,
1000
0100
0020
0000
,
0130
0000
1100
0000
,
1000
0100
0001
0100
,
1100
0000
0011
0000
,
0001
0010
1000
0000
0010
0000
0001
0000
,
0100
0000
0000
0001
0000
0000
0000
0000
,
0000
0000
0000
0000
0010
0001
1000
0000
,
0001
0000
0000
1000
0000
0000
0010
1000
,
0100
0000
0000
0010
0000
0000
0001
0000
,
0000
0000
0000
0000
,
0010
0000
0000
0001
0000
0000
1000
0000
,
0000
0000
0000
0000
0000
0000
0000
0010
,
0010
0000
0000
0100
0100
0000
0000
0010
,
0010
0000
0000
0000
,
1000
0100
1000
0010
,
0100
0001
0010
0100
,
0010
0001
1000
0010
,
0100
0000
0001
0000
1000
0100
0010
0001
,
0010
0001
0100
0010
,
1000
0001
0010
0100
,
0010
0001
0010
0100
,
1000
0100
0010
0001
,
2002
0000
0000
3003
,
0001
1000
0000
1000
0100
0001
0000
0001
,
0100
1000
0000
1000
0100
0001
0000
0100
,
1000
0000
0011
0000
,
1100
0000
0110
0000
,
1001
0000
0000
0000
0000
0000
0000
1000
,
1001
0000
0000
0000
0000
0000
0000
0001
,
1001
0000
0000
0000
0000
0000
0000
1000
,
1002
0000
0000
0000
,
0000
0000
0000
0000
,
0100
0100
0103
0000
;

//---------------dance-single - ----------------
#NOTEDATA:;
#CHARTNAME:;
#STEPSTYPE:dance-single;
#DESCRIPTION:;
#CHARTSTYLE:;
#DIFFICULTY:Hard;
#METER:15;
#RADARVALUES:0.547336,1.006386,0.323653,0.262421,0.306158,438.000000,401.000000,37.000000,30.000000,0.000000,0.000000,0.000000,0.000000,0.000000,0.547336,1.006386,0.323653,0.262421,0.306158,438.000000,401.000000,37.000000,30.000000,0.000000,0.000000,0.000000,0.000000,0.000000;
#CREDIT:Pandemonium X;
#NOTES:
// measure 0
0000
0000
0000
0000
,  // measure 1
0000
0000
0000
0000
,  // measure 2
0000
0000
0000
0000
,  // measure 3
0000
0000
0000
0000
,  // measure 4
0000
0000
0000
0000
,  // measure 5
0000
0000
0000
0000
,  // measure 6
0000
0000
0000
0000
,  // measure 7
2002
0000
0000
0000
,  // measure 8
0000
0000
3000
1003
,  // measure 9
0200
0000
0000
0310
,  // measure 10
0200
0000
2300
3020
,  // measure 11
0130
0000
1001
0000
0000
0001
0011
0000
,  // measure 12
0000
0010
0110
0000
1000
0000
1001
0000
,  // measure 13
0001
0000
0101
0000
0000
0100
0110
0000
,  // measure 14
1000
0100
0020
0000
,  // measure 15
0130
0000
0000
0000
1000
0000
0000
0010
0000
0000
0100
0000
0100
0000
0000
0000
,  // measure 16
0010
0000
0010
0000
1000
0000
0000
0001
0000
0000
0020
0000
0000
0000
0030
0000
,  // measure 17
0001
0000
0000
0000
1000
0000
0000
0100
0000
0000
0010
0000
0010
0000
0000
0000
,  // measure 18
0100
0000
0100
0000
1000
0000
0000
0010
0000
0000
0200
0000
0000
0000
0300
0000
,  // measure 19
0010
0000
0000
0000
1000
0000
0000
0001
0000
0000
0010
0000
0010
0000
0000
0000
,  // measure 20
0000
0000
0100
0000
0010
0000
0000
0001
0000
0000
1000
0000
0001
0000
0000
0000
,  // measure 21
1000
0001
0010
0001
1000
0000
0000
0000
0001
1000
0010
1000
0001
0000
0000
0000
,  // measure 22
1000
0100
0010
0100
1000
0001
0100
0010
,  // measure 23
1000
0001
0010
0100
0010
0001
1000
0010
,  // measure 24
0100
0010
0010
1000
0001
0001
0010
0100
,  // measure 25
1000
0000
0100
0000
0010
0000
0100
0000
1000
0000
0000
0010
0000
0000
0100
0000
,  // measure 26
0001
0000
0010
0000
0100
0000
0010
0000
0001
0000
0000
0100
0000
0000
0010
0000
,  // measure 27
1000
0000
0010
0000
0100
0000
0010
0000
1000
0000
0000
0001
0000
0000
0010
0000
,  // measure 28
0100
0000
0000
0010
0000
0000
0001
0000
0100
0000
0000
0010
0000
0000
1000
0000
,  // measure 29
0001
0000
0100
0000
0010
0000
0100
0000
0001
0000
0000
1000
0000
0000
0100
0000
,  // measure 30
0010
0000
0100
0000
1000
0000
0010
0000
0100
0000
0000
0010
0000
0000
1000
0000
,  // measure 31
0000
0000
0100
0000
1000
0000
0001
0000
0100
0000
0000
0010
0000
0000
1000
0000
,  // measure 32
0001
0000
0010
0001
0100
0000
0010
1000
,  // measure 33
0100
0000
0000
0000
0000
0000
0010
0002
2000
0000
0000
0000
0000
0000
0000
0000
,  // measure 34
0000
0000
0000
0000
0000
0000
0000
3003
,  // measure 35
1000
0000
0010
0000
0100
0000
0001
0000
0010
0000
0000
1000
0000
0000
0010
0000
,  // measure 36
0001
0000
0000
0100
0000
0000
0001
0000
1000
0000
0000
0100
0000
0000
1000
0000
,  // measure 37
0001
0000
1000
0000
0001
0000
0100
0000
0001
0000
0000
0010
0000
0000
0001
0000
,  // measure 38
1000
0000
0000
0100
0000
0000
0001
0000
0100
0000
0010
0000
0001
0000
1000
0000
,  // measure 39
0010
0000
0100
0000
0001
0000
0010
0000
0100
0000
0000
0010
0000
0000
0001
0000
,  // measure 40
0100
0000
0000
1000
0000
0000
0100
0000
0001
0000
1000
0000
0100
0000
0010
0000
,  // measure 41
0001
0000
0000
0010
0000
0000
0100
0000
1000
0000
0000
0001
0000
0000
1000
0000
,  // measure 42
0010
1000
0001
0010
,  // measure 43
0110
0000
0000
0110
0000
0000
0000
0000
0000
0000
0000
0000
0100
0000
0000
0000
,  // measure 44
1000
0000
0000
0001
0000
0000
0200
0000
0000
0000
0000
0000
0000
0000
0300
0000
,  // measure 45
1010
0000
0000
1010
0000
0000
0000
0000
0000
0000
0000
0000
1000
0100
0010
0000
,  // measure 46
0100
0000
0000
1000
0000
0000
0001
0000
0020
0000
0000
0000
0000
0000
0000
0030
,  // measure 47
0011
0000
0000
0011
0000
0000
0000
0000
0000
0000
0000
0000
0001
0010
0100
0000
,  // measure 48
0010
0000
0000
0001
0000
0000
1000
0000
0100
0000
0000
0000
1000
0000
0000
0000
,  // measure 49
0002
0000
2003
0000
,  // measure 50
0000
0000
0000
0000
0000
0000
3001
0100
0010
0000
0000
0000
0100
0000
0000
0000
,  // measure 51
0010
0000
0000
0100
0010
1000
0001
0000
,  // measure 52
0010
0200
0000
0000
0000
0000
0000
0300
,  // measure 53
1002
0000
0100
0000
,  // measure 54
1000
1000
0010
0013
,  // measure 55
2001
0000
0010
0000
,  // measure 56
0001
0001
0010
3000
,  // measure 57
1002
0000
1000
0000
,  // measure 58
0100
0100
1000
1003
,  // measure 59
2001
0000
0001
0000
,  // measure 60
3001
0010
0100
0000
0010
0000
0001
0000
,  // measure 61
0011
0000
0000
2100
0000
0000
0000
0000
,  // measure 62
0000
0000
0000
0000
3100
1000
0010
0000
,  // measure 63
0100
0000
0000
0001
0000
0000
1000
0100
,  // measure 64
0020
0000
0000
0230
0000
0000
2000
0000
,  // measure 65
0000
0000
0000
3300
,  // measure 66
0200
0000
0000
2300
0000
0000
0002
0000
,  // measure 67
0000
0000
0000
0000
0000
0000
3003
1000
,  // measure 68
1001
0000
0000
0001
1001
0000
0000
1000
,  // measure 69
1001
0000
0000
0000
0000
0000
0000
0000
0001
0100
0001
0100
0001
0100
0001
0100
,  // measure 70
0001
0000
0010
0000
0100
0000
0010
0001
0000
0000
0000
1000
0000
0000
0001
0000
,  // measure 71
1000
0000
0100
0000
1000
0000
0010
1000
0000
0010
0100
0000
0001
0000
1000
0000
,  // measure 72
0100
0000
0010
0000
0001
0000
1000
0001
0000
0100
0001
0000
0010
0000
0100
0000
,  // measure 73
1000
0000
0100
0000
0010
0000
0001
0010
0001
1000
0001
0010
0001
1000
0100
0010
,  // measure 74
0100
0000
1000
0000
0010
0000
0100
0000
0010
0000
0000
1000
0000
0000
0001
0000
,  // measure 75
0010
0000
0100
0010
0000
0010
0100
1000
0001
1000
0001
1000
0001
0000
1000
0100
,  // measure 76
0010
0000
0000
0100
0000
1000
0010
0000
0100
0000
0010
1000
0001
0000
0010
0100
,  // measure 77
1000
0001
0100
0001
1000
0100
1000
0001
0100
0001
1000
0100
2000
0000
0000
0000
,  // measure 78
3002
0000
0000
0000
,  // measure 79
1003
1001
0000
0001
1001
1000
0000
1000
,  // measure 80
1001
0001
0000
0001
1001
1000
0000
0001
,  // measure 81
1001
1000
0101
0010
,  // measure 82
1010
1000
1100
0100
,  // measure 83
0011
0000
0000
0000
0000
0000
0000
1000
,  // measure 84
1001
0000
0000
0000
0000
0000
0000
0010
,  // measure 85
0110
0000
0000
0000
0000
0000
0000
0100
,  // measure 86
0102
1000
0000
1000
,  // measure 87
0000
1000
0000
1003
,  // measure 88
1001
0110
1001
0000
;

//---------------dance-single - ----------------
#NOTEDATA:;
#CHARTNAME:;
#STEPSTYPE:dance-single;
#DESCRIPTION:;
#CHARTSTYLE:;
#DIFFICULTY:Easy;
#METER:8;
#RADARVALUES:0.307408,0.503193,0.052484,0.166200,0.000000,246.000000,240.000000,6.000000,19.000000,0.000000,0.000000,0.000000,0.000000,0.000000,0.307408,0.503193,0.052484,0.166200,0.000000,246.000000,240.000000,6.000000,19.000000,0.000000,0.000000,0.000000,0.000000,0.000000;
#CREDIT:Pandemonium X;
#NOTES:
0000
0000
0000
0000
,
0000
0000
0000
0000
,
0000
0000
0000
0000
,
0000
0000
0000
0000
,
0000
0000
0000
0000
,
0000
0000
0000
0000
,
0000
0000
0000
0000
,
0110
0000
0000
0000
,
0000
0000
0000
1000
,
0100
0000
0000
1000
,
0001
0000
0100
0000
,
0001
0010
0000
0001
,
0000
1000
0001
0100
,
0001
0010
0000
0100
,
0020
0000
0000
0030
,
0100
1000
0010
0100
,
0001
0001
0002
0003
,
1000
0001
0100
0001
,
1000
1000
2000
3000
,
0100
1000
0010
0100
,
0010
0010
0020
0030
,
1000
0010
1000
0000
0010
1000
0010
0000
,
1000
0100
0010
0001
,
0010
0001
0010
0100
,
1000
0100
0010
0001
,
1000
0001
0200
0300
,
0001
1000
0020
0030
,
1000
0001
0200
0300
,
0001
0000
1000
0000
,
0001
1000
0200
0300
,
1000
0001
0020
0030
,
0000
0001
0010
0100
,
0010
0001
0100
0010
,
1000
0000
0202
0000
,
0000
0000
0000
0303
,
0001
0100
0010
1000
,
0100
0010
0001
0001
,
1000
0001
0100
0010
,
1000
0010
0100
0100
,
0010
1000
0100
0010
,
0001
0010
0001
0001
,
0010
0001
0100
0010
,
1000
0100
0010
0100
,
0110
0000
0000
0100
,
2000
0000
0000
3000
,
0101
0000
0000
0001
,
0010
0010
0001
0000
,
1010
0000
0000
1000
,
0100
1000
0010
0100
,
0001
0000
1000
0000
,
0000
0000
0100
1000
,
0010
0000
0100
0001
,
2000
0000
0000
3000
,
0001
0000
1000
0000
,
0001
0010
0100
1000
,
0001
0000
1000
0000
,
0001
1000
0020
0000
,
1030
0000
0001
0000
,
1000
0100
0010
0001
,
1000
0000
0001
0000
,
1000
0001
0010
0000
0001
0000
0100
0000
,
0001
0000
0000
0020
0000
0000
0000
0000
,
0000
0000
0000
0000
0130
0010
0001
0000
,
0010
0000
0000
0001
0000
0000
0100
0000
,
0010
0000
0000
1000
0000
0000
0200
0000
,
0000
0000
0000
0300
,
1000
0000
0000
0010
0000
0000
0200
0000
,
0000
0000
0000
0000
0000
0000
0300
0010
,
0100
0000
0000
0010
1000
0000
0000
0010
,
0100
0000
0000
0000
,
0010
1000
0001
0010
,
0001
0100
0001
1000
,
0100
0010
0001
1000
,
0010
0000
0100
0000
0001
0010
0001
0100
,
0001
0100
0010
1000
,
0001
0010
0001
1000
,
0100
0010
0100
1000
,
0010
0010
0010
0010
,
0200
0000
0000
0000
,
0301
1000
0000
0001
1000
0001
0000
1000
,
0001
1000
0000
0001
1000
0001
0000
1000
,
0001
0000
1000
0000
,
0010
0000
0100
0000
,
0110
0000
0000
0000
0000
0000
0000
1000
,
0010
0000
0000
0000
0000
0000
0000
0100
,
0001
0000
0000
0000
0000
0000
0000
1000
,
0020
0000
0000
0000
,
0000
0000
0000
0000
,
0100
0100
0130
0000
;

//---------------dance-single - ----------------
#NOTEDATA:;
#CHARTNAME:;
#STEPSTYPE:dance-single;
#DESCRIPTION:;
#CHARTSTYLE:;
#DIFFICULTY:Beginner;
#METER:5;
#RADARVALUES:0.169949,0.270950,0.078726,0.061232,0.000000,136.000000,127.000000,9.000000,7.000000,0.000000,0.000000,0.000000,0.000000,0.000000,0.169949,0.270950,0.078726,0.061232,0.000000,136.000000,127.000000,9.000000,7.000000,0.000000,0.000000,0.000000,0.000000,0.000000;
#CREDIT:Pandemonium X;
#NOTES:
0000
0000
0000
0000
,
0000
0000
0000
0000
,
0000
0000
0000
0000
,
0000
0000
0000
0000
,
0000
0000
0000
0000
,
0000
0000
0000
0000
,
0000
0000
0000
0000
,
0110
0000
0000
0000
,
0000
0000
0000
1000
,
1000
0000
0000
0001
,
0001
0000
1000
0000
,
0010
0000
0000
1000
,
0000
1000
0000
1000
,
0000
0001
0000
0001
,
0100
0000
0000
0000
,
0010
0000
1000
0000
,
0100
0000
0000
0000
,
0010
0000
0001
0000
,
0100
0000
0000
0000
,
0010
0000
1000
0000
,
0001
0000
0000
0000
,
1000
0000
0001
0000
,
0100
0000
0000
0010
,
2000
0000
0000
0000
,
0000
0000
0000
3000
,
0001
0000
1000
0000
,
0100
0000
1000
0000
,
0010
0000
0100
0000
,
0001
0000
0000
0000
,
0010
0000
0001
0000
,
0010
0000
0100
0000
,
0000
0010
0000
0000
,
0001
0000
1000
0000
,
0001
0000
0200
0000
,
0000
0000
0000
0300
,
0010
0000
1000
0000
,
0100
0000
0010
0000
,
0100
0000
0010
0000
,
0001
0000
1000
1000
,
0001
0000
1000
0000
,
0010
0000
1000
0000
,
0100
0000
0010
0000
,
0001
0000
1000
0000
,
1001
0000
0000
0000
,
0000
0000
0000
0000
,
0110
0000
0000
0000
,
0000
0000
0000
0000
,
1001
0000
0000
0000
,
0000
0000
0000
0000
,
0010
0000
0010
0000
,
0000
0000
1000
0001
,
1000
0000
0001
0000
,
0100
0000
0000
0000
,
0010
0000
1000
0000
,
0002
0000
0000
0003
,
1000
0000
0001
0000
,
0020
0000
0000
0030
,
0100
0000
1000
0000
,
0020
0000
0000
0030
,
0100
0000
0010
0000
,
1000
0000
0001
0000
,
0020
0000
0000
0000
,
0030
0000
0100
0000
,
1000
0000
0001
0000
,
0010
0000
0000
0000
,
0000
0000
0000
0000
,
0001
0000
0000
0000
,
0000
0000
0000
0000
,
1000
0000
0001
0000
,
1000
0000
0000
0000
,
0110
0000
0010
0000
,
1000
0000
0001
0000
,
0010
0000
0001
0000
,
1000
0000
0100
0100
,
1000
0000
0010
0000
,
0100
0000
0010
0000
,
1000
0000
0001
0000
,
0010
0010
0010
0010
,
0200
0000
0000
0300
,
1000
0000
0010
0000
,
0100
0000
0001
0000
,
1000
0000
0100
0000
,
0010
0000
0001
0000
,
1001
0000
0000
0000
,
0110
0000
0000
0000
,
1001
0000
0000
0000
,
0110
0000
0000
0000
,
0000
0000
0000
0000
,
0001
0001
0001
0000
;
