#TITLE:TWINKLE★MAGIC;
#SUBTITLE:;
#ARTIST:P*Light;
#TITLETRANSLIT:;
#SUBTITLETRANSLIT:;
#ARTISTTRANSLIT:;
#GENRE:;
#CREDIT:;
#MUSIC:TWINKLE MAGIC.ogg;
#BANNER:;
#BACKGROUND:;
#CDTITLE:;
#SAMPLESTART:33.301;
#SAMPLELENGTH:14.667;
#SELECTABLE:YES;
#OFFSET:0.003;
#BPMS:0.000=180.000
,128.000=90.000
,129.000=180.000
,298.000=90.000
,299.000=180.000
;
#STOPS:129.000=0.333
,299.000=0.667
;
#ORIGIN:;
#PREVIEWVID:;
#JACKET:;
#CDIMAGE:;
#DISCIMAGE:;
#BGCHANGES:;
#FGCHANGES:;

//--------------- dance-single - ----------------
#NOTES:
     dance-single:
     :
     Beginner:
     4:
     0.134776,0.247651,0.054131,0.069597,0,122,115,7,9,0,0,0,0,0,0.134776,0.247651,0.054131,0.069597,0,122,115,7,9,0,0,0,0,0:
0000
0000
0000
0000
,
0000
0000
0000
0000
,
0000
0000
0000
0000
,
0000
0000
0000
0000
,
0000
0000
0000
0000
,
1000
0000
0000
0000
,
1000
0000
0000
0000
,
0001
0000
1000
0000
,
0001
0000
0000
0000
,
0100
0000
0000
0000
,
0010
0000
0000
0000
,
1000
0000
0000
0000
,
0100
0000
0000
0000
,
1000
0000
0000
0000
,
0001
0000
0000
0000
,
1000
0000
0001
0000
,
0110
0000
0000
0000
,
0010
0000
0010
0000
,
0010
0000
0000
0000
,
1000
0000
1000
0000
,
1000
0000
0002
0000
,
1003
0000
0000
0000
,
0001
0000
0000
0000
,
0100
0000
0010
0000
,
2000
0000
0000
3000
,
0001
0000
1000
0000
,
0010
0000
0000
0000
,
1000
0000
0001
0000
,
0100
0000
0000
0000
,
0002
0000
0003
0000
,
2000
0000
3000
0000
,
0010
0000
0100
0000
,
1001
0000
0001
0000
,
0000
0000
1000
0000
,
0000
0000
0010
0000
,
0100
0000
0010
0000
,
0000
0000
1000
0000
,
0010
0000
0100
0000
,
0001
0000
1000
0000
,
0010
0000
0100
0000
,
0001
0001
0000
1000
,
0000
0000
0000
0001
,
0000
0000
0000
0100
,
0000
0000
0010
0000
,
0000
0000
1000
0000
,
0000
0000
0001
0000
,
0000
0000
0010
0000
,
0000
0000
0001
0000
,
0000
0000
0100
0100
,
0100
0000
0010
0010
,
0010
0000
1000
0000
,
0001
0000
0110
0000
,
0000
0000
1001
0000
,
0000
0000
0000
0000
,
0000
0000
0000
0000
,
0000
0000
0000
0000
,
0000
0000
1000
0000
,
0000
0000
0000
0000
,
0000
0000
0000
0000
,
0000
0000
0000
0001
,
0000
0000
0010
0000
,
0010
0000
0000
0000
,
0000
0000
0100
0000
,
0100
0000
0000
0000
,
0000
0000
0010
0000
,
0010
0000
0000
0000
,
0001
0002
0000
0000
,
0000
0000
0003
0000
,
0000
0000
1000
0000
,
1000
0000
1000
0000
,
0000
0000
0100
0000
,
0100
0000
0100
0000
,
0000
0000
0010
0000
,
0001
0000
1000
0000
,
0010
0000
1001
0000
,
0000
0000
0000
0100
,
0000
0000
0000
0010
,
0000
0000
0000
1000
,
0000
0000
0000
0001
,
0000
0000
0000
0020
,
0000
0030
0000
0020
,
0000
0030
0000
0100
,
0000
0010
0000
1001
,
0000
0000
0000
1000
,
1000
1000
1000
1000
,
0000
0000
0000
0001
,
0001
0001
0001
0001
,
0000
0000
0000
0200
,
0000
0300
0000
0200
,
0000
0300
0000
0010
,
0000
0100
0000
1001
,
0000
0000
0010
0000
;

//--------------- dance-single - ----------------
#NOTES:
     dance-single:
     :
     Easy:
     8:
     0.300484,0.56606,0.185593,0.216526,0,272,248,24,28,0,0,0,0,0,0.300484,0.56606,0.185593,0.216526,0,272,248,24,28,0,0,0,0,0:
0000
0000
0000
0000
,
0000
0000
0000
0000
,
0000
0000
0000
0000
,
0000
0000
0000
0000
,
0000
0000
0000
0000
,
1000
0000
0000
1000
0000
0000
0000
0000
,
0001
0000
0000
0001
0000
0000
0000
0000
,
0100
0000
0010
0000
,
0200
0000
0300
0000
,
0010
1000
0010
0100
,
0001
0000
0000
0002
0000
0000
0003
0000
,
0010
0100
0010
0001
,
1000
0000
0000
2000
0000
0000
3000
0000
,
0001
0000
0200
0300
,
0010
0000
2000
3000
,
0001
0100
0010
1000
,
1002
1000
1000
2003
,
3100
1000
0010
0100
,
0010
1000
0010
0000
,
0100
0001
0010
0100
,
0010
0000
0001
0100
0020
0000
0000
0000
,
0130
0101
0001
1001
,
1000
1100
0100
0110
,
0010
0001
0010
0100
,
1000
0001
1000
0001
1000
0000
0110
0000
,
0001
0100
0010
1000
,
0010
0000
0000
0200
0000
0000
0300
0000
,
0010
1000
0100
0010
,
0100
0000
0000
2000
0000
0000
3000
0000
,
0002
0000
1003
0000
,
2000
0000
3001
0000
,
0100
0000
0010
0000
,
1001
0000
1000
0010
,
1000
0010
0100
0001
,
0100
0001
1000
0010
,
0100
0001
0010
0000
,
0000
0000
0100
0010
,
0001
0010
0100
0010
,
0002
0003
1000
0100
,
0010
0100
1000
0100
,
0010
0001
0010
0000
0000
0000
0001
0000
,
0100
0010
0000
0100
,
0010
1000
0000
0100
,
0010
0001
1001
0000
,
0000
0000
0000
0000
0001
0000
0000
1000
,
0000
0100
1000
0010
,
0100
0000
0001
0000
0010
0000
0000
0001
,
0000
1000
1001
1000
,
0001
0100
0101
1010
,
0101
1001
0000
1100
,
0011
1001
0101
1001
,
1100
1001
0110
0000
,
0000
0000
0002
0000
,
0000
0000
0003
0000
,
0000
0000
0000
0000
,
0000
0000
0000
0000
,
0000
0000
2000
0000
,
0000
0000
0000
0000
,
0000
3000
0000
0000
,
0000
0000
0000
0010
,
0100
0001
2000
0000
,
0001
0000
0000
3001
0000
0000
0000
0000
,
0000
0000
0000
0000
0002
0000
0000
1000
,
0000
1003
0000
0001
,
0100
0010
0200
0000
,
0010
0000
0000
0310
0000
0000
0100
0010
,
0100
2002
0000
0000
,
0000
0000
3003
0000
,
0000
0000
1000
0100
,
0010
0000
0001
0000
0010
0000
0100
1000
,
0100
1000
0100
0010
,
0001
0000
0010
0000
0100
0000
1000
0100
,
1000
0100
1000
0100
,
0010
0001
1000
0100
,
0010
0001
0110
0000
,
0000
0000
0000
0001
1000
0001
1000
0000
,
0001
0100
0010
1000
,
0000
0200
0000
0000
0300
0000
0010
0000
,
0100
1000
0010
0100
,
0000
0002
0000
0000
0003
0000
0010
0000
,
0000
0002
0000
0000
0003
0000
1000
0000
,
0000
0020
0000
0000
0030
0000
1000
0000
,
0000
0000
0001
0000
0000
0000
0100
0010
,
0100
0010
0100
0000
0010
0000
0100
0000
,
0100
0000
0100
0000
0100
0000
0010
0100
,
0001
1000
0000
0001
0000
0000
1000
0000
,
1000
0000
1000
0000
1000
0000
1000
0100
,
0010
0001
0000
0010
0000
0000
0200
0000
,
0000
0300
0000
0020
,
0000
0030
0000
0001
,
1000
0010
0100
2002
,
0000
0000
3003
0000
;

//--------------- dance-single - ----------------
#NOTES:
     dance-single:
     :
     Medium:
     12:
     0.426423,0.636817,0.317055,0.332521,0,386,345,41,43,0,0,0,0,0,0.426423,0.636817,0.317055,0.332521,0,386,345,41,43,0,0,0,0,0:
0000
0000
0000
0000
,
0000
0000
0000
0000
,
0000
0000
0000
0000
,
0000
0000
0000
0000
,
0000
0000
0000
0000
,
1200
0000
0000
0310
0000
0000
0000
0000
,
0021
0000
0000
0130
0000
0000
0000
0010
,
0002
0000
0000
0000
1003
0000
0001
0100
,
0020
0000
0000
0000
0000
0130
0010
0100
,
0010
0000
1000
0010
1000
0000
0010
0000
,
0100
0000
0000
0022
0000
0000
0033
0000
,
0001
0000
0010
0100
1000
0000
0100
0000
,
1000
0000
0000
0220
0000
0000
0330
0000
,
0001
1000
0100
0010
,
0001
0010
0100
1000
,
0010
0100
0001
1000
0100
0010
0001
1000
,
0100
0100
0100
0020
,
0031
0100
0001
1000
,
0000
0001
1000
0010
0000
1000
0000
0000
,
0010
1000
0100
0010
,
0000
0100
1000
0010
0200
0000
0000
0000
,
0310
1000
0010
0000
0100
0000
0110
0000
,
0100
0001
0100
0000
0001
0000
0011
0000
,
0001
0010
0001
0000
0010
0100
0010
0000
,
0100
1000
0100
1000
0100
0000
1000
0000
,
0100
0000
1000
0010
0100
0000
0010
0000
,
1000
0000
0000
0202
0000
0000
0303
0000
,
0001
0000
0010
0100
1000
0000
0100
0000
,
0010
0000
0000
2200
0000
0000
3300
0000
,
0100
0000
0010
0002
0000
0000
0003
0000
,
0010
0000
0100
2000
0000
0000
3000
0100
,
0010
0000
0001
0000
0100
0010
1000
0001
,
2002
3003
0010
0010
,
0001
0001
1000
1000
,
0100
0000
0100
0000
1000
0001
1000
0000
,
0010
0100
0010
0000
1000
0000
0000
0000
,
0000
0000
0000
0000
0001
0100
0001
0100
,
0001
0100
0001
0100
0001
0100
0001
0100
,
0020
0000
0030
0000
1000
0100
1000
0100
,
1000
0100
1000
0100
1000
0100
0010
0001
,
1000
0001
1001
0000
0000
0000
0001
0100
,
1000
0100
0001
1000
0000
0000
0001
0010
,
1000
0010
0001
1000
0000
0000
0001
0100
,
1000
0100
0001
1000
0200
0000
0320
0000
,
0032
0000
0103
0000
0110
0000
0010
1000
,
0000
0010
0100
0000
0120
0000
0230
0000
,
0302
0000
1003
0000
1001
0000
0001
0100
,
0000
0001
0010
0000
0120
0000
0130
0010
,
0001
0010
0100
0000
0011
0000
1100
0000
,
0101
0001
0001
0000
1010
0000
0101
0000
,
1010
0010
0010
0000
1000
1000
0001
0001
,
0100
0100
0010
0010
1001
0000
0000
0000
,
0000
0100
0010
0000
2002
0000
0000
0000
,
0000
0000
0000
3003
,
0000
0000
0000
0000
,
0000
0000
0000
0000
,
0000
0000
1000
0100
,
1000
0000
0010
0000
0100
0000
0000
0200
,
0000
0300
0000
0000
,
0000
0000
0000
0010
,
0100
0001
2000
0000
,
0100
0000
0000
3001
0000
0000
0000
0000
,
0000
0000
0000
0000
0002
0000
0000
0100
,
0000
1003
0000
0001
,
0100
0010
2000
0000
,
0010
0000
0000
3100
0000
0000
1000
0010
,
0200
0002
0000
0000
,
0000
0000
0303
0000
,
0000
0010
1001
0001
,
1000
0000
0001
0000
1001
0000
1000
1000
,
1000
0001
1001
0001
,
1000
0000
0001
0000
1001
0000
0001
0001
,
0001
0000
1001
0000
0001
0100
0001
0000
,
0100
0010
0100
0000
0010
1000
0010
0000
,
0100
0010
0100
0000
2002
0000
3003
0000
,
0000
0000
0000
1000
,
0100
1000
0100
0000
1000
0000
0001
1000
,
0000
0010
0000
0100
0001
0000
1000
0000
,
0100
0010
0001
0000
0010
0000
0011
0000
,
0000
0220
0000
0000
0330
0000
0010
0000
,
0001
0020
0000
0000
0130
0000
1000
0000
,
0010
0200
0000
0000
0000
0000
0310
0000
,
1000
0000
0010
0000
0100
0010
1000
0100
,
1000
0100
1000
0000
0011
0000
1001
0000
,
0110
0000
1001
0000
0110
0000
0001
0100
,
0010
1000
0000
1001
0000
0000
0110
0000
,
1001
0000
0110
0000
1001
0000
0001
0100
,
0010
1000
0000
1001
0000
0000
0001
0000
,
0100
0020
0000
0000
1030
0000
0100
0000
,
0010
0002
0000
0000
0103
0000
0010
0000
,
1000
0000
0100
0010
0001
0100
0020
0000
,
0000
0000
0030
0000
;

//--------------- dance-single - ----------------
#NOTES:
     dance-single:
     :
     Hard:
     15:
     0.588817,0.884468,0.463983,0.270657,0.243591,533,473,60,35,0,0,0,0,0,0.588817,0.884468,0.463983,0.270657,0.243591,533,473,60,35,0,0,0,0,0:
0000
0000
0000
0000
,
0000
0000
0000
0000
,
0000
0000
0000
0000
,
0000
0000
0000
0000
,
0000
0000
0000
0000
,
2001
0000
0000
0010
0000
3100
1100
0000
,
1002
0000
0000
0100
0000
0013
0011
0000
,
1200
0000
0000
0010
0000
1300
0010
0100
,
0020
0000
0000
0000
0000
1030
0001
0001
,
1000
0000
0100
0100
0010
0000
0001
0000
,
0101
0000
0000
2100
0000
0000
3010
0000
,
0100
0000
0010
0010
0100
0000
0001
0000
,
1010
0000
1000
0001
0200
0000
0310
0000
,
1000
0000
0000
1000
0000
0000
0001
0000
0010
0000
0000
0100
0000
0000
0010
0000
,
0001
0000
0000
0001
0000
0000
1000
0000
0010
0000
0000
0100
0000
0000
0001
0000
,
0010
0000
0100
0000
1000
0000
0010
0000
0100
0001
0100
0001
1000
0010
1000
0010
,
0100
0100
0100
0020
,
1030
1000
0001
0010
0100
0100
0010
0001
,
0000
0010
0100
1000
0000
0010
0000
0000
,
0100
0100
0001
1000
0001
0001
0010
0100
,
0000
0010
0001
1000
0202
0000
0000
0303
,
0001
0100
1000
0100
0001
1000
0001
0000
,
1000
0100
0001
0100
1000
0001
1000
0000
,
0001
0001
0010
0100
0010
0010
0100
1000
,
0010
0010
0010
0010
0010
0000
1001
0000
,
1000
0000
0100
0100
1000
0000
0010
0000
,
0100
0000
0001
0010
0200
0000
0310
0000
,
0100
0000
0010
0010
0001
0000
1000
0000
,
0001
0100
0001
1000
0200
0000
0310
0000
,
0100
0000
0000
0100
0000
0000
1000
0000
0010
0000
0100
0000
0010
0000
0000
0000
,
1000
0000
0000
1000
0000
0000
0001
0000
0010
0000
0100
0000
1000
0000
0001
0000
,
0100
0000
0010
0000
1000
0000
0001
0000
1000
0010
1000
0010
0100
0001
0100
0001
,
0020
0030
0100
0100
,
1000
1000
0001
0001
,
0100
0000
0100
0000
0001
0100
0010
1000
,
0001
0010
0001
0010
0001
0000
0000
0000
1000
0000
0001
0000
1000
0000
0001
0000
,
0010
0000
0000
0000
1001
0000
0000
0000
1000
0010
1000
0010
1000
0000
0010
1000
,
0200
0000
0310
0001
1000
0001
1000
0000
0010
1000
0010
1000
0010
0000
1000
0010
,
0200
0000
0000
0000
0300
0000
0000
0000
0001
0100
0001
0100
0001
0000
0100
0001
,
0020
0000
0130
1000
0001
1000
0001
0000
0100
0001
0100
0001
0100
0010
1000
0001
,
0100
0000
0010
0000
1001
0000
0000
0000
0000
0000
0000
0000
0001
0100
0010
1000
,
0100
0000
0010
0100
0010
0100
0010
0001
0000
0000
0000
0000
1000
0010
0100
0001
,
0010
0000
0100
0010
0100
0010
0100
1000
0000
0000
0000
0000
0001
0100
0010
1000
,
0100
0000
0010
0100
1000
0100
1000
0001
2000
0000
0000
0000
0010
0000
0000
0000
,
3100
0000
0110
0000
1001
0000
0001
0100
,
0000
1000
0100
0000
1001
0000
0001
0010
,
0100
1000
0001
0000
1001
0000
1000
0010
,
0000
0001
0010
0000
1001
0000
1000
0100
,
0010
0001
0100
0000
0101
0100
0110
0010
,
1010
1000
1001
0001
0000
1000
1100
0100
,
0110
0010
0011
0001
1000
1000
1000
1000
,
0001
0001
1000
1000
0220
0000
0000
0000
,
0000
0300
0030
0000
2002
0000
0000
0000
,
0000
0000
3003
0000
,
0000
0000
0000
0000
,
0000
0000
0000
0000
,
0000
0000
0000
0000
0000
0000
0000
0000
0001
0000
0000
0001
0000
0000
0001
0000
,
0000
0001
0000
0000
0001
0000
0000
0000
1000
0000
0000
1000
0000
0000
1000
0000
,
0000
1000
0000
0000
1000
0000
0000
0000
0010
0000
0000
0010
0000
0000
0010
0000
,
0000
0010
0000
0000
0010
0000
0000
0000
0100
0000
0000
0100
0000
0000
0100
0000
,
0000
0100
0000
0000
0100
0000
0000
0000
1020
0000
0000
0000
0000
0000
0000
0000
,
0100
0000
0000
1030
0000
0000
0000
0000
,
0000
0000
0000
0000
0210
0000
0000
0001
,
0000
0000
0310
0000
0000
0000
1000
0010
,
0100
0001
0010
0000
2100
0000
0000
0000
,
0010
0000
0000
3100
0000
0000
1000
0001
,
0100
0220
0000
0000
,
0000
0000
0330
0000
,
0000
0000
0101
0011
,
0101
0000
1001
0000
0110
0000
0100
0100
,
0110
1001
1010
1100
,
1010
0000
1001
0000
0110
0000
0010
0010
,
0110
0000
1001
0000
1000
1000
0100
0100
,
0010
0010
0001
0001
1000
0100
0010
0001
,
1000
0100
0010
0001
2002
0000
3003
0000
,
0000
0000
0000
0100
0100
0100
0110
0000
,
0010
0010
1000
0000
0001
0000
0010
0100
,
0000
0022
0000
0000
0033
0000
1001
0000
,
1000
1000
1010
0000
1100
0000
1000
0001
,
0000
0100
0002
0000
0013
0000
0001
0010
,
1000
0010
0001
1000
0001
0000
1000
0010
,
0001
0010
1000
0001
1000
0000
0002
0000
,
0103
0000
2000
0000
3100
0000
0010
0010
,
0010
0010
0110
0000
1001
0000
0101
0000
,
1100
0000
0101
0000
1100
0000
0001
0100
,
1000
0100
0001
1000
0001
0000
0011
0000
,
1010
0000
0011
0000
1010
0000
0001
0010
,
1000
0010
0001
1000
0001
0000
1000
0000
,
0100
2000
0000
0000
3000
0000
0010
0000
,
0100
0002
0000
0000
0003
0000
1000
0010
,
0100
0000
0001
0000
1000
0001
1000
0001
1000
0001
1000
0001
0020
0000
0000
0000
,
0000
0000
0030
0000
;
