#TITLE:THE WHISTLE SONG (Blow My Whistle Baby);
#SUBTITLE:;
#ARTIST:DJ ALIGATOR PROJECT;
#TITLETRANSLIT:;
#SUBTITLETRANSLIT:;
#ARTISTTRANSLIT:;
#GENRE:;
#CREDIT:;
#BANNER:THE WHISTLE SONG (Blow My Whistle Baby).png;
#BACKGROUND:THE WHISTLE SONG (Blow My Whistle Baby)-bg.png;
#LYRICSPATH:;
#CDTITLE:;
#MUSIC:THE WHISTLE SONG (Blow My Whistle Baby).ogg;
#OFFSET:0.000000;
#SAMPLESTART:16.440001;
#SAMPLELENGTH:15.000000;
#SELECTABLE:YES;
#DISPLAYBPM:140.000000;
#BPMS:0.000000=138.438004
,4.000000=139.998001
;
#STOPS:36.000000=0.857000,
170.000000=0.857000
;
#BGCHANGES:;
#KEYSOUNDS:;
#ATTACKS:;

//---------------dance-single - ----------------
#NOTES:
     dance-single:
     :
     Hard:
     13:
     0.528279,0.618431,0.166668,0.458338,0.187502,355.000000,339.000000,16.000000,44.000000,0.000000,0.000000,0.528279,0.618431,0.166668,0.458338,0.187502,355.000000,339.000000,16.000000,44.000000,0.000000,0.000000:
// measure 0
0000
0000
0000
0000
,  // measure 1
0000
0000
0001
0000
0000
0000
0001
0000
0000
0000
0001
0000
0000
0000
0001
1000
,  // measure 2
0000
0000
0100
0000
0000
0000
0100
0000
0000
0000
0100
0000
0000
0000
0100
0010
,  // measure 3
0001
0000
1000
0000
0000
0000
1000
0000
0000
0000
1000
0000
0000
0000
1000
0001
,  // measure 4
0000
0000
0100
0000
0000
0000
0100
0000
0000
0000
0100
0000
0000
0000
0100
0010
,  // measure 5
1000
0000
0100
0000
0000
0000
0010
0000
0000
0000
0100
0000
0000
0000
1000
0001
,  // measure 6
0000
0000
1000
0000
0000
0000
0010
0000
0000
0000
0100
0000
0000
0000
0010
1000
,  // measure 7
0100
0000
0010
0000
0000
0000
0001
0000
0000
0000
0100
0000
0000
0000
0010
1000
,  // measure 8
0001
0010
1000
0000
1000
0010
0001
0000
,  // measure 9
1001
0020
0000
0130
1001
0000
1000
1000
,  // measure 10
1000
1000
0000
0001
0000
0100
0010
0010
,  // measure 11
0010
0010
0200
0000
0310
0000
1000
1000
,  // measure 12
1000
0000
1000
0000
0000
0000
0001
0000
0000
0000
1000
0001
1000
0000
1000
0000
,  // measure 13
1000
0001
2000
0000
3010
0000
0100
0100
,  // measure 14
0100
0000
0100
0000
0000
0000
0010
1000
0001
0000
0001
0000
0001
0000
0001
0000
,  // measure 15
0001
0001
0002
0000
0013
0000
0100
0100
,  // measure 16
0010
0100
0000
0010
0000
0010
0010
0100
,  // measure 17
2000
0000
3002
0000
0103
0010
0100
0010
,  // measure 18
0100
0010
0100
0010
0100
0010
0100
0010
1000
0000
0000
0001
0100
0000
0100
0000
,  // measure 19
0020
0000
0000
0130
0001
0000
0001
0000
0020
0000
0000
0130
1000
0000
1000
0000
,  // measure 20
0001
0000
0100
0000
1000
0000
0100
0000
0002
0000
0000
0013
0100
0000
0100
0000
,  // measure 21
2000
0000
0000
3100
0010
0000
0010
0000
0002
0000
0000
1003
0010
0000
0010
0000
,  // measure 22
0100
0000
1000
0000
0100
0000
0001
0000
1001
0000
0000
1000
0010
0000
0010
0000
,  // measure 23
0200
0000
0000
0310
1000
0000
1000
0000
0200
0000
0000
0310
0001
0000
0001
0000
,  // measure 24
1000
0000
0010
0000
0001
0000
0010
0000
2000
0000
0000
3100
0010
0000
0010
0000
,  // measure 25
0002
0000
0000
0013
0100
0000
0100
0000
2000
0000
0010
0000
0000
0000
0001
0000
,  // measure 26
0000
0000
3010
0100
0001
1000
0100
0000
2001
0000
0000
0000
3020
0000
0000
0000
,  // measure 27
0130
0000
0000
0000
0010
0000
1000
0100
0010
0000
0000
0000
0001
0000
0000
0000
,  // measure 28
0010
0000
0100
1000
1020
0000
0230
0000
,  // measure 29
0310
0000
0000
0000
0100
0000
0010
1000
0001
0000
0000
0000
1000
0000
0010
0000
,  // measure 30
0001
0010
1000
0000
1200
0000
0320
0000
,  // measure 31
0031
0000
0000
0000
1000
0000
0001
1000
0010
0000
0000
0000
1000
0000
0000
0000
,  // measure 32
0100
0000
0010
0001
0201
0000
0320
0000
,  // measure 33
0130
0000
0001
1000
0002
0000
0203
0000
,  // measure 34
2300
0000
3020
0000
0032
0000
1003
0100
,  // measure 35
0010
0000
0001
0000
0010
0000
0100
1000
0010
0000
0100
0000
0010
0000
1000
0000
,  // measure 36
0001
0000
0010
0100
1000
0100
0010
0000
0012
0000
0013
0000
0021
0000
0031
0000
,  // measure 37
0010
0000
0001
0000
0100
0000
0010
1000
0100
0000
0010
0000
0001
0000
0010
0000
,  // measure 38
1000
0010
0001
0000
1020
1030
2010
3010
,  // measure 39
1000
0000
0100
0000
0010
0000
0100
1000
0001
0000
0100
0000
0001
0000
0010
0000
,  // measure 40
0100
0010
0001
0100
0210
0310
0120
0130
,  // measure 41
0001
0000
1000
0000
0100
0000
0010
0100
1000
0000
0100
0000
0010
0000
0001
0000
,  // measure 42
0102
0013
2100
3010
2002
0000
0003
0000
,  // measure 43
3001
0000
0010
0010
0001
0001
0000
1000
,  // measure 44
0000
0001
0100
0100
0100
0100
0002
0000
,  // measure 45
0103
0000
0010
0010
1000
1000
0000
0001
,  // measure 46
0000
0000
1000
0001
1000
0000
1000
0000
0001
0000
1000
0000
0002
0000
0000
0000
,  // measure 47
1003
0000
0100
0100
0100
0010
0000
0100
,  // measure 48
0000
1000
0010
0010
0100
0100
0020
0000
,  // measure 49
0130
0000
0001
0001
0001
0001
0000
1000
,  // measure 50
0000
0001
0001
0001
2000
0000
3020
0000
,  // measure 51
0130
0010
1000
0001
1000
0001
0000
0000
;

//---------------dance-single - ----------------
#NOTES:
     dance-single:
     :
     Medium:
     9:
     0.380956,0.433338,0.250003,0.104168,0.000000,256.000000,232.000000,24.000000,10.000000,0.000000,0.000000,0.380956,0.433338,0.250003,0.104168,0.000000,256.000000,232.000000,24.000000,10.000000,0.000000,0.000000:
// measure 0
0000
0000
0000
0000
,  // measure 1
1000
1000
1000
1000
,  // measure 2
0001
0001
0001
0200
,  // measure 3
0310
0010
0010
0100
,  // measure 4
0010
1000
0001
2000
,  // measure 5
3100
0010
0001
0010
,  // measure 6
1000
0010
0001
2000
,  // measure 7
3010
0001
0010
1000
,  // measure 8
0001
1000
0010
0000
0010
1000
0001
0000
,  // measure 9
0110
0000
0000
0000
1001
0000
0001
0100
,  // measure 10
0001
0100
0000
0001
0000
0100
0001
0100
,  // measure 11
0001
0100
0001
0000
1000
0000
0010
1000
,  // measure 12
0010
1000
0000
0010
0000
1000
0010
1000
,  // measure 13
0010
1000
0010
0000
1000
0000
0001
1000
,  // measure 14
0001
1000
0000
0001
0000
1000
0001
1000
,  // measure 15
0001
1000
0001
0000
1000
0000
0001
0010
,  // measure 16
0001
0010
0000
0001
0000
0010
0001
0010
,  // measure 17
0001
0001
2000
0000
,  // measure 18
0000
0000
3000
0000
0001
0000
0100
0100
,  // measure 19
0010
0000
0100
0100
0010
0000
0100
0100
,  // measure 20
0010
0000
1000
0000
0001
0000
1000
1000
,  // measure 21
0100
0000
1000
1000
0100
0000
1000
1000
,  // measure 22
0100
0000
0010
0000
0001
0000
0100
0100
,  // measure 23
0001
0000
0100
0100
0001
0000
0100
0100
,  // measure 24
0001
0000
0010
0000
0001
0000
1000
1000
,  // measure 25
0001
0000
1000
1000
0001
0000
1000
1000
,  // measure 26
0001
1000
1001
1001
,  // measure 27
0001
1000
0010
1000
,  // measure 28
0001
0100
1001
1001
,  // measure 29
0001
0000
1000
0000
0010
0000
1000
0100
,  // measure 30
0010
0001
1000
0000
1001
0000
1001
0000
,  // measure 31
0001
0010
0001
0100
,  // measure 32
0010
1000
1001
1001
,  // measure 33
0001
1000
1001
0110
,  // measure 34
1001
0110
2002
3003
,  // measure 35
0000
0000
0000
0000
0000
0001
0101
0000
,  // measure 36
0000
0001
0100
1000
1100
0000
0101
0000
,  // measure 37
0000
0000
0000
0000
0000
0000
0001
0010
,  // measure 38
1000
0010
0001
0000
0011
0000
1010
0000
,  // measure 39
0000
0000
0000
0000
,  // measure 40
0000
0000
0100
0010
0110
0000
0110
0000
,  // measure 41
0000
0000
0000
0000
0000
0000
0100
0010
,  // measure 42
2000
0002
3003
0000
,  // measure 43
0110
0000
0010
1000
0010
1000
0000
0010
,  // measure 44
0000
0100
0001
0100
0001
0100
0001
0000
,  // measure 45
0010
0000
0001
0010
0001
0010
0000
0100
,  // measure 46
0000
1000
0100
1000
0100
1000
0100
0000
,  // measure 47
1000
0000
0001
1000
0001
1000
0000
0100
,  // measure 48
0000
0010
0100
0010
0100
0010
0100
0000
,  // measure 49
0010
0000
0010
0001
0010
0001
0000
1000
,  // measure 50
0000
0010
1000
0100
0010
0000
0010
0000
,  // measure 51
2002
0000
0000
0000
,  // measure 52
3003
0000
0000
0000
;

//---------------dance-single - ----------------
#NOTES:
     dance-single:
     :
     Easy:
     5:
     0.226193,0.292191,0.208336,0.114585,0.000000,152.000000,132.000000,20.000000,11.000000,0.000000,0.000000,0.226193,0.292191,0.208336,0.114585,0.000000,152.000000,132.000000,20.000000,11.000000,0.000000,0.000000:
// measure 0
0000
0000
0000
0000
,  // measure 1
0000
0000
0000
0000
,  // measure 2
0000
0000
0000
0000
,  // measure 3
0000
0000
0000
0000
,  // measure 4
0000
0000
0000
0000
,  // measure 5
1000
0000
0001
0000
,  // measure 6
1000
0000
0010
0000
,  // measure 7
1000
0000
0001
0000
,  // measure 8
1000
1100
0001
0101
,  // measure 9
1001
0000
0001
1000
,  // measure 10
1000
0000
0001
1000
,  // measure 11
1000
1000
0010
0100
,  // measure 12
0100
0000
0010
0100
,  // measure 13
0100
0100
0010
1000
,  // measure 14
1000
0000
0010
1000
,  // measure 15
1000
1000
0100
0010
,  // measure 16
0010
0000
0100
0010
,  // measure 17
0010
0010
2002
0000
,  // measure 18
0000
3003
0001
0100
,  // measure 19
0001
0100
0001
0100
,  // measure 20
0001
0010
0100
1000
,  // measure 21
0010
1000
0010
1000
,  // measure 22
0010
0100
0001
1000
,  // measure 23
0100
1000
0100
1000
,  // measure 24
0100
0010
0001
0100
,  // measure 25
0001
0100
0001
0100
,  // measure 26
0001
0100
0110
0110
,  // measure 27
0000
0000
0000
0000
,  // measure 28
0000
1000
1001
1001
,  // measure 29
0000
0000
0000
0001
,  // measure 30
0010
0100
0110
0110
,  // measure 31
0000
0000
0000
0000
,  // measure 32
0000
1000
1001
1001
,  // measure 33
0000
0000
0001
0100
,  // measure 34
0010
1000
2002
3003
,  // measure 35
0000
0000
0000
0010
,  // measure 36
0000
0100
0110
0110
,  // measure 37
0000
0000
0000
0010
,  // measure 38
1000
0001
1001
1001
,  // measure 39
0000
0000
0000
0000
,  // measure 40
0000
1000
0110
0110
,  // measure 41
0000
0000
0000
0002
,  // measure 42
2000
0000
3003
0000
,  // measure 43
0110
0010
1000
0000
,  // measure 44
0010
1000
0100
0020
,  // measure 45
0031
0010
0100
0000
,  // measure 46
0010
0001
0100
0020
,  // measure 47
1030
0001
0010
0000
,  // measure 48
0100
0010
0001
2000
,  // measure 49
3100
1000
0010
0000
,  // measure 50
0100
0010
2000
0002
,  // measure 51
3003
0000
0000
0000
;

//---------------dance-single - ----------------
#NOTES:
     dance-single:
     :
     Beginner:
     3:
     0.101192,0.159377,0.041667,0.010417,0.000000,68.000000,64.000000,4.000000,1.000000,0.000000,0.000000,0.101192,0.159377,0.041667,0.010417,0.000000,68.000000,64.000000,4.000000,1.000000,0.000000,0.000000:
// measure 0
0000
0000
0000
0000
,  // measure 1
0010
0000
0000
0000
,  // measure 2
0000
0000
0000
0000
,  // measure 3
0010
0000
0000
0000
,  // measure 4
0000
0000
0000
0000
,  // measure 5
1000
0000
0000
0000
,  // measure 6
0001
0000
0000
0000
,  // measure 7
1000
0000
0000
0000
,  // measure 8
0010
0000
0100
0000
,  // measure 9
1001
0000
0010
0000
,  // measure 10
0000
0000
1000
0000
,  // measure 11
0000
0000
0100
0000
,  // measure 12
0000
0000
1000
0000
,  // measure 13
0000
0000
0001
0000
,  // measure 14
0000
0000
0100
0000
,  // measure 15
0000
0000
0010
0000
,  // measure 16
0000
0000
1000
0000
,  // measure 17
0000
0000
0002
0000
,  // measure 18
0000
0003
1000
0000
,  // measure 19
1000
0000
1000
0000
,  // measure 20
1000
0000
0001
0000
,  // measure 21
0001
0000
0001
0000
,  // measure 22
0001
0000
0100
0000
,  // measure 23
0100
0000
0100
0000
,  // measure 24
0100
0000
0010
0000
,  // measure 25
0010
0000
0010
0000
,  // measure 26
0000
0000
1000
1000
,  // measure 27
0000
0000
0000
0000
,  // measure 28
0000
0000
0001
0001
,  // measure 29
0000
0000
0000
0000
,  // measure 30
0000
0000
0010
0010
,  // measure 31
0000
0000
0000
0000
,  // measure 32
0000
0000
0100
0100
,  // measure 33
0000
0000
1000
0000
,  // measure 34
0001
0000
0110
0000
,  // measure 35
0000
0000
0000
1000
,  // measure 36
0000
0000
0001
0001
,  // measure 37
0000
0000
0000
0000
,  // measure 38
0000
0000
0010
0010
,  // measure 39
0000
0000
0000
0000
,  // measure 40
0000
0000
0100
0100
,  // measure 41
0000
0000
0000
1000
,  // measure 42
1000
0000
1001
0000
,  // measure 43
0010
0000
0000
0000
,  // measure 44
1000
0000
0000
0000
,  // measure 45
0001
0000
0000
0000
,  // measure 46
1000
0000
0001
0000
,  // measure 47
0100
0000
0000
0000
,  // measure 48
0010
0000
0000
0000
,  // measure 49
1000
0000
0000
0000
,  // measure 50
0100
0000
1000
0000
,  // measure 51
1001
0000
0000
0000
;
