#TITLE:Sweet Illusion;
#SUBTITLE:;
#ARTIST:Odyssey Eurobeat;
#TITLETRANSLIT:;
#SUBTITLETRANSLIT:;
#ARTISTTRANSLIT:;
#GENRE:EUROBEAT;
#CREDIT:;
#BANNER:Sweet Illusion.png;
#BACKGROUND:Sweet Illusion-bg.png;
#LYRICSPATH:;
#CDTITLE:;
#MUSIC:Sweet Illusion.ogg;
#OFFSET:-0.150000;
#SAMPLESTART:64.110741;
#SAMPLELENGTH:25.598289;
#SELECTABLE:YES;
#BPMS:0.000000=150.009995
;
#STOPS:
;
#BGCHANGES:;
#KEYSOUNDS:;
#ATTACKS:;

//---------------dance-single - ----------------
#NOTES:
     dance-single:
     :
     Hard:
     13:
     0.451911,0.689944,0.181803,0.909016,0.231799,348.000000,328.000000,20.000000,100.000000,0.000000,0.000000,0.451911,0.689944,0.181803,0.909016,0.231799,348.000000,328.000000,20.000000,100.000000,0.000000,0.000000:
// measure 0
0000
0000
0000
0000
,  // measure 1
0000
0000
0000
0000
,  // measure 2
0000
0000
0000
0000
,  // measure 3
0000
0000
0000
0000
,  // measure 4
0002
0000
0000
0000
,  // measure 5
2003
0000
3020
0000
,  // measure 6
2030
0000
0000
0000
,  // measure 7
3002
0000
0023
0000
,  // measure 8
0230
0000
1000
0000
0310
0002
0000
0010
,  // measure 9
0000
0010
0000
1000
0000
1003
0100
0010
,  // measure 10
0100
0000
1000
0000
0001
0000
1000
0100
,  // measure 11
0000
0010
0000
0100
1000
0000
0001
0000
,  // measure 12
0210
0000
0010
0000
0301
0020
0000
0100
,  // measure 13
0000
0001
0000
0100
0000
0031
0100
0010
,  // measure 14
1000
0000
0001
0000
0010
0000
0100
1000
,  // measure 15
1001
0000
1000
0100
0010
0001
1000
0000
0000
0000
0001
0100
0020
0000
0000
0000
,  // measure 16
1030
0000
0001
1000
0000
1000
0001
0000
2000
0000
3020
0000
0000
0000
0130
0000
,  // measure 17
0001
0000
0010
0000
1000
0000
0020
0000
0000
0000
0130
1000
0001
0100
0001
1000
,  // measure 18
0000
0000
0100
0010
0000
0010
0100
0010
0100
0000
2000
0000
0000
0000
3100
0000
,  // measure 19
0010
0000
0001
0010
0001
1000
0100
1000
0000
1010
0000
0000
0001
0000
1000
0000
,  // measure 20
0020
0000
1030
0100
0000
0100
0010
0000
0200
0000
2300
0000
0000
0000
3010
0000
,  // measure 21
0100
0000
1000
0000
0100
0000
0002
0000
0000
0003
0010
0001
1000
0010
1000
0001
,  // measure 22
0000
0000
1000
0001
0000
0001
0010
0001
0010
0000
0200
0000
0000
0000
1300
0000
,  // measure 23
0000
0000
1000
0100
0010
0001
0010
0100
0000
0110
0000
0000
1000
0000
0001
0000
,  // measure 24
0201
0000
0320
0000
0030
0100
0010
2000
,  // measure 25
0000
3002
0000
0023
0000
0000
0130
1000
,  // measure 26
1200
0000
0320
0000
0030
0100
1000
0020
,  // measure 27
0000
2030
0000
3002
0000
0020
0000
0033
,  // measure 28
0012
0000
0203
0000
0300
0010
0100
0002
,  // measure 29
0000
2003
0000
3200
0000
0000
0310
0100
,  // measure 30
2000
0000
3002
0000
0000
0103
0001
0200
,  // measure 31
0000
0320
0000
2030
0000
0002
0000
3003
,  // measure 32
0000
1000
0010
0001
0010
1000
0000
0020
,  // measure 33
0000
2030
0000
0002
0000
3003
1000
0001
,  // measure 34
0020
0230
2300
3020
,  // measure 35
0130
0010
1000
0001
0000
1000
0100
0000
,  // measure 36
0000
0010
0100
0010
0001
2000
0000
3002
,  // measure 37
0000
0203
0000
0002
0000
0303
1000
0010
,  // measure 38
0100
0001
0010
1000
,  // measure 39
0010
0100
1000
0000
0001
0100
0000
0000
,  // measure 40
1020
0000
0230
0000
0301
0020
0000
1000
,  // measure 41
0000
0001
0000
0230
0000
2000
0000
3300
,  // measure 42
2100
0000
3020
0000
0130
0002
0000
0010
,  // measure 43
0000
0010
0000
2003
0000
0000
3001
0010
,  // measure 44
0021
0000
0100
0000
0031
0200
0000
1000
,  // measure 45
0000
0001
0000
0320
0000
2000
0000
3030
,  // measure 46
1200
0000
0302
0000
0103
0020
0000
0032
,  // measure 47
0000
2003
0000
0020
0000
0000
3030
0000
,  // measure 48
0100
0000
0001
0010
0000
0010
0001
0000
2000
0000
3002
0000
0000
0000
1003
0000
,  // measure 49
0001
0000
0010
0000
1000
0000
0020
0000
0000
0000
0130
1000
0001
0100
0001
0010
,  // measure 50
0000
0000
0100
1000
0000
0100
0010
0100
0010
0000
0002
0000
0000
0000
2003
0000
,  // measure 51
0000
0000
3010
0100
0001
0010
0001
1000
0000
0011
0000
0000
0010
0000
0100
0000
,  // measure 52
1000
0000
0001
0100
0000
0100
0010
0000
2000
0000
3002
0000
0000
0000
0013
0000
,  // measure 53
0001
0000
0100
0000
1000
0000
0200
0000
0000
0000
0310
1000
0001
0010
0001
1000
,  // measure 54
0000
0000
0001
0010
0000
0010
0001
0100
0001
0000
2000
0000
0000
0000
3020
0000
,  // measure 55
0000
0000
0130
0001
0010
0001
1000
0100
0000
1100
0000
0000
1000
0000
0100
0000
,  // measure 56
1002
0000
0100
0000
1003
0200
0000
1000
,  // measure 57
0000
0010
0000
0001
0000
0020
0000
0330
,  // measure 58
2100
0000
3020
0000
0031
0020
0000
1000
,  // measure 59
0000
0001
0000
0230
0000
0000
0310
1000
,  // measure 60
1002
0000
0023
0000
0130
2100
0000
3200
,  // measure 61
0000
0001
0000
1000
0000
0020
0000
0330
,  // measure 62
1200
0000
0001
0000
1300
0120
0000
0001
,  // measure 63
0000
0230
0000
2000
0000
0000
3300
0000
,  // measure 64
2002
0000
0000
0000
,  // measure 65
0000
0000
0000
0000
,  // measure 66
3003
0000
0000
0000
;

//---------------dance-single - ----------------
#NOTES:
     dance-single:
     :
     Medium:
     11:
     0.448015,0.465416,0.490869,0.072721,0.090902,345.000000,291.000000,54.000000,8.000000,0.000000,0.000000,0.448015,0.465416,0.490869,0.072721,0.090902,345.000000,291.000000,54.000000,8.000000,0.000000,0.000000:
// measure 0
0000
0000
0000
0000
,  // measure 1
0000
0000
0000
0000
,  // measure 2
0000
0000
0000
0000
,  // measure 3
0000
0000
0000
0000
,  // measure 4
1000
0000
0001
0000
0000
0010
0000
0000
0001
0000
0000
0100
0000
0000
0001
0000
,  // measure 5
0000
0000
1000
0000
0000
0100
0000
0000
0010
0000
0000
0100
0000
0000
1000
0000
,  // measure 6
0000
0000
0010
0000
0000
0100
0000
0000
0010
0000
0000
1000
0000
0000
0001
0000
,  // measure 7
0000
0000
0010
0000
0000
0001
0000
0000
0100
0000
0000
0001
0000
0000
1000
0000
,  // measure 8
0001
0000
1010
0000
0010
1000
0000
0110
,  // measure 9
0000
0101
0000
1001
0000
0010
0001
0100
,  // measure 10
0010
0000
1000
0000
0001
0000
1000
0001
,  // measure 11
0000
0110
0000
0100
0010
0000
0100
0000
,  // measure 12
1001
0000
0101
0000
0100
0001
0000
0011
,  // measure 13
0000
1010
0000
0011
0000
0010
0100
1000
,  // measure 14
0100
0000
1000
0000
0010
0000
0100
1001
,  // measure 15
0000
0000
0000
0000
,  // measure 16
0001
0000
0000
1000
0000
0000
0010
0000
1000
0000
0100
0000
0000
0000
0010
0000
,  // measure 17
0100
1000
0001
0100
0000
0010
1000
0100
,  // measure 18
0000
0000
1000
0000
0000
0100
0000
0000
1000
0000
0010
0000
0000
0000
0100
0000
,  // measure 19
0010
0000
1000
0000
0001
0000
0010
0000
0000
0100
0000
0000
0010
0000
0001
0000
,  // measure 20
1000
0000
0000
0001
0000
0000
0100
0000
0010
0000
1000
0000
0000
0000
1000
0000
,  // measure 21
0100
0001
0100
1000
0000
0100
0010
0001
,  // measure 22
0000
0000
0010
0000
0000
0001
0000
0000
0100
0000
0010
0000
0000
0000
1000
0000
,  // measure 23
0000
0000
0001
0000
0100
0000
0010
0000
0000
0100
0000
0000
0010
0000
1000
0000
,  // measure 24
1001
0000
1001
0000
0000
0100
1000
0010
,  // measure 25
0000
0100
0000
0001
0000
0000
0010
0100
,  // measure 26
1000
0000
0100
0000
0000
1000
0010
0100
,  // measure 27
0000
0010
0000
1000
0000
0001
0000
0000
,  // measure 28
1100
0000
1100
0000
0000
0100
1000
0010
,  // measure 29
0000
0100
0000
0001
0000
0000
0010
0001
,  // measure 30
0100
0000
0010
0000
0000
0100
0010
1000
,  // measure 31
0000
0001
0000
1001
0000
0110
0000
0000
,  // measure 32
0000
0001
0001
1000
0010
1000
0000
0100
,  // measure 33
0000
0010
0000
0200
0000
0000
0310
0001
,  // measure 34
0100
0010
1000
0100
,  // measure 35
0010
0100
1000
0010
0000
0100
0001
0000
,  // measure 36
0000
1000
1000
0001
0010
0100
0000
0010
,  // measure 37
0000
0001
0000
0200
0000
0000
0310
1000
,  // measure 38
0001
0010
1000
0010
,  // measure 39
0001
0010
0100
0000
0100
0010
0000
0000
,  // measure 40
0110
0000
1100
0000
0100
0010
0000
0011
,  // measure 41
0000
1010
0000
1001
0000
0101
0000
0000
,  // measure 42
0001
0000
1000
0000
0010
1000
0000
1010
,  // measure 43
0000
0101
0000
1002
0000
0000
0010
0013
,  // measure 44
0100
0000
1000
0000
0100
1000
0000
1100
,  // measure 45
0000
0011
0000
0101
0000
1001
0000
0000
,  // measure 46
0001
0000
1000
0000
0010
1000
0000
1010
,  // measure 47
0000
0101
0000
2002
0000
0000
3003
0000
,  // measure 48
1000
0000
0000
0001
0000
0000
0100
0000
0010
0000
1000
0000
0000
0000
0100
0000
,  // measure 49
1000
0010
0100
0001
0000
1000
0100
0001
,  // measure 50
0000
0000
0100
0000
0000
1000
0000
0000
0010
0000
0100
0000
0000
0000
0001
0000
,  // measure 51
1000
0000
0100
0000
0001
0000
0100
0000
0000
0010
0000
0000
0100
0000
0010
0000
,  // measure 52
0100
0000
0000
1000
0000
0000
0010
0000
0100
0000
0001
0000
0000
0000
1000
0000
,  // measure 53
0100
0001
0100
1000
0000
0100
0010
0001
,  // measure 54
0000
0000
0010
0000
0000
0001
0000
0000
0100
0000
0010
0000
0000
0000
0100
0000
,  // measure 55
0000
0000
0010
0000
0100
0000
0001
0000
0000
1000
0000
0000
0001
0000
0010
0000
,  // measure 56
0110
0000
1100
0000
0100
1000
0000
1010
,  // measure 57
0000
0101
0000
1010
0000
0101
0000
0000
,  // measure 58
1001
0000
0001
0000
0010
0001
0000
0011
,  // measure 59
0000
1100
0000
0021
0000
0000
0100
0130
,  // measure 60
1000
0000
1100
0000
0010
0001
0000
0011
,  // measure 61
0000
1100
0000
0101
0000
1010
0000
0000
,  // measure 62
1001
0000
1100
0000
0010
1000
0000
1010
,  // measure 63
0000
0101
0000
2002
0000
0000
3003
0000
,  // measure 64
0110
0000
0000
0000
;

//---------------dance-single - ----------------
#NOTES:
     dance-single:
     :
     Easy:
     6:
     0.262316,0.261797,0.027270,0.036361,0.000000,202.000000,199.000000,3.000000,4.000000,0.000000,0.000000,0.262316,0.261797,0.027270,0.036361,0.000000,202.000000,199.000000,3.000000,4.000000,0.000000,0.000000:
// measure 0
0000
0000
0000
0000
,  // measure 1
0000
0000
0000
0000
,  // measure 2
0000
0000
0000
0000
,  // measure 3
0000
0000
0000
0000
,  // measure 4
1000
0000
0000
0000
,  // measure 5
0001
0000
0010
0000
,  // measure 6
0001
0000
0000
0000
,  // measure 7
0001
0000
0010
0000
,  // measure 8
0001
1000
0010
1000
,  // measure 9
0100
0100
0100
0010
,  // measure 10
0000
0000
0000
0100
,  // measure 11
0000
0000
1000
0000
,  // measure 12
0001
1000
0010
1000
,  // measure 13
0100
0100
0100
0010
,  // measure 14
0000
0000
0000
0100
,  // measure 15
1001
0000
0000
0000
,  // measure 16
1000
0010
1000
0001
,  // measure 17
0010
0100
0010
0001
,  // measure 18
0100
0001
1000
0100
,  // measure 19
0010
0100
1000
0010
,  // measure 20
0100
0001
0010
0001
,  // measure 21
1000
0100
0010
0100
,  // measure 22
1000
0010
0100
0001
,  // measure 23
1000
0010
1000
0001
,  // measure 24
1000
1000
0000
0001
,  // measure 25
1000
0010
1000
0100
,  // measure 26
0010
0010
0000
0100
,  // measure 27
0010
0100
1000
0001
,  // measure 28
0100
0100
0000
0010
,  // measure 29
1000
0001
0010
0001
,  // measure 30
1000
1000
0000
0001
,  // measure 31
1000
0010
1000
0001
,  // measure 32
0000
1000
0100
0010
,  // measure 33
0100
1000
0020
0030
,  // measure 34
0100
0001
0010
0001
,  // measure 35
1000
0001
0100
0010
,  // measure 36
0000
0100
0001
0010
,  // measure 37
0001
1000
0200
0300
,  // measure 38
1000
1000
0001
0001
,  // measure 39
0100
0010
1001
0000
,  // measure 40
1000
0000
0010
0000
0100
0000
0000
0010
,  // measure 41
0000
1000
0000
0001
0000
0010
0000
0000
,  // measure 42
0100
0000
0010
0000
0001
0000
0000
0010
,  // measure 43
0000
0001
0000
1000
0000
0000
0001
1000
,  // measure 44
0001
0000
0010
0000
0001
0000
0000
0100
,  // measure 45
0000
0010
0000
1000
0000
0100
0000
0000
,  // measure 46
0010
0000
0100
0000
1000
0000
0000
0100
,  // measure 47
0000
1000
0000
0020
0000
0000
0030
0000
,  // measure 48
0100
0001
0010
0000
,  // measure 49
0100
1000
0010
0100
,  // measure 50
0001
1000
0010
1000
,  // measure 51
0001
0010
0100
0010
,  // measure 52
0001
1000
0010
0000
,  // measure 53
0100
0001
0010
0000
,  // measure 54
0100
0010
0001
1000
,  // measure 55
0010
0100
0001
1000
,  // measure 56
0001
0000
0010
0000
0001
0000
0000
0100
,  // measure 57
0000
0001
0000
0010
0000
0100
0000
0000
,  // measure 58
0010
0000
0001
0000
1000
0000
0000
0100
,  // measure 59
0000
1000
0000
0010
0000
0000
0100
0010
,  // measure 60
0100
0000
0001
0000
1000
0000
0000
0100
,  // measure 61
0000
1000
0000
0001
0000
0010
0000
0000
,  // measure 62
0100
0000
0010
0000
0001
0000
0000
0100
,  // measure 63
0000
0010
0000
2000
0000
0000
3000
0000
,  // measure 64
1001
0000
0000
0000
;

//---------------dance-single - ----------------
#NOTES:
     dance-single:
     :
     Beginner:
     4:
     0.148040,0.203620,0.018180,0.000000,0.000000,114.000000,112.000000,2.000000,0.000000,0.000000,0.000000,0.148040,0.203620,0.018180,0.000000,0.000000,114.000000,112.000000,2.000000,0.000000,0.000000,0.000000:
// measure 0
0000
0000
0000
0000
,  // measure 1
0000
0000
0000
0000
,  // measure 2
0000
0000
0000
0000
,  // measure 3
0000
0000
0000
0000
,  // measure 4
0010
0000
0000
0000
,  // measure 5
1000
0000
0001
0000
,  // measure 6
1000
0000
0000
0000
,  // measure 7
0001
0000
1000
0000
,  // measure 8
0010
0000
0010
0000
,  // measure 9
0010
0010
0010
0000
,  // measure 10
0000
0000
0000
0000
,  // measure 11
0000
0000
0000
0000
,  // measure 12
1000
0000
1000
0000
,  // measure 13
1000
1000
1000
0000
,  // measure 14
0000
0000
0000
0000
,  // measure 15
1001
0000
0000
0000
,  // measure 16
0010
0000
0010
0000
,  // measure 17
1000
0000
0000
0000
,  // measure 18
0001
0000
0010
0000
,  // measure 19
0100
0000
0000
0000
,  // measure 20
0010
0000
0010
0000
,  // measure 21
0001
0000
0000
0000
,  // measure 22
1000
0000
1000
0000
,  // measure 23
0010
0000
0000
0000
,  // measure 24
0100
0100
0000
0000
,  // measure 25
0010
0000
0000
0000
,  // measure 26
1000
1000
0000
0000
,  // measure 27
0001
0000
0000
0000
,  // measure 28
0010
0010
0000
0000
,  // measure 29
0000
0000
0000
0000
,  // measure 30
0100
0100
0000
0000
,  // measure 31
1000
0000
0000
0000
,  // measure 32
0001
0000
1000
0000
,  // measure 33
0001
0000
0000
0000
,  // measure 34
0100
0000
0010
0000
,  // measure 35
1000
0001
1000
0001
,  // measure 36
0100
0000
0000
0000
,  // measure 37
0010
0000
0000
0000
,  // measure 38
1000
0000
0001
0000
,  // measure 39
0100
0100
0100
0000
,  // measure 40
0010
0000
1000
0000
,  // measure 41
0100
0100
0100
0000
,  // measure 42
1000
0000
0001
0000
,  // measure 43
0100
0100
0100
0000
,  // measure 44
0010
0000
1000
0000
,  // measure 45
0001
0001
0001
0000
,  // measure 46
1000
0000
0001
0000
,  // measure 47
0100
0100
0100
0000
,  // measure 48
0010
0000
1000
0000
,  // measure 49
0100
0100
0000
0000
,  // measure 50
0010
0000
0001
0000
,  // measure 51
1000
0000
0000
0000
,  // measure 52
0001
0000
1000
0000
,  // measure 53
0010
0010
0000
0000
,  // measure 54
0100
0000
0010
0000
,  // measure 55
1000
0000
0000
0000
,  // measure 56
0001
0000
1000
0000
,  // measure 57
0010
0010
0010
0000
,  // measure 58
1000
0000
0100
0000
,  // measure 59
1000
1000
1000
0001
,  // measure 60
1000
0000
0010
0000
,  // measure 61
0100
0100
0100
0000
,  // measure 62
0010
0000
1000
0000
,  // measure 63
0001
0001
0001
0000
,  // measure 64
0110
0000
0000
0000
;
