#VERSION:0.83;
#TITLE:Stockholm to Bombay;
#SUBTITLE:;
#ARTIST:DR. BOMBAY;
#TITLETRANSLIT:;
#SUBTITLETRANSLIT:;
#ARTISTTRANSLIT:;
#GENRE:;
#ORIGIN:;
#CREDIT:;
#BANNER:Stockholm to Bombay.png;
#BACKGROUND:Stockholm to Bombay-bg.png;
#PREVIEWVID:;
#JACKET:Stockholm to Bombay-jacket.png;
#CDIMAGE:;
#DISCIMAGE:;
#LYRICSPATH:;
#CDTITLE:;
#MUSIC:Stockholm to Bombay.ogg;
#OFFSET:1.315002;
#SAMPLESTART:66.576729;
#SAMPLELENGTH:13.927582;
#SELECTABLE:YES;
#BPMS:0.000=140.010;
#STOPS:;
#DELAYS:;
#WARPS:;
#TIMESIGNATURES:0.000=4=4;
#TICKCOUNTS:0.000=4;
#COMBOS:0.000=1;
#SPEEDS:0.000=1.000=0.000=0;
#SCROLLS:0.000=1.000;
#FAKES:;
#LABELS:0.000=Song Start;
#BGCHANGES:3.000=Stockholm to Bombay.avi=1.000=1=0=1===CrossFade==,
99999=-nosongbg-=1.000=0=0=0 // don't automatically add -songbackground-
;
#KEYSOUNDS:;
#ATTACKS:
;

//---------------dance-single - ----------------
#NOTEDATA:;
#CHARTNAME:;
#STEPSTYPE:dance-single;
#DESCRIPTION:;
#CHARTSTYLE:;
#DIFFICULTY:Hard;
#METER:13;
#RADARVALUES:0.568411,0.638756,0.333309,0.000000,0.343725,382.000000,350.000000,32.000000,0.000000,0.000000,0.000000,0.000000,0.000000,0.000000,0.568411,0.638756,0.333309,0.000000,0.343725,382.000000,350.000000,32.000000,0.000000,0.000000,0.000000,0.000000,0.000000,0.000000;
#CREDIT:Pandemonium X;
#NOTES:
// measure 0
0000
0000
0000
0000
,  // measure 1
0000
0000
0000
0000
,  // measure 2
0000
0000
0000
0000
,  // measure 3
0000
0000
0000
0000
,  // measure 4
1000
0000
0001
0100
0000
0100
0001
0000
0010
0000
0010
0000
0010
0100
0000
0000
,  // measure 5
0010
0001
0000
0100
0010
0000
1000
0001
0000
0010
0000
0100
0010
0001
0000
0000
,  // measure 6
1000
0000
0010
1000
0000
1000
0001
0000
0100
0000
0100
0000
0100
0010
0000
0000
,  // measure 7
0100
0000
0010
0100
0000
0001
1000
0000
0010
0000
1000
0000
1001
0000
0000
0001
,  // measure 8
0010
0000
0001
0000
0000
0000
0000
0000
0000
0000
1000
0000
0010
0000
0000
1000
,  // measure 9
0001
0000
1000
0000
0010
0000
0000
1000
0001
0000
1000
0000
0010
0000
1000
0000
,  // measure 10
0001
0000
0001
0000
1000
0000
0100
0000
0010
0000
0010
0000
0100
0000
0000
1000
,  // measure 11
0010
0000
0000
0000
0100
0000
0000
0000
0001
0000
0010
0000
0100
0000
0000
0010
,  // measure 12
0001
0000
0100
0000
0000
0000
0000
0000
0000
0000
0001
0000
0100
0000
0000
0010
,  // measure 13
1000
0000
0100
0000
0100
1000
0100
0001
,  // measure 14
0100
0000
0100
0000
0010
0000
0001
0000
0100
0000
0100
0000
0100
0000
0000
0010
,  // measure 15
0100
0000
0010
1000
0001
0100
0010
1000
,  // measure 16
0001
0000
1000
0000
0100
0010
0100
0010
0100
0000
1000
0100
0001
0000
0100
0000
,  // measure 17
1000
0000
0010
0100
0000
0001
1000
0000
0001
0000
1000
0010
0001
0000
0000
0000
,  // measure 18
0010
0000
0100
0001
0000
0010
0100
0000
0010
0000
0001
0000
1000
0000
0010
0000
,  // measure 19
1000
0001
1001
0000
0110
0000
1001
0000
,  // measure 20
1000
0000
1000
0001
0000
0010
0001
0000
0010
0000
0001
0100
1000
0000
0100
0000
,  // measure 21
0001
0000
0001
1000
0000
0100
0010
0000
0100
0000
1000
0100
0001
0000
0100
0000
,  // measure 22
0010
0000
0001
0000
1000
0000
0000
1000
0001
0000
0010
0000
0001
0000
1000
0000
,  // measure 23
0001
0000
0000
0000
0000
1000
0010
0000
,  // measure 24
0101
0100
0100
0100
,  // measure 25
1010
0010
0010
0010
,  // measure 26
1100
0000
0100
0000
0100
0000
0100
0010
,  // measure 27
0001
0000
0000
1000
0001
0000
1000
0000
0001
0000
0000
0000
0010
0000
0000
0000
,  // measure 28
1001
0001
0010
0100
,  // measure 29
1001
1000
0100
0110
,  // measure 30
1001
0000
0000
0000
0000
0000
0000
1000
,  // measure 31
0010
0000
0000
0010
0100
0000
0001
0000
0010
0000
0000
0000
0000
0000
0000
0000
,  // measure 32
0000
0001
0100
1000
0100
0001
1000
0000
,  // measure 33
0000
1000
0010
0001
0010
1000
0001
0000
,  // measure 34
0000
1000
0100
0001
0100
0010
0100
0010
,  // measure 35
0100
0000
1000
0000
0010
0100
0001
0000
,  // measure 36
0001
0000
1000
1000
0000
0001
0001
0100
,  // measure 37
0000
0100
0010
1000
0100
0000
0011
0000
,  // measure 38
1100
0100
0010
0001
,  // measure 39
1000
0001
0000
0100
0010
0000
1000
0001
0000
0100
0010
0000
1001
0000
0000
0000
,  // measure 40
0101
0000
1000
1010
0000
0001
1000
1001
,  // measure 41
0000
1000
0100
0110
1100
0000
1001
0000
,  // measure 42
0110
0000
0100
0101
0000
0001
0010
0100
,  // measure 43
0010
0000
0000
0010
0001
0000
0100
0000
0010
0000
0000
0000
1100
0000
0000
0000
,  // measure 44
0101
0000
0001
1001
0000
1000
0010
0110
,  // measure 45
0000
0100
0001
0011
0101
0000
1001
0000
,  // measure 46
0110
0000
1000
0000
0001
0000
0010
0100
,  // measure 47
0010
0000
0000
0010
0100
0000
1000
0000
0010
0000
0000
0000
0000
0000
0000
0000
,  // measure 48
1000
0000
0001
0100
0000
0100
0001
0000
1000
0000
1000
0000
1000
0001
0000
0000
,  // measure 49
1000
0000
0100
1000
0000
1000
0100
0000
0010
0000
0010
0000
0010
0100
0000
0000
,  // measure 50
0010
0000
0001
1000
0000
1000
0001
0000
0010
0000
0010
0000
0010
0100
0000
0000
,  // measure 51
0010
0000
0100
1000
0000
1000
0100
0000
0010
0000
0010
0000
0010
0001
0000
0000
,  // measure 52
0100
0000
0010
1000
0000
0001
0100
0000
0010
0000
0010
0000
0010
0100
0000
0000
,  // measure 53
0010
0000
1000
0001
0000
0010
0100
0000
1000
0000
1000
0000
1000
0001
0000
0000
,  // measure 54
0010
0000
0001
0100
0000
0010
1000
0000
0001
0000
0001
0000
0001
0100
0000
0000
,  // measure 55
0010
0000
0000
0100
0010
0000
1000
0000
1001
0000
0000
0000
0110
0000
0000
0000
;

//---------------dance-single - ----------------
#NOTEDATA:;
#CHARTNAME:;
#STEPSTYPE:dance-single;
#DESCRIPTION:;
#CHARTSTYLE:;
#DIFFICULTY:Medium;
#METER:8;
#RADARVALUES:0.380925,0.435515,0.354141,0.000000,0.005208,256.000000,222.000000,34.000000,0.000000,0.000000,0.000000,0.000000,0.000000,0.000000,0.380925,0.435515,0.354141,0.000000,0.005208,256.000000,222.000000,34.000000,0.000000,0.000000,0.000000,0.000000,0.000000,0.000000;
#CREDIT:Pandemonium X;
#NOTES:
// measure 0
0000
0000
0000
0000
,  // measure 1
0000
0000
0000
0000
,  // measure 2
0000
0000
0000
0000
,  // measure 3
0000
0000
0000
0000
,  // measure 4
1000
0000
0100
0000
1000
0010
0100
0000
,  // measure 5
0010
0000
1000
0000
0001
0010
0001
1000
,  // measure 6
0100
0000
1000
0000
0001
0010
0100
0000
,  // measure 7
0010
0001
0101
1100
,  // measure 8
0001
1000
0000
0000
0000
0010
1000
0000
,  // measure 9
0100
0000
0000
0000
0000
0010
0100
0000
,  // measure 10
1000
0000
0010
0000
0001
0000
0010
0100
,  // measure 11
0001
0000
0000
0000
0000
1000
0001
0000
,  // measure 12
0011
0000
0000
0000
0000
0001
0100
0000
,  // measure 13
1010
0000
0000
0000
0000
0100
0010
0000
,  // measure 14
1000
0000
0100
0000
0010
0001
1000
0010
,  // measure 15
0100
0110
1001
0110
,  // measure 16
0001
0000
0100
0100
0100
0000
0010
0000
,  // measure 17
1000
0000
0001
0001
0001
0000
1000
0000
,  // measure 18
0001
0010
0001
0100
,  // measure 19
0010
0101
1100
0101
,  // measure 20
1000
0001
0011
0000
,  // measure 21
0001
1000
1100
0000
,  // measure 22
1000
0000
0100
0000
0010
0000
0001
1000
,  // measure 23
0010
0100
0001
1000
,  // measure 24
1001
0001
0001
0001
,  // measure 25
1001
1000
1000
1000
,  // measure 26
0110
0010
0010
0010
,  // measure 27
0110
0000
0100
0100
0100
0000
0010
0000
,  // measure 28
1000
0010
0100
0001
,  // measure 29
0010
0100
0010
0001
,  // measure 30
1000
0100
0010
0001
,  // measure 31
1000
0000
0100
0100
0100
0000
1000
0000
,  // measure 32
0001
0000
0100
0000
0010
0100
0001
0000
,  // measure 33
0010
0000
0100
0000
1000
0100
0010
0000
,  // measure 34
0100
0000
1000
0000
0010
0100
0001
0100
,  // measure 35
0010
1000
0001
0010
,  // measure 36
1001
1000
0100
1000
,  // measure 37
1010
0000
0100
0010
1000
0000
0101
0000
,  // measure 38
0011
0001
1000
0010
,  // measure 39
1000
0000
0000
0000
0000
0001
1000
0000
,  // measure 40
1100
0000
0000
0011
0000
0000
0000
0101
,  // measure 41
0000
0001
0100
0100
0001
0000
0100
0000
,  // measure 42
0110
0000
0000
1010
0000
0000
0000
1000
,  // measure 43
0100
0000
0010
0010
0010
0000
0110
0000
,  // measure 44
0011
0000
0000
1100
0000
0000
0000
1010
,  // measure 45
0000
0010
1000
1000
0001
0000
0010
0000
,  // measure 46
0011
0000
0000
0000
,  // measure 47
0001
0000
0100
0100
0100
0000
0010
0000
,  // measure 48
0000
1000
0010
1000
0010
1000
0010
0000
,  // measure 49
0000
0100
0001
0100
0001
0100
0001
0000
,  // measure 50
0000
1000
0001
1000
0001
0010
0001
1000
,  // measure 51
0001
0000
0000
0000
0000
1000
0001
0000
,  // measure 52
1000
0000
0000
1100
0000
0000
0000
0011
,  // measure 53
0000
0010
0001
0001
0100
0000
0001
0000
,  // measure 54
0101
0000
0000
0000
0000
0000
0000
1000
,  // measure 55
0001
0000
0000
0001
1000
0000
0001
0000
0100
0000
0000
0000
1010
0000
0000
0000
;

//---------------dance-single - ----------------
#NOTEDATA:;
#CHARTNAME:;
#STEPSTYPE:dance-single;
#DESCRIPTION:;
#CHARTSTYLE:;
#DIFFICULTY:Easy;
#METER:6;
#RADARVALUES:0.224686,0.348412,0.052080,0.000000,0.000000,151.000000,146.000000,5.000000,0.000000,0.000000,0.000000,0.000000,0.000000,0.000000,0.224686,0.348412,0.052080,0.000000,0.000000,151.000000,146.000000,5.000000,0.000000,0.000000,0.000000,0.000000,0.000000,0.000000;
#CREDIT:Pandemonium X;
#NOTES:
// measure 0
0000
0000
0000
0000
,  // measure 1
0000
0000
0000
0000
,  // measure 2
0000
0000
0000
0000
,  // measure 3
0000
0000
0000
0000
,  // measure 4
1000
0001
0010
0000
,  // measure 5
0001
1000
0100
0010
,  // measure 6
0001
1000
0100
0000
,  // measure 7
1000
0010
0100
0001
,  // measure 8
0010
0000
0000
0100
,  // measure 9
0010
0000
0000
0100
,  // measure 10
1000
1000
0001
0001
,  // measure 11
1000
0000
0000
0010
,  // measure 12
1000
0000
0000
0001
,  // measure 13
0010
0000
0000
0100
,  // measure 14
0010
0001
1000
1000
,  // measure 15
0001
0000
0000
0000
,  // measure 16
1000
0001
1000
0000
,  // measure 17
0010
0100
0010
0000
,  // measure 18
1000
0010
0100
0001
,  // measure 19
1000
1001
0110
1001
,  // measure 20
0001
1000
0010
0000
,  // measure 21
1000
0001
0100
0000
,  // measure 22
0001
1000
0100
0001
,  // measure 23
0100
0000
0000
0010
,  // measure 24
0001
0000
0001
0000
,  // measure 25
1000
0000
1000
0000
,  // measure 26
0010
0000
0010
0000
,  // measure 27
0100
0100
0100
0000
,  // measure 28
0010
0000
1000
0000
,  // measure 29
0100
0000
0010
0000
,  // measure 30
0001
0000
0000
0000
,  // measure 31
1000
0001
1000
0000
,  // measure 32
0010
1000
0100
0010
,  // measure 33
0000
0100
1000
0001
,  // measure 34
0000
0100
0001
0010
,  // measure 35
0001
0000
0000
1000
,  // measure 36
0001
1000
0010
0000
,  // measure 37
1000
0100
0010
0100
,  // measure 38
0010
0000
0000
0000
,  // measure 39
0110
0000
0000
0010
,  // measure 40
0001
0000
0000
0001
0000
0000
0000
1000
,  // measure 41
0000
0001
1000
0010
,  // measure 42
1000
0000
0000
1000
0000
0000
0000
0000
,  // measure 43
0100
0000
1000
0001
1000
0000
0001
0000
,  // measure 44
1000
0000
0000
0010
0000
0000
0000
1000
,  // measure 45
0000
0010
0100
0001
,  // measure 46
0010
0000
0000
0000
,  // measure 47
0100
0000
0010
0100
0010
0000
0000
0000
,  // measure 48
0100
0010
0001
1000
,  // measure 49
0000
0001
1000
0010
,  // measure 50
0000
0100
0010
0100
,  // measure 51
0010
0000
0000
1000
,  // measure 52
0001
0000
0000
1000
0000
0000
0000
0010
,  // measure 53
0000
1000
0100
0010
,  // measure 54
0001
0000
0000
0000
,  // measure 55
1000
0000
0001
1000
0001
0000
0110
0000
;

//---------------dance-single - ----------------
#NOTEDATA:;
#CHARTNAME:;
#STEPSTYPE:dance-single;
#DESCRIPTION:;
#CHARTSTYLE:;
#DIFFICULTY:Beginner;
#METER:3;
#RADARVALUES:0.133919,0.203240,0.020832,0.000000,0.000000,90.000000,88.000000,2.000000,0.000000,0.000000,0.000000,0.000000,0.000000,0.000000,0.133919,0.203240,0.020832,0.000000,0.000000,90.000000,88.000000,2.000000,0.000000,0.000000,0.000000,0.000000,0.000000,0.000000;
#CREDIT:Pandemonium X;
#NOTES:
// measure 0
0000
0000
0000
0000
,  // measure 1
0000
0000
0000
0000
,  // measure 2
0000
0000
0000
0000
,  // measure 3
0000
0000
0000
0000
,  // measure 4
1000
0000
0000
0000
,  // measure 5
0001
0000
0000
0000
,  // measure 6
1000
0000
0000
0000
,  // measure 7
0001
0000
0000
0010
,  // measure 8
0010
0000
0000
0100
,  // measure 9
0100
0000
0000
0000
,  // measure 10
0010
0000
0001
0000
,  // measure 11
1000
0000
0000
0010
,  // measure 12
0010
0000
0000
1000
,  // measure 13
1000
0000
0000
0000
,  // measure 14
0001
0000
1000
0000
,  // measure 15
0010
0000
0000
0000
,  // measure 16
1000
1000
1000
0000
,  // measure 17
0001
0001
0001
0000
,  // measure 18
0100
0000
0010
0000
,  // measure 19
0100
0010
0100
0010
,  // measure 20
0100
0000
0001
0000
,  // measure 21
1000
0000
0100
0000
,  // measure 22
0010
0000
0001
0001
,  // measure 23
1000
0000
0000
0000
,  // measure 24
0010
0000
0000
0000
,  // measure 25
0100
0000
0000
0000
,  // measure 26
0001
0000
0000
0000
,  // measure 27
1000
0000
0000
0000
,  // measure 28
0001
0000
0000
0000
,  // measure 29
0010
0000
0000
0000
,  // measure 30
0001
0000
0000
0000
,  // measure 31
1000
1000
1000
0000
,  // measure 32
0001
0000
0000
0000
,  // measure 33
0100
0000
0000
0000
,  // measure 34
0010
0000
1000
0000
,  // measure 35
0100
0000
0000
0000
,  // measure 36
0010
0000
0000
0000
,  // measure 37
0100
0000
0000
1000
,  // measure 38
1000
0000
0000
0000
,  // measure 39
1001
0000
0000
0000
,  // measure 40
0010
0000
0000
0000
,  // measure 41
0100
0000
0100
0000
,  // measure 42
0001
0000
0000
0000
,  // measure 43
1000
1000
1000
0000
,  // measure 44
0010
0000
0000
0000
,  // measure 45
1000
0000
0100
0000
,  // measure 46
0010
0000
0000
0000
,  // measure 47
0001
1000
1000
0000
,  // measure 48
0001
0000
1000
0000
,  // measure 49
0010
0000
1000
0000
,  // measure 50
0100
0000
1000
0001
,  // measure 51
1000
0000
0000
0000
,  // measure 52
0010
0000
0000
0000
,  // measure 53
0100
0000
0000
0010
,  // measure 54
0010
0000
0000
0000
,  // measure 55
1000
0001
1000
0110
;
