#TITLE:Skulk;
#SUBTITLE:;
#ARTIST:echo !mage;
#TITLETRANSLIT:;
#SUBTITLETRANSLIT:;
#ARTISTTRANSLIT:;
#GENRE:;
#CREDIT:;
#BANNER:Skulk.png;
#BACKGROUND:Skulk-bg.png;
#LYRICSPATH:;
#CDTITLE:;
#MUSIC:Skulk.ogg;
#OFFSET:0.011000;
#SAMPLESTART:78.037926;
#SAMPLELENGTH:15.000000;
#SELECTABLE:YES;
#DISPLAYBPM:135.000000;
#BPMS:0.000000=135.270004
;
#STOPS:
;
#BGCHANGES:;
#KEYSOUNDS:;
#ATTACKS:;

//---------------dance-single - ----------------
#NOTES:
     dance-single:
     :
     Hard:
     15:
     0.635780,0.860596,0.260261,0.477145,0.646314,513.000000,483.000000,30.000000,55.000000,0.000000,0.000000,0.635780,0.860596,0.260261,0.477145,0.646314,513.000000,483.000000,30.000000,55.000000,0.000000,0.000000:
// measure 0
0000
0000
0000
0000
,  // measure 1
0000
0000
0000
0000
,  // measure 2
0000
0000
0000
0000
,  // measure 3
0000
0000
0000
0000
,  // measure 4
0000
0000
0000
0000
,  // measure 5
1001
0000
0000
1000
0000
0000
0001
0000
0000
0010
0000
0000
0100
0000
0010
0000
,  // measure 6
0001
0000
0000
1000
0000
0000
0001
0000
0000
0100
0000
0000
0010
0000
1000
0000
,  // measure 7
1100
0000
1100
0000
0000
0000
0010
0000
0000
0100
0000
0000
1000
0000
0001
0000
,  // measure 8
0200
0320
0230
0320
,  // measure 9
1030
0000
0100
0010
0000
0100
1000
0000
0100
0010
0000
0100
1000
0000
0001
0000
,  // measure 10
0100
0000
0010
1000
0000
0010
0100
0000
0010
1000
0000
0010
0100
0000
0001
0000
,  // measure 11
0010
0000
0100
0010
0000
0001
0010
0000
0100
0010
0000
0001
0100
0000
0010
0000
,  // measure 12
1000
0000
0001
1000
0000
0001
0010
0000
0001
1000
0000
0001
0010
0000
0100
0000
,  // measure 13
1000
0000
0100
0010
0000
0100
1000
0000
0100
0010
0000
0100
1000
0000
0010
0000
,  // measure 14
0100
0000
0001
0010
0000
0001
0100
0000
0001
0010
0000
0001
0100
0000
0001
0000
,  // measure 15
1000
0000
0001
1000
0000
0010
0100
0000
0001
1000
0000
0010
0100
0000
0001
0000
,  // measure 16
1000
0000
0100
0010
0000
0001
0010
0000
0100
1000
0000
0010
1000
0000
0010
0000
,  // measure 17
0200
0000
0000
0000
0000
0000
0000
0000
0000
0302
0000
0000
0000
0000
0000
0000
0000
0000
0013
0000
0000
0000
0000
0000
0200
0000
0000
0000
0000
0000
0000
0000
0300
2000
0000
0000
0000
0000
0000
0000
0000
0000
3010
0000
0000
0000
0000
0000
,  // measure 18
0200
0000
0000
0302
0000
0000
0013
0000
0000
0100
0000
0000
1000
0000
0002
0000
,  // measure 19
2000
0000
0000
0000
0000
0000
0000
3003
,  // measure 20
1001
0000
1000
0010
0000
0010
0100
0000
0100
0001
0000
0001
1000
0000
0001
0000
,  // measure 21
1000
0000
0001
0010
0000
0010
0100
0000
0100
1000
0000
1000
0100
0000
1000
0000
,  // measure 22
0010
0000
1000
0010
0000
0010
0100
0000
0100
0001
0000
0001
0010
0000
0100
0000
,  // measure 23
0010
0000
0001
0010
0000
0010
0001
0000
0001
1000
0000
1000
0010
0000
0010
0000
,  // measure 24
0100
0001
0100
0001
0100
0000
0001
0000
1000
0010
1000
0010
1000
0000
0001
0000
,  // measure 25
1000
0100
1000
0100
1000
0000
0100
0000
0010
0001
0010
0001
0010
0000
0100
0000
,  // measure 26
1001
0000
0001
0100
0000
0010
1000
0000
0100
0010
0000
0100
1000
0000
0010
0000
,  // measure 27
0100
0000
0001
0010
0000
0100
0010
0000
0100
1000
0000
0100
0010
0000
0001
0000
,  // measure 28
0100
0000
0001
0010
0000
0100
0010
0000
0100
1000
0000
0010
0100
0000
0001
0000
,  // measure 29
0010
0000
0100
1000
0000
0100
0010
0000
0100
1000
0000
0001
0100
0000
0010
0000
,  // measure 30
1000
0000
0001
0100
0000
1000
0100
0000
0001
0100
0000
0010
1000
0000
0001
0000
,  // measure 31
1000
0000
0001
0010
0000
1000
0010
0000
1000
0001
0000
0100
0001
0000
0100
0000
,  // measure 32
0010
0010
0100
0001
1000
0100
0001
0100
,  // measure 33
1000
1000
0010
1000
0100
0001
0100
1000
,  // measure 34
0010
0010
0100
0001
0010
1000
0010
0001
,  // measure 35
0100
0100
0010
1000
0001
0010
1000
0010
,  // measure 36
0001
0010
0100
1000
0001
1000
0001
0000
1000
0100
1000
0100
0010
0001
0010
0001
,  // measure 37
1000
0100
0010
0001
1000
0001
1000
0000
0001
0010
0001
0010
0100
1000
0100
1000
,  // measure 38
0001
0010
0100
1000
0001
1000
0001
0000
1000
0100
1000
0100
0010
0001
0010
0001
,  // measure 39
1000
0100
0010
0001
1000
0001
1000
0000
0001
0100
0001
0100
0010
1000
0010
1000
,  // measure 40
0001
0100
0010
1000
0001
0100
0010
0000
1000
0100
0010
0001
1000
0100
0010
0001
,  // measure 41
1000
0010
0100
0001
1000
0010
0100
0000
0001
0010
0100
1000
0001
0010
0100
1000
,  // measure 42
0001
0100
0010
1000
0001
0100
0010
0000
1000
0010
1000
0100
0010
0001
0010
0100
,  // measure 43
1000
0100
0010
0001
0000
0010
0001
0100
0000
0010
1000
0001
0000
0010
0100
1000
,  // measure 44
1002
0000
0013
0001
0100
0001
1000
0100
,  // measure 45
0210
0000
1000
0000
0310
0100
1000
0001
,  // measure 46
0100
1000
0100
0001
0010
1000
0010
0001
,  // measure 47
0100
0010
1000
0001
0010
0100
1000
0000
,  // measure 48
0010
0000
1001
0001
0010
0100
0010
0001
,  // measure 49
0100
0000
0000
0000
1010
0000
0000
0000
0101
0000
0001
0000
0010
0000
0000
0010
,  // measure 50
0100
0000
0000
0100
1000
0000
0000
1000
0001
0000
0100
0000
0002
0000
0020
0000
,  // measure 51
0000
0000
0000
0033
,  // measure 52
2002
0000
0000
3003
0010
0000
1002
0000
0000
0003
2010
0000
0000
0000
0000
3000
,  // measure 53
0120
0000
0000
0030
0000
0001
1200
0000
,  // measure 54
0320
0000
0000
0000
0130
0000
2001
0000
0000
3000
2010
0000
0000
3000
1002
0000
,  // measure 55
0000
0003
0102
0000
0000
0003
2001
0000
0000
3000
1200
0000
0000
0000
0000
0000
,  // measure 56
0300
0000
0000
0000
0120
0000
0000
0030
0012
0000
0000
0003
0100
0000
2001
0000
,  // measure 57
0000
0000
0000
0000
3000
0000
0000
0000
0000
0000
0100
0000
2001
0000
0000
3000
,  // measure 58
0021
0000
0000
0030
1200
0000
0000
0300
0010
0000
0021
0000
0000
0030
0210
0000
,  // measure 59
0000
0300
2000
0000
3002
0000
2000
0000
0003
0000
3002
0000
2000
0000
3003
0000
,  // measure 60
0120
0000
2030
3200
0000
2300
0000
0000
,  // measure 61
0002
0000
0000
0000
3003
0000
0000
0100
,  // measure 62
0020
0000
2030
3200
0000
2300
0000
3002
,  // measure 63
0000
2003
0000
3200
0000
0020
0000
0000
,  // measure 64
0330
0000
0000
0000
;

//---------------dance-single - ----------------
#NOTES:
     dance-single:
     :
     Medium:
     10:
     0.353211,0.416417,0.156156,0.294962,0.156156,285.000000,267.000000,18.000000,34.000000,0.000000,0.000000,0.353211,0.416417,0.156156,0.294962,0.156156,285.000000,267.000000,18.000000,34.000000,0.000000,0.000000:
// measure 0
0000
0000
0000
0000
,  // measure 1
0000
0000
0000
0000
,  // measure 2
0000
0000
0000
0000
,  // measure 3
0000
0000
0000
0000
,  // measure 4
0000
0000
0000
0000
,  // measure 5
1001
0000
0000
0000
,  // measure 6
0000
0000
0000
0000
,  // measure 7
0110
0110
0000
0000
0000
0000
0000
0000
,  // measure 8
2000
3002
2003
3002
,  // measure 9
1003
0000
0000
0001
0000
0000
0010
0000
0000
0001
0000
0000
0100
0000
0001
0000
,  // measure 10
0010
0000
0000
0100
0000
0000
0010
0000
0000
0001
0000
0000
1000
0000
0100
0000
,  // measure 11
0010
0000
0000
0100
0000
0000
1000
0000
0000
0010
0000
0000
0100
0000
0010
0000
,  // measure 12
1000
0000
0000
0001
0000
0000
0010
0000
0000
0001
0000
0000
1000
0000
0100
0000
,  // measure 13
0010
0000
0000
0100
0000
0000
1000
0000
0000
0010
0000
0000
0100
0000
0010
0000
,  // measure 14
1000
0000
0000
0001
0000
0000
0010
0000
0000
0100
0000
0000
0010
0000
0001
0000
,  // measure 15
0100
0000
0000
0001
0000
0000
0010
0000
0000
0100
0000
0000
0010
0000
0001
0000
,  // measure 16
1000
0000
0000
0010
0000
0000
0100
0000
0000
0001
0000
0000
1000
0000
0010
0000
,  // measure 17
0200
0000
0302
0000
,  // measure 18
0023
0000
0230
0000
,  // measure 19
2000
0000
0000
3300
,  // measure 20
0011
0000
0000
0010
0000
0000
0001
0000
0000
0100
0000
0000
0001
0000
0001
0000
,  // measure 21
1000
0000
0000
0001
0000
0000
0010
0000
0000
0100
0000
0000
1000
0000
1000
0000
,  // measure 22
0100
0000
0000
1000
0000
0000
0010
0000
0000
0100
0000
0000
0001
0000
0001
0000
,  // measure 23
0100
0000
0000
0010
0000
0000
1000
0000
0000
0001
0000
0000
1000
0000
1000
0000
,  // measure 24
0002
0000
0013
0100
2000
0000
3100
0010
,  // measure 25
0002
0000
0013
0100
2000
0000
3100
0010
,  // measure 26
0001
0000
0000
1000
0000
0000
0001
0000
0000
0100
0000
0000
0001
0000
0001
0000
,  // measure 27
0010
0000
0000
0100
0000
0000
1000
0000
0000
0100
0000
0000
0010
0000
0010
0000
,  // measure 28
0100
0000
0000
0010
0000
0000
0001
0000
0000
0100
0000
0000
0010
0000
0010
0000
,  // measure 29
0100
0000
0000
0010
0000
0000
1000
0000
0000
0001
0000
0000
1000
0000
1000
0000
,  // measure 30
0001
0000
0000
0100
0000
0000
0010
0000
0000
1000
0000
0000
0010
0000
0010
0000
,  // measure 31
1000
0000
0000
0100
0000
0000
0010
0000
0000
0100
0000
0000
1000
0000
1000
0000
,  // measure 32
0001
0100
0010
1000
0100
0000
1000
0000
,  // measure 33
0100
1000
0010
1000
0001
0000
0010
0000
,  // measure 34
0100
0010
0001
0100
0010
0000
0100
0000
,  // measure 35
0010
1000
0100
0010
0001
0000
1000
0000
,  // measure 36
0001
0100
0010
0000
0100
0010
1000
0000
,  // measure 37
0001
1000
0100
0000
0010
0100
1000
0000
,  // measure 38
0100
1000
0010
0000
0100
0001
0010
0000
,  // measure 39
0100
0010
0001
0000
1000
0001
0100
0000
,  // measure 40
0001
0100
1000
0100
0001
0000
1000
0000
,  // measure 41
1000
0100
0001
0100
1000
0100
0010
0001
,  // measure 42
1000
0001
0100
0000
0100
0010
1000
0000
,  // measure 43
0002
0000
0000
0000
,  // measure 44
1003
0000
0001
1000
0000
0010
0000
0000
,  // measure 45
0101
0000
0000
0000
0000
0001
0010
0000
,  // measure 46
0100
0000
0010
0001
0000
0011
0000
1010
,  // measure 47
0000
0101
0000
1001
0000
0220
0000
0000
,  // measure 48
0330
0000
1001
0000
1010
0000
0001
0101
,  // measure 49
0000
0000
0000
0000
0000
0001
0010
0000
,  // measure 50
0110
0000
1100
0000
1000
0002
0000
2000
,  // measure 51
0000
0000
0000
3003
,  // measure 52
0201
0000
0310
2000
0000
3200
0000
0000
,  // measure 53
0310
0000
0000
0000
0000
0100
2000
0000
,  // measure 54
3010
0000
0100
0002
0000
0203
0000
0302
,  // measure 55
0000
0203
0000
0320
0000
2000
0000
0000
,  // measure 56
3030
0000
0101
0000
0001
0000
0010
0200
,  // measure 57
0000
0000
0300
0000
0000
0010
0001
0000
,  // measure 58
2000
0000
3002
0000
0103
0020
0000
2000
,  // measure 59
0000
0000
0000
3030
,  // measure 60
0001
0000
0001
1000
0000
0100
0000
0000
,  // measure 61
1100
0000
0000
0000
0000
0000
0000
1000
,  // measure 62
0100
0000
0100
1000
0000
0001
0000
1000
,  // measure 63
0000
0010
0000
0100
0000
0020
0000
0000
,  // measure 64
0030
0000
0000
0000
;

//---------------dance-single - ----------------
#NOTES:
     dance-single:
     :
     Easy:
     6:
     0.192097,0.277611,0.069403,0.164832,0.000000,155.000000,147.000000,8.000000,19.000000,0.000000,0.000000,0.192097,0.277611,0.069403,0.164832,0.000000,155.000000,147.000000,8.000000,19.000000,0.000000,0.000000:
// measure 0
0000
0000
0000
0000
,  // measure 1
0000
0000
0000
0000
,  // measure 2
0000
0000
0000
0000
,  // measure 3
0000
0000
0000
0000
,  // measure 4
0000
0000
0000
0000
,  // measure 5
1001
0000
0000
0000
,  // measure 6
0000
0000
0000
0000
,  // measure 7
0010
0010
0000
0000
0000
0000
0000
0000
,  // measure 8
1001
0000
0000
0000
,  // measure 9
1000
0001
1000
0010
,  // measure 10
1000
0001
1000
0001
,  // measure 11
1000
0001
1000
0010
,  // measure 12
1000
0001
1000
0001
,  // measure 13
0100
0010
0100
0001
,  // measure 14
0100
0010
0100
0010
,  // measure 15
0100
0010
0100
0001
,  // measure 16
0100
0010
0100
0010
,  // measure 17
2002
0000
0000
0000
,  // measure 18
0000
0000
0000
0000
,  // measure 19
3000
0000
0000
0000
,  // measure 20
0103
0001
0100
0010
,  // measure 21
1000
0100
1000
0100
,  // measure 22
0010
0001
0010
0001
,  // measure 23
1000
0001
1000
0001
,  // measure 24
0200
0300
0020
0030
,  // measure 25
0200
0300
0020
0030
,  // measure 26
1001
1000
0001
0010
,  // measure 27
0001
1000
0100
0010
,  // measure 28
0100
1000
0010
0100
,  // measure 29
0010
1000
0001
0010
,  // measure 30
0001
1000
0100
0010
,  // measure 31
0100
1000
0010
0100
,  // measure 32
0001
0000
0000
0000
,  // measure 33
1000
0000
0000
0000
,  // measure 34
0010
0000
0000
0000
,  // measure 35
0100
0000
0000
0000
,  // measure 36
0002
0000
0003
0000
,  // measure 37
2000
0000
3000
0000
,  // measure 38
0020
0000
0030
0000
,  // measure 39
0200
0000
0300
0000
,  // measure 40
0020
0000
1030
0000
,  // measure 41
0200
0000
0301
0000
,  // measure 42
0020
0000
0130
0000
,  // measure 43
2000
0000
0002
3003
,  // measure 44
0110
0010
1000
0100
,  // measure 45
0010
0000
0000
0100
,  // measure 46
1000
0001
0010
0001
,  // measure 47
0100
0010
1000
0100
,  // measure 48
0000
1001
0001
0010
,  // measure 49
0001
0000
0000
1000
,  // measure 50
0001
0001
1000
1000
,  // measure 51
0020
0000
0000
0030
,  // measure 52
0100
0010
1000
0001
,  // measure 53
1001
0000
0000
1000
,  // measure 54
0100
1000
0010
1000
,  // measure 55
0001
0010
0100
1000
,  // measure 56
0000
0011
0001
0100
,  // measure 57
0010
0000
0000
0100
,  // measure 58
0010
1000
0001
0010
,  // measure 59
0200
0000
0000
0300
,  // measure 60
2000
0000
0000
0000
,  // measure 61
0000
3000
0000
0000
,  // measure 62
0002
0000
0000
0000
,  // measure 63
0000
0000
0000
0000
,  // measure 64
0003
0000
0000
0000
;

//---------------dance-single - ----------------
#NOTES:
     dance-single:
     :
     Beginner:
     4:
     0.125173,0.222089,0.078078,0.052052,0.000000,101.000000,92.000000,9.000000,6.000000,0.000000,0.000000,0.125173,0.222089,0.078078,0.052052,0.000000,101.000000,92.000000,9.000000,6.000000,0.000000,0.000000:
// measure 0
0000
0000
0000
0000
,  // measure 1
0000
0000
0000
0000
,  // measure 2
0000
0000
0000
0000
,  // measure 3
0000
0000
0000
0000
,  // measure 4
0000
0000
0000
0000
,  // measure 5
0110
0000
0000
0000
,  // measure 6
0000
0000
0000
0000
,  // measure 7
1001
0000
0000
0000
,  // measure 8
1000
1000
1000
1000
,  // measure 9
1001
0000
0001
0000
,  // measure 10
0010
0000
0001
0000
,  // measure 11
0100
0000
0001
0000
,  // measure 12
1000
0000
0100
0000
,  // measure 13
1000
0000
0010
0000
,  // measure 14
0100
0000
0001
0000
,  // measure 15
0010
0000
0100
0000
,  // measure 16
1000
0000
0010
0000
,  // measure 17
0200
0000
0000
0000
,  // measure 18
0000
0000
0000
0000
,  // measure 19
0300
0000
0000
0000
,  // measure 20
1001
0000
0001
0000
,  // measure 21
1000
0000
0000
0000
,  // measure 22
0010
0000
1000
0000
,  // measure 23
0100
0000
0000
0000
,  // measure 24
0010
0000
0010
0000
,  // measure 25
0010
0000
0010
0000
,  // measure 26
0001
0000
0000
0000
,  // measure 27
1000
0000
0010
0000
,  // measure 28
1000
0000
0000
0000
,  // measure 29
0100
0000
0010
0000
,  // measure 30
0001
0000
0000
0000
,  // measure 31
1000
0000
0000
0000
,  // measure 32
0110
0000
0000
0000
,  // measure 33
1000
0000
0000
0000
,  // measure 34
0001
0000
0000
0000
,  // measure 35
0010
0000
0001
0000
,  // measure 36
1000
0000
0001
0000
,  // measure 37
0100
0000
0001
0000
,  // measure 38
0010
0000
0001
0000
,  // measure 39
1000
0000
0100
0000
,  // measure 40
1000
1000
1000
0000
,  // measure 41
0001
0001
0001
0000
,  // measure 42
0100
0100
0100
0000
,  // measure 43
0020
0000
0000
0030
,  // measure 44
1000
0000
0001
0000
,  // measure 45
1001
0000
0000
0000
,  // measure 46
0010
0000
0001
0000
,  // measure 47
1000
0000
0001
0000
,  // measure 48
0000
0110
0000
0010
,  // measure 49
0000
0000
0000
0000
,  // measure 50
1000
0000
0001
0000
,  // measure 51
0020
0000
0000
0030
,  // measure 52
0100
0000
1000
0000
,  // measure 53
1001
0000
0000
0000
,  // measure 54
0001
0000
1000
0000
,  // measure 55
0010
0000
1000
0000
,  // measure 56
0000
1001
0001
0001
,  // measure 57
1000
0000
0000
0000
,  // measure 58
0010
0000
1000
0000
,  // measure 59
0002
0000
0000
0003
,  // measure 60
0020
0000
0000
0000
,  // measure 61
0000
0030
0000
0000
,  // measure 62
0200
0000
0000
0000
,  // measure 63
0000
0000
0000
0000
,  // measure 64
0300
0000
0000
0000
;
