#TITLE:Simply Being Loved "Somnambulist";
#SUBTITLE:;
#ARTIST:BT;
#TITLETRANSLIT:;
#SUBTITLETRANSLIT:;
#ARTISTTRANSLIT:;
#GENRE:;
#CREDIT:;
#BANNER:Simply Being Loved 'Somnambulist'.png;
#BACKGROUND:Simply Being Loved 'Somnambulist'-bg.png;
#LYRICSPATH:;
#CDTITLE:;
#MUSIC:Simply Being Loved 'Somnambulist'.ogg;
#OFFSET:0.000000;
#SAMPLESTART:50.180000;
#SAMPLELENGTH:15.000000;
#SELECTABLE:YES;
#DISPLAYBPM:135.000000;
#BPMS:0.000000=136.000000
,108.000000=129.600006
,112.000000=136.000000
;
#STOPS:
;
#BGCHANGES:;
#KEYSOUNDS:;
#ATTACKS:;

//---------------dance-single - ----------------
#NOTES:
     dance-single:
     :
     Hard:
     13:
     0.438292,0.675162,0.201972,0.827122,0.235634,319.000000,298.000000,21.000000,86.000000,0.000000,0.000000,0.438292,0.675162,0.201972,0.827122,0.235634,319.000000,298.000000,21.000000,86.000000,0.000000,0.000000:
// measure 0
0000
0000
0000
0000
,  // measure 1
0000
0000
0000
0000
,  // measure 2
0000
0000
0000
0000
,  // measure 3
0000
0000
0000
0000
,  // measure 4
1000
0000
0000
0000
1000
0000
0000
0000
0001
0000
0000
0000
1000
0000
0000
0000
1000
0000
0000
0000
0001
0000
0000
0000
0200
0000
0000
0300
0000
0000
0000
0000
0000
0200
0000
0000
0300
0000
0000
0000
0000
0000
0200
0000
0000
0300
0000
0000
,  // measure 5
0010
1000
0010
0000
0100
0000
0010
1000
0001
0010
0100
1000
0000
0001
1000
0010
,  // measure 6
0100
0001
1000
0100
0010
0000
0001
0000
0200
0300
0000
0200
0300
0000
0200
0300
,  // measure 7
0010
1000
0100
0000
1000
0001
0010
0000
0100
0010
0100
0010
0200
0000
0000
0000
,  // measure 8
1300
0100
1000
0001
0000
0000
0000
0000
0200
0300
0000
0200
0300
0000
0200
0300
,  // measure 9
1001
0001
0100
1000
0100
0001
1000
0100
,  // measure 10
0110
0000
0000
0100
2100
3001
0201
0310
,  // measure 11
0000
0000
4000
0000
3010
0000
0100
0000
0001
0040
0100
0030
1000
0000
0004
0003
,  // measure 12
2000
0000
3000
0001
4000
3040
0430
0304
,  // measure 13
0003
1000
0010
0001
0010
1000
0001
0010
,  // measure 14
0200
0000
0000
0000
0300
0010
0001
0000
4000
0000
3001
0000
0004
0000
1003
0000
,  // measure 15
0420
0000
0000
0000
0000
0030
0000
0000
0300
0000
0000
0000
0000
0000
0002
0000
,  // measure 16
0000
0000
0000
2000
0000
0000
3000
0000
0000
2000
0000
0000
3000
0000
0000
2000
0000
0000
3000
0000
0000
2000
0000
0000
3000
0000
0000
2000
0000
0000
3000
0000
0000
2000
0000
0000
3000
0000
0000
2000
0000
0000
3000
0000
0003
2000
0000
0000
,  // measure 17
3001
0000
0010
0000
1000
0000
0010
0000
0004
0000
4003
0000
0100
3000
0010
0000
,  // measure 18
0044
0000
0033
0100
4100
3010
0104
0013
,  // measure 19
0000
0100
0040
0034
0403
4300
3400
0302
,  // measure 20
1003
0000
0000
0001
1020
0130
2010
3100
,  // measure 21
0000
0010
0100
1000
0001
1000
0100
0010
,  // measure 22
4004
0000
3003
0001
0010
0000
0100
1000
,  // measure 23
0020
0000
0000
0000
0030
0000
0000
0000
0410
0000
0000
0000
0000
0000
0301
1000
,  // measure 24
0200
0000
0000
0000
0340
0000
0130
1000
,  // measure 25
0002
0000
0000
0000
2003
0000
0000
3200
,  // measure 26
0310
0011
0000
0010
0011
0100
1100
1000
,  // measure 27
0004
0000
0000
0000
0203
0000
0000
0300
,  // measure 28
0010
0000
0010
0000
0100
0000
0010
0000
0010
0000
0100
0000
0010
0000
0000
0100
0000
0000
0010
0000
0000
1000
0000
0000
,  // measure 29
0002
0010
0013
1000
0020
0001
0031
0010
,  // measure 30
0200
0000
0300
0000
0010
0001
0100
0001
,  // measure 31
2000
0010
3010
0001
0020
1000
1030
0010
,  // measure 32
0200
0000
0300
0000
0010
1000
0100
0010
,  // measure 33
0002
0010
0013
1000
0020
0100
0130
0010
,  // measure 34
0002
0000
0000
2003
3002
0023
0230
2000
,  // measure 35
0000
3300
0102
0000
,  // measure 36
2000
0000
0000
3003
0001
0010
0100
1000
,  // measure 37
1200
0300
0102
0000
,  // measure 38
0020
0000
0033
0000
0001
0010
0100
1000
,  // measure 39
1020
0030
0021
0000
,  // measure 40
0200
0000
0000
0000
0330
0000
0000
0000
0010
0000
0100
1000
0000
1000
0010
0000
,  // measure 41
2001
0000
3004
0403
,  // measure 42
0320
0000
0030
0000
0100
0010
1000
0001
,  // measure 43
0020
0000
0000
0000
0000
0000
0100
0230
,  // measure 44
0000
0020
0030
0020
0030
0020
0030
0020
0030
0020
0030
0020
0030
0020
0030
0320
,  // measure 45
0430
0000
0300
2000
0000
0000
0000
3000
,  // measure 46
0001
0000
1000
0001
1000
0000
0001
0000
2000
0000
3020
0000
0032
0000
0023
0000
,  // measure 47
0000
0000
0000
0000
0030
0000
0200
0000
0000
0000
0000
0000
0000
0300
0000
0000
,  // measure 48
0001
0000
1000
0100
0010
0000
0004
0000
0043
0000
4030
0000
3040
0000
0034
0000
,  // measure 49
4003
0000
0000
0000
,  // measure 50
3000
0000
0000
0000
0020
0230
0302
2003
,  // measure 51
0000
0200
0000
3300
,  // measure 52
0100
0000
0010
0001
0100
0000
0020
0000
0230
0000
0302
0000
2003
0000
3002
0000
,  // measure 53
2000
0003
0000
0002
0000
0000
0000
0000
,  // measure 54
0000
0000
3003
0000
0001
0010
1000
0040
,  // measure 55
0000
0000
0000
0000
0000
0000
0000
0030
0000
0000
0000
0000
0000
0000
0000
0000
,  // measure 56
0000
0000
0000
0001
0010
0100
1000
0002
,  // measure 57
0000
0000
0000
4000
0000
0000
0000
0000
,  // measure 58
0000
0000
3003
0000
;

//---------------dance-single - ----------------
#NOTES:
     dance-single:
     :
     Medium:
     10:
     0.313262,0.450108,0.057706,0.365472,0.067324,228.000000,222.000000,6.000000,38.000000,0.000000,0.000000,0.313262,0.450108,0.057706,0.365472,0.067324,228.000000,222.000000,6.000000,38.000000,0.000000,0.000000:
0000
0000
0000
0000
,
0000
0000
0000
0000
,
0000
0000
0000
0000
,
0000
0000
0000
0000
,
0001
0000
0000
0000
1000
0000
0000
0000
0001
0000
0000
0000
1000
0000
0000
0000
0001
0000
0000
0000
1000
0000
0000
0000
0001
0000
0000
0000
0000
0000
0000
0000
0000
0001
0000
0000
0000
0000
0000
0000
0000
0000
0001
0000
0000
0000
0000
0000
,
1000
0100
1000
0000
0010
1000
0010
0000
,
0100
0000
0001
0000
0100
0000
0000
0000
0001
0000
0000
0001
0000
0000
0001
0000
,
1000
0001
0010
0001
1000
1000
1000
0000
,
0110
0000
0000
0000
0000
0000
0000
0000
0001
0000
0000
0001
0000
0000
0001
0000
,
0000
1000
0100
0010
0100
1000
0010
0100
,
0001
0000
0000
1000
0100
0001
0100
1000
,
0000
0100
1000
0010
0100
0001
0010
0100
,
1000
0000
0000
0001
0010
1000
0010
0001
,
0000
0100
0010
1000
0100
0010
0100
1000
,
0001
0000
0000
0000
0000
1000
0001
0000
1000
0000
0000
0000
1000
0000
0001
0000
,
0200
0000
0300
0000
0000
0000
0000
0020
,
0000
0000
0000
0000
,
0130
0010
1000
0001
0010
0100
0010
0001
,
1000
0000
0000
0001
0100
1000
0100
0001
,
0000
1000
0001
0010
0001
0010
0100
0010
,
0001
0000
0000
1000
0010
0001
0010
1000
,
0000
0010
0100
0001
0010
0100
1000
0010
,
0202
0000
0303
0001
0100
0000
0001
1000
,
0200
0000
2300
0000
,
3002
0000
0000
0000
1003
0000
0001
0100
,
0020
0000
2030
0000
,
3100
0100
0000
1000
0001
0001
1000
0010
,
0100
0000
0002
0000
,
1003
0000
0001
0000
1000
0000
0001
0000
1000
0000
0001
0000
1000
0000
0000
0100
0000
0000
0010
0000
0000
0001
0000
0000
,
0020
0000
0000
0000
0032
0000
0000
0200
,
0000
0000
0303
0000
0001
0100
1000
0100
,
0020
0000
0000
0000
2030
0000
0000
0200
,
0000
0000
3300
0000
1000
0100
0001
0100
,
2000
0000
0000
0000
3002
0000
0000
2000
,
0000
0000
3003
0001
0100
1000
0100
0002
,
0000
0003
0012
0000
,
2000
0000
3003
0000
0001
0100
0001
0010
,
0100
0000
0210
0000
,
2000
0000
3300
0000
1000
0100
0010
0100
,
1000
0000
0012
0000
,
0200
0000
0000
0000
0303
0000
0000
0000
0001
0000
1000
0010
0000
0100
0001
0000
,
1001
0000
0002
2003
,
0020
0000
3030
0000
1000
0010
0100
0010
,
2000
0000
0000
0000
0000
0000
0001
0002
,
0000
0000
0000
0000
,
3003
0000
0000
0000
,
0000
0000
0000
0000
0001
0001
1000
0200
,
0000
0300
0000
0000
,
0000
0000
0000
0010
0100
1000
0010
0200
,
0000
0000
0000
0000
,
0300
0000
0000
0000
0010
0010
0100
0002
,
0000
0003
0000
0000
,
0000
0000
0000
1000
0100
0010
0001
0010
,
0200
0000
0000
0000
,
0000
0000
0000
0000
0310
0100
1000
0020
,
0000
0000
0030
0000
,
0000
0000
0000
0100
0010
1000
0001
0020
,
0000
0000
0000
0200
0000
0000
0000
0000
,
0000
0000
0330
0000
;

//---------------dance-single - ----------------
#NOTES:
     dance-single:
     :
     Easy:
     6:
     0.192354,0.281318,0.163501,0.259678,0.000000,140.000000,123.000000,17.000000,27.000000,0.000000,0.000000,0.192354,0.281318,0.163501,0.259678,0.000000,140.000000,123.000000,17.000000,27.000000,0.000000,0.000000:
0000
0000
0000
0000
,
0000
0000
0000
0000
,
0000
0000
0000
0000
,
0000
0000
0000
0000
,
1001
0110
1001
0000
,
0001
0000
0000
1000
0000
0000
0000
0000
,
0100
0000
2000
0000
,
3010
0000
0000
0100
0000
0000
0000
0000
,
0010
0000
0200
0000
,
0301
0010
0001
1000
,
0100
0000
1100
0101
,
0000
0001
1000
0010
,
1000
0000
0011
1010
,
0000
1000
0001
0100
,
0010
0000
0100
0001
,
1000
0000
0000
0000
0000
0000
0000
0002
,
0000
0000
0000
0000
,
0003
1000
0100
1000
,
0010
0000
0110
0101
,
0000
0001
0010
0100
,
0010
0000
0110
1100
,
0000
0100
1000
0010
,
0210
0300
0010
0100
,
0001
0000
2000
0000
,
0002
3003
0001
1000
,
0020
0000
0000
0000
,
0130
0000
0010
0000
,
1000
0000
0002
0000
,
2000
3003
1001
0110
,
1002
0000
0000
0000
1000
0000
0000
2000
,
0000
3003
1000
0001
,
2000
0000
0000
0000
0001
0000
0000
0002
,
0000
3003
0001
1000
,
0020
0000
0000
0000
0100
0000
0000
0200
,
0000
0000
0330
0000
0010
0000
0000
0100
,
0000
0000
1001
0000
,
0110
0000
0100
0001
,
1000
0000
0002
0000
,
2000
3003
0100
1000
,
0010
0000
0200
0000
,
0002
0303
0100
0001
,
0010
0000
0200
2300
,
3002
0003
1000
0001
,
0200
0000
0000
0000
,
0320
0000
0000
0000
,
0130
0000
0000
0010
0000
0000
0000
0000
,
1000
0000
0001
1000
,
0100
0000
0000
1000
0000
0000
0000
0000
,
0010
0000
0100
0001
,
0010
0000
0000
0100
0000
0000
0000
0000
,
0010
0001
1000
0001
,
0100
0000
0000
0001
0000
0000
0000
0000
,
0000
0000
0010
0100
,
2000
0000
0000
0000
,
0000
0000
0000
3000
,
0002
0000
0000
0000
,
0000
0003
0000
0000
,
0000
0000
0000
0200
0000
0000
0000
0000
,
0000
0000
0300
0000
;

//---------------dance-single - ----------------
#NOTES:
     dance-single:
     :
     Beginner:
     3:
     0.109917,0.196922,0.019235,0.057706,0.000000,80.000000,78.000000,2.000000,6.000000,0.000000,0.000000,0.109917,0.196922,0.019235,0.057706,0.000000,80.000000,78.000000,2.000000,6.000000,0.000000,0.000000:
0000
0000
0000
0000
,
0000
0000
0000
0000
,
0000
0000
0000
0000
,
0000
0000
0000
0000
,
1000
0000
0001
0000
,
0010
0000
0000
0000
,
0100
0000
0000
0000
,
0010
0000
0001
0000
,
0010
0000
0000
0000
,
1000
0000
0000
0000
,
0000
0000
0001
1000
,
0000
0010
0000
0000
,
0000
0000
0100
0010
,
0000
1000
0000
0000
,
0100
0000
1000
0000
,
0001
0000
0000
0000
,
0200
0000
0000
0000
0000
0000
0000
0300
,
0000
0000
0010
0000
,
1000
0000
0001
0001
,
0000
1000
0000
0001
,
0000
0000
0100
0100
,
0000
0010
0000
1000
,
1001
0000
0001
0000
,
0100
0000
0010
0000
,
1000
0000
0001
0000
,
1000
0000
0000
0000
,
0000
0000
0001
0000
,
0100
0000
0000
0000
,
0010
0000
0100
0000
,
1001
0000
0000
0000
0001
0000
0000
0001
,
0000
0000
1000
0000
,
0010
0000
0000
0000
0010
0000
0000
0010
,
0000
0000
0100
0000
,
0001
0000
0000
0000
0001
0000
0000
0001
,
0000
0000
0000
0000
1000
0000
0000
0001
,
0000
0000
0200
0000
,
0310
0000
0010
0000
,
1000
0000
0020
0000
,
0130
0000
0010
0000
,
1000
0000
0002
0000
,
1003
0000
0010
0000
,
1000
0000
0001
1000
,
0001
0000
0010
0000
,
0200
0000
0000
0000
,
0000
0000
0000
0000
,
0300
0000
0000
0000
,
0000
0000
1000
0000
,
0000
0000
0000
0000
,
0000
0000
0010
0000
,
0000
0000
0000
0000
,
0000
0000
0100
0000
,
0000
0001
0000
0000
,
0000
0000
0010
0000
,
0100
0000
0000
0000
,
0000
0000
1000
0000
,
0000
0000
0000
0000
,
0000
0000
0001
0000
,
0000
0000
0000
0200
0000
0000
0000
0000
,
0000
0000
0300
0000
;
