#VERSION:0.83;
#TITLE:Shaky Sometimes;
#SUBTITLE:;
#ARTIST:Venetian Snares;
#TITLETRANSLIT:;
#SUBTITLETRANSLIT:;
#ARTISTTRANSLIT:;
#GENRE:;
#ORIGIN:;
#CREDIT:;
#BANNER:banner.png;
#BACKGROUND:;
#PREVIEWVID:;
#JACKET:jacket.png;
#CDIMAGE:;
#DISCIMAGE:;
#DISPLAYBPM:*;
#LYRICSPATH:;
#CDTITLE:;
#MUSIC:Shaky Sometimes.ogg;
#OFFSET:0.002000;
#SAMPLESTART:58.929573;
#SAMPLELENGTH:14.285713;
#SELECTABLE:YES;
#BPMS:0.000=168.000,
113.000=84.000,
135.000=168.000,
175.000=1344.000,
199.000=168.000,
326.000=84.000,
353.000=168.000;
#STOPS:17.000=1.429,
35.000=1.429;
#DELAYS:;
#WARPS:;
#TIMESIGNATURES:0.000=4=4;
#TICKCOUNTS:0.000=4;
#COMBOS:0.000=1;
#SPEEDS:0.000=1.000=0.000=0;
#SCROLLS:0.000=1.000;
#FAKES:;
#LABELS:0.000=Song Start;
#BGCHANGES:;
#KEYSOUNDS:;
#ATTACKS:
;

//---------------dance-single - ----------------
#NOTEDATA:;
#CHARTNAME:;
#STEPSTYPE:dance-single;
#DESCRIPTION:;
#CHARTSTYLE:;
#DIFFICULTY:Challenge;
#METER:18;
#RADARVALUES:0.847234,1.137780,0.623147,0.615984,0.984858,828.000000,741.000000,87.000000,86.000000,0.000000,0.000000,0.000000,0.000000,0.000000,0.847234,1.137780,0.623147,0.615984,0.984858,828.000000,741.000000,87.000000,86.000000,0.000000,0.000000,0.000000,0.000000,0.000000;
#CREDIT:Pandemonium X;
#NOTES:
// measure 0
0000
0000
0000
0000
,  // measure 1
0000
0000
0000
0000
,  // measure 2
0000
0000
0000
0000
,  // measure 3
0000
0000
0000
0000
,  // measure 4
0000
0000
0000
0000
1001
0000
0010
0000
1001
0000
1000
0000
0000
0000
0000
0100
,  // measure 5
1000
0001
1000
0010
0100
0101
0011
0000
,  // measure 6
1001
0000
0000
0000
0001
0000
0000
0000
0100
0010
1000
0000
0100
0000
0000
0000
,  // measure 7
0010
0100
0010
0000
0100
1000
0100
0000
1100
0000
1001
0000
0000
0000
0000
0000
,  // measure 8
0001
0010
0110
0100
0011
0000
1001
0000
,  // measure 9
0110
0000
0000
0000
1000
0000
0000
1000
0000
0000
1000
0000
1010
0000
0000
0000
,  // measure 10
0100
0010
0100
0000
0000
0000
0000
0001
0010
0000
0010
0000
1001
0000
0000
1000
,  // measure 11
0001
0001
0100
1000
0100
0101
0010
1000
,  // measure 12
0002
2003
3000
0000
0010
0000
1000
0000
0001
0000
0010
0100
1000
0000
0001
0000
,  // measure 13
1000
0000
0100
0010
0011
0000
0001
0000
0100
0000
0000
0010
1000
0000
0001
0000
,  // measure 14
0100
0000
0110
0000
0000
0000
0100
0000
1001
0000
0000
0000
0001
0000
0000
0001
,  // measure 15
0000
0000
0001
0000
0011
0000
0000
0010
0100
0000
0110
0000
0010
0100
1000
0001
,  // measure 16
0200
0000
0000
0000
0310
0000
0000
1000
0001
0000
0010
0000
0110
0000
1100
0000
,  // measure 17
0000
0000
0110
0000
2001
0000
0000
0000
3100
0000
0000
1000
0000
0000
0010
0000
,  // measure 18
0100
0000
0000
0000
2002
0000
0000
3003
0001
0100
0010
1000
0100
0000
0000
0000
,  // measure 19
0010
0000
0100
1000
0000
0100
0010
0000
0100
1000
0010
0000
0110
0000
0001
0100
,  // measure 20
0010
0000
0000
0000
0100
0000
0000
0100
0000
0000
0100
0000
0110
0000
0000
0000
,  // measure 21
0010
1000
0001
0000
0010
0100
1000
0000
0011
0000
1000
0000
0101
0000
0000
0001
,  // measure 22
0000
0000
0000
0001
0000
0000
1001
0000
0000
1000
0001
1000
0001
0000
0000
0010
0000
0000
1001
0000
0000
0000
0000
0000
,  // measure 23
1100
0000
1000
0001
0100
0001
0010
0000
0110
0000
0100
1000
0020
0000
0000
0130
,  // measure 24
0001
0000
1000
0000
1001
0000
0000
0000
0011
0000
0010
0001
1000
0000
1010
0000
,  // measure 25
0101
0000
0001
0010
0100
0010
0001
1000
0100
0000
0000
0000
1000
0000
0010
0100
,  // measure 26
0000
0001
0010
0000
0010
0000
0100
1000
0010
0100
0001
1000
0100
0010
0001
1000
,  // measure 27
0020
0000
0000
0000
0130
1000
0100
0001
0010
1000
0010
0100
0010
0001
1000
0100
,  // measure 28
1000
0100
1000
0000
0202
0000
0000
0000
0000
0000
0303
0000
0000
0000
0000
0000
,  // measure 29
0202
0000
0000
0000
0303
0022
0000
0000
,  // measure 30
0000
0000
0033
2200
0000
0000
0000
3300
,  // measure 31
2002
0000
3003
2020
,  // measure 32
0000
0000
3030
0022
0000
0000
0000
0033
,  // measure 33
0000
0000
0000
0000
2200
0000
0000
0000
0000
0000
0000
0000
0000
3000
2300
3200
2300
3200
2300
3200
2300
3200
2300
3200
0310
0000
0000
0000
0011
0000
0000
0000
,  // measure 34
0001
0100
0001
1000
0100
0010
0100
1000
0100
0010
0100
1000
0100
0000
0010
0001
,  // measure 35
0100
0010
1000
0100
0010
0100
1000
0001
1000
0000
0100
0010
0002
0000
0000
0000
,  // measure 36
1003
0100
0010
0100
0010
0001
0010
0100
2000
0000
0000
0000
3100
1000
0001
0100
,  // measure 37
0010
1000
0001
0010
0100
1000
0001
0100
0020
0000
0000
0000
0130
0001
0010
0100
,  // measure 38
1000
0100
0010
0100
1000
0000
1001
0000
1000
0010
1000
0001
0010
0100
0010
0001
,  // measure 39
0000
0000
1000
0010
0200
0000
0000
0000
0310
1000
0001
0010
0100
0010
0001
0010
,  // measure 40
0001
0010
0100
1000
0001
0000
0000
0000
1000
0001
0100
0001
0010
0100
0010
0001
,  // measure 41
1000
0000
0001
1000
0002
0000
0000
0000
1003
0010
1000
0001
0010
0100
1000
0100
,  // measure 42
0020
0000
0000
0000
0130
0010
0001
0010
0100
1000
0010
1000
0001
0010
0100
1000
,  // measure 43
0200
0300
0200
0000
2300
3200
0320
0032
2003
3020
0230
0300
1001
0000
0000
0000
,  // measure 44
0000
0000
0000
0000
,  // measure 45
0000
0000
0000
0000
,  // measure 46
0000
0000
0000
0000
,  // measure 47
0000
0000
0000
0000
,  // measure 48
0000
0000
0000
0000
,  // measure 49
0000
0000
0000
0000
0000
0000
0000
0010
,  // measure 50
1001
0000
1010
0000
1000
0010
0100
0001
0010
0100
0010
0100
0000
1000
0001
0100
,  // measure 51
0010
0100
0001
0000
0001
0000
0001
1000
0001
0000
0001
0000
1000
0100
0010
0100
,  // measure 52
1000
0100
0010
0001
1000
0100
0010
0001
1000
0010
0100
0000
1001
0000
1010
0000
,  // measure 53
0001
1000
0010
1000
0001
0010
0100
0010
0100
0010
0100
0010
0100
0010
0100
0010
,  // measure 54
0100
0010
0100
0010
0100
0000
1001
0000
0001
1000
0100
1000
0010
1000
0001
0010
,  // measure 55
0100
1000
0100
1000
0010
0100
0001
0010
0200
0000
0000
0000
0310
0001
0100
0010
,  // measure 56
1000
0000
0000
0001
0000
0000
0010
0000
0000
0100
0000
0000
0010
0000
0001
0000
0010
0000
0001
0000
0000
0010
0000
0000
0100
0000
0000
1000
0000
0000
0010
0000
0000
0100
0000
0000
0001
0000
0000
0100
0000
0000
0010
0000
0000
1000
0000
0000
,  // measure 57
0002
0000
0000
0000
0013
0001
0100
0001
1000
0010
1000
0100
0000
0100
0010
0001
,  // measure 58
0010
0100
0010
0000
1001
0000
0100
0010
1000
0010
0100
0001
1000
0100
0010
0100
,  // measure 59
1000
0100
0010
0001
1000
0000
0101
0000
0101
0000
0000
0000
0011
0000
0010
0000
,  // measure 60
0100
1000
0010
0100
0001
0010
0100
0010
0001
0000
1000
0001
0100
1000
0100
0001
,  // measure 61
2000
0000
0000
0000
0000
0000
0000
0000
0000
0000
0000
0000
3100
0000
0000
0010
0000
0000
0001
0000
0000
1000
0000
0000
0100
0000
0000
0010
0000
0000
0001
0000
0000
0000
0000
0000
0000
0000
0000
0000
0000
0000
1000
0000
0001
0000
1000
0000
,  // measure 62
0001
0010
0100
0000
0100
0000
0000
0000
0120
0000
0000
0000
0130
1000
0010
0100
,  // measure 63
0001
0010
0100
0000
2100
0000
0000
0000
3010
1000
0001
0010
0100
0010
0001
1000
,  // measure 64
0000
0000
0001
1000
0001
0000
0011
0000
0010
0100
1000
0100
0010
0001
0100
0010
,  // measure 65
1000
0000
1100
0000
0100
1000
0001
0100
0001
1000
0100
0010
0001
1000
0001
1000
,  // measure 66
0002
0000
0000
0000
0103
0010
1000
0001
0010
0100
0010
0100
0010
0100
0010
0000
,  // measure 67
2002
0000
0000
3003
0110
0000
1001
0000
0000
0000
1000
0010
0000
0010
0100
0001
,  // measure 68
2000
0000
0000
0000
3100
1000
0010
0100
0001
0010
0100
1000
0002
0000
0000
0000
,  // measure 69
1003
0010
0100
0000
0000
0000
0100
0000
0100
0010
0100
0000
1001
0000
0000
0000
,  // measure 70
0001
0010
1000
0010
0100
0010
0001
1000
0010
0000
0101
0000
1000
0001
0010
0100
,  // measure 71
0010
0001
1000
0010
0100
0010
1000
0001
2000
0000
0000
0000
3001
1000
0010
0100
,  // measure 72
0001
1000
0100
0010
0100
1000
0010
0100
0001
1000
0100
1000
0001
0100
0001
1000
,  // measure 73
0100
0010
0001
1000
0010
1000
0001
0010
0200
0000
0000
0000
0310
0100
1000
0001
,  // measure 74
0010
0100
1000
0001
2000
0000
0000
0000
3100
0000
1100
0000
0100
0010
1000
0001
,  // measure 75
0010
0100
0010
0001
2000
0000
3200
0000
0301
0100
0010
0001
1000
0010
0100
0001
,  // measure 76
0010
0000
0110
0000
1100
0000
1001
0000
0001
0100
0010
0000
0100
0010
1000
0000
,  // measure 77
1002
0000
0000
0003
0011
0000
0011
0000
0011
0000
1100
0000
1000
0001
0100
0010
,  // measure 78
2000
0000
0000
0000
3100
0000
0100
0000
0010
0001
0010
0001
0010
0000
0001
0100
,  // measure 79
0020
0000
0000
0000
1030
0001
0010
0100
0010
0001
1000
0001
2000
0000
0000
0000
,  // measure 80
3010
0100
0001
1000
0100
0001
0100
0010
0100
1000
0001
0000
1001
0000
0110
0000
,  // measure 81
0001
1000
0010
0100
0001
1000
0010
1000
1001
1001
2002
0000
0000
0000
0000
3003
,  // measure 82
2020
0000
3030
2020
,  // measure 83
0000
0000
3030
0022
0000
0000
0000
0033
,  // measure 84
0000
2002
0000
0000
0000
3003
2200
0000
,  // measure 85
0000
3300
0202
0000
,  // measure 86
0303
2020
0000
0000
0000
3030
0000
2002
,  // measure 87
0000
0000
0000
0000
,  // measure 88
0000
3003
0000
0000
;

//---------------dance-single - ----------------
#NOTEDATA:;
#CHARTNAME:;
#STEPSTYPE:dance-single;
#DESCRIPTION:;
#CHARTSTYLE:;
#DIFFICULTY:Hard;
#METER:16;
#RADARVALUES:0.657937,0.884940,0.401106,0.236366,0.544358,643.000000,587.000000,56.000000,33.000000,0.000000,0.000000,0.000000,0.000000,0.000000,0.657937,0.884940,0.401106,0.236366,0.544358,643.000000,587.000000,56.000000,33.000000,0.000000,0.000000,0.000000,0.000000,0.000000;
#CREDIT:Pandemonium X;
#NOTES:
0000
0000
0000
0000
,
0000
0000
0000
0000
,
0000
0000
0000
0000
,
0000
0000
0000
0000
,
0000
0000
0000
0000
0110
0000
0000
0000
1000
0000
0000
0000
0000
0000
0000
0001
,
0010
0001
0000
0000
1000
0100
0010
0000
,
1001
0000
0000
0000
0001
0000
1000
0000
0010
0100
0000
0000
0001
0000
0000
0000
,
0010
0100
1000
0000
0001
0000
0000
0000
1000
0000
0010
0000
0100
0000
0000
0000
,
0010
1000
0001
1000
0100
0000
1001
0000
,
1010
0000
0000
0000
0100
0000
0000
0001
0000
0000
0010
0000
0100
0000
0000
0000
,
0010
0000
0001
0000
1000
0000
0000
0001
0100
0000
0001
0000
0010
0000
0000
0010
,
0100
0100
1000
0001
1000
0010
0100
0000
,
0001
0000
0000
0000
1000
0000
0001
0000
0101
0000
0000
0001
0100
0000
0010
0000
,
1000
0000
0001
0000
0101
0000
0000
0000
0001
0000
0000
0010
0001
0000
1000
0000
,
1000
0000
0001
0000
0000
0000
1000
0000
1010
0000
0000
0000
1000
0000
0000
0100
,
0000
0010
0000
0001
0000
0000
1000
0000
0000
0010
0000
0000
0100
0000
0000
0001
,
2000
0000
3100
0000
0010
0100
1000
0001
,
0000
0000
0100
0000
1001
0000
0000
0000
1000
0000
0000
0001
0000
0000
0010
0000
,
0100
0000
0000
0000
2001
0000
0000
0000
3010
0000
0000
0010
0100
0000
0000
0000
,
0001
0000
0000
0010
0000
0000
0001
0000
1000
0000
0010
1000
0001
0000
0010
0100
,
1000
0000
0000
0000
0100
0000
0000
1000
0000
0000
0010
0000
0100
0000
0000
0000
,
0010
0100
0010
0000
0100
0000
0000
0000
0010
0000
1000
0000
0001
0000
0000
1000
,
0000
0000
0100
0000
0010
0000
0000
0010
0100
0000
1000
0000
0001
0000
0000
0000
,
0100
0000
0001
0010
0100
0010
0001
0000
1000
0000
0001
0100
0020
0000
0000
0000
,
1030
0000
0100
0000
0110
0000
0000
0000
0100
0000
0010
0001
0000
0010
0100
0000
,
1000
0000
0001
1000
0001
1000
0001
0000
0100
0000
0000
0000
0010
0000
1000
0010
,
0000
0100
0001
0000
0010
0100
0010
0100
1000
0100
1000
0001
1000
0001
1000
0001
,
1000
0000
0010
0000
0100
0000
0001
0100
0001
0100
0001
0000
0100
0000
0010
1000
,
0010
0100
0001
0000
1001
0000
0000
0000
0000
0000
0000
0000
0000
0000
0000
0000
,
1001
0000
0000
0000
0000
1010
0000
0000
,
0000
0000
0000
0011
0000
0000
0000
0000
,
0101
0000
0000
1001
,
0000
0000
0000
1010
0000
0000
0000
0000
,
0000
0101
0000
0200
0000
0000
0310
1000
,
0101
0000
0001
0010
0001
0010
0001
0000
1000
0000
0001
0100
0010
0000
0100
0000
,
1001
0000
0001
0100
0001
0100
0001
0000
1000
0000
0100
0010
0002
0000
0000
0000
,
0013
0000
0001
0000
0100
0010
1000
0001
0200
0000
0000
0000
0310
0000
1000
0000
,
0001
1000
0001
0000
0000
0000
1000
0001
2000
0000
0000
0000
3100
0010
0001
0000
,
0010
0000
0001
0000
1000
0000
0001
0000
1001
0000
1000
0001
1000
0010
1000
0000
,
0000
0001
0100
0000
1020
0000
0000
0000
0130
0000
0100
0000
0010
0000
1000
0000
,
0001
0000
0010
0000
0100
0000
0000
0000
0010
0000
0010
0000
0100
1000
0100
1000
,
0001
0000
0100
0001
2000
0000
0000
0000
3001
0000
0100
0000
0001
0100
0010
1000
,
0200
0000
0000
0000
0310
0000
0100
0010
0100
0000
0010
0100
0010
0000
0100
0000
,
1000
0000
0001
0000
0100
0010
1000
0001
0100
0000
0010
0000
1001
0000
0000
0000
,
0000
0000
0000
0000
,
0000
0000
0000
0000
,
0000
0000
0000
0000
,
0000
0000
0000
0000
,
0000
0000
0000
0000
,
0000
0000
0000
0000
,
1001
0000
0000
0000
1000
0010
0100
0001
0010
0100
1000
0001
1000
0000
0001
1000
,
0100
0000
0010
0000
0010
0000
0000
0000
0100
0000
1000
0000
0001
0000
1000
0001
,
0010
0001
1000
0100
0010
0001
0010
0100
1000
0001
1000
0000
0110
0000
0100
0000
,
0001
0010
0100
0010
0001
1000
0020
0000
0000
0000
0000
0000
0000
0000
0000
0000
,
0000
0000
0000
0000
0130
0000
0010
0000
1000
0000
0100
1000
0010
0000
0100
0000
,
0010
1000
0001
0000
0010
0000
0100
0010
0001
0000
1000
0000
0001
0100
0001
1000
,
0100
1000
0001
0100
0002
0000
0000
0013
0100
0000
0010
0000
0010
0000
0000
0000
,
1001
0000
1000
0000
0010
1000
0001
0000
0010
0000
0100
0010
0001
0000
0000
1000
,
0001
0000
0100
0000
0110
0000
0000
0000
0100
0010
1000
0001
0010
0100
0010
0001
,
1000
0001
0100
0001
0010
0100
1000
0000
1000
0000
0000
0000
0101
0000
0000
0000
,
1010
0000
1000
0010
0100
0000
0010
0000
0100
0010
1000
0000
0001
1000
0000
0010
,
0100
0000
0000
0000
0010
0000
1000
0000
0100
0000
0010
0000
0001
0000
0010
0100
,
0010
0100
0100
0000
0210
0000
0310
0001
,
1000
0000
0010
0000
0201
0000
0000
0000
0310
0000
1000
0000
0001
0000
0010
0100
,
0000
0000
0100
1000
0001
0000
1000
0000
0001
0100
0010
0000
0100
0001
1000
0000
,
0100
0000
0010
0000
0011
0000
1100
0000
1000
0100
0010
0000
0100
1000
0100
1000
,
0020
0000
0000
0000
0130
0000
0100
0000
0000
0001
0000
0001
0000
0001
1000
0000
,
2200
0000
3000
0000
0310
0000
0010
0000
0001
0000
0010
0001
0100
0000
0010
0000
,
1002
0000
1003
0001
0100
0010
2010
0000
,
3100
0010
0001
0000
1000
0000
1000
0001
0100
0001
0100
0000
1020
0000
0000
0000
,
0130
0001
0010
0100
1000
0001
1000
0000
0010
0000
0101
0000
1000
0010
0100
0001
,
0010
0100
0010
0001
1000
0000
0001
0100
0020
0000
0000
0000
1030
0000
0001
0000
,
0010
0210
0000
1300
0120
0000
0031
0000
,
0100
0001
1000
0000
1001
0000
0000
0000
1020
0000
0000
0000
0130
0010
1000
0001
,
0010
0100
1000
0001
0200
0000
0000
0000
0310
1000
0001
0010
0100
0010
0001
1000
,
0001
1000
0001
0000
0220
0000
0030
0000
0301
0010
0100
0010
0001
0100
0010
1000
,
0100
0000
0010
0000
0011
0000
1100
0000
1000
0100
1000
0010
0100
0001
0010
0001
,
2000
0000
0000
0000
0010
0000
0010
0000
3010
0000
0100
0000
0100
0000
0010
1000
,
0002
0000
0000
0000
0013
0000
0010
0000
0100
1000
0100
1000
0100
0000
1000
0100
,
0020
0000
0000
0000
0031
0000
0100
0000
0010
0000
0100
0001
2000
0000
0000
0000
,
3100
0000
1000
0010
0100
0000
0100
0010
1000
0000
0001
0000
1000
0000
0001
0000
,
0100
0010
1000
0001
0010
0100
1000
0000
1001
1001
1001
0000
0000
0000
0000
0000
,
1010
0000
0000
1010
,
0000
0000
0000
0101
0000
0000
0000
0000
,
0000
1001
0000
0000
0000
0000
0011
0000
,
0000
0000
1001
0000
,
0000
0110
0000
0000
0000
0000
0000
2002
,
0000
0000
0000
0000
,
0000
3003
0000
0000
;

//---------------dance-single - ----------------
#NOTEDATA:;
#CHARTNAME:;
#STEPSTYPE:dance-single;
#DESCRIPTION:;
#CHARTSTYLE:;
#DIFFICULTY:Medium;
#METER:14;
#RADARVALUES:0.536172,0.790125,0.265016,0.350968,0.175484,524.000000,487.000000,37.000000,49.000000,0.000000,0.000000,2.000000,0.000000,0.000000,0.536172,0.790125,0.265016,0.350968,0.175484,524.000000,487.000000,37.000000,49.000000,0.000000,0.000000,2.000000,0.000000,0.000000;
#CREDIT:Pandemonium X;
#NOTES:
0000
0000
0000
0000
,
0000
0000
0000
0000
,
0000
0000
0000
0000
,
0000
0000
0000
0000
,
0000
0110
1000
0000
,
1000
0001
0000
0000
0100
0010
1000
0000
,
0001
0000
1000
0000
0100
1000
0100
0000
,
0010
0000
0100
0000
1000
0100
0000
0000
,
0010
0100
1000
0001
0100
0000
0101
0000
,
2000
0000
0000
0000
3010
0000
0000
0100
0000
0000
0001
0000
0010
0000
0000
0000
,
0100
0010
0001
0000
1001
0000
0001
0000
,
1000
0001
0010
0000
0100
0010
0001
0000
,
1000
0010
0000
0000
0100
0000
0001
0000
0010
0000
0000
0000
0100
0000
1000
0000
,
0010
0100
0002
0000
0013
0000
0100
0010
,
0001
0000
0001
0000
0010
0000
0001
0000
1000
0000
0000
0000
0001
0000
0000
0100
,
0000
0000
0010
0000
1000
0000
0000
0100
0010
0000
0100
0000
1000
0000
0001
0000
,
0020
0000
0130
0000
0010
0001
1000
0010
,
0100
0000
0010
0000
2001
0000
0000
0000
0010
0000
0000
3001
0000
0000
0010
0000
,
0100
2001
3010
0101
,
0001
0000
0000
0010
0000
0000
0001
0000
0010
0000
0001
0000
1000
0000
0001
0100
,
0010
0000
0000
0000
0100
0000
0000
0010
0000
0000
1000
0000
0001
0000
0000
0000
,
0010
0100
0010
0000
0100
0000
1000
0000
0001
0000
1000
0000
0101
0000
0000
0001
,
0000
0000
0010
0000
0100
0000
0000
0010
0001
0000
1000
0000
1010
0000
0000
0000
,
0100
0001
0010
0100
1000
0001
0201
0000
,
0310
0000
1001
0000
1000
0000
0001
1000
,
0100
0000
0000
0000
0010
0000
0100
0000
1000
0000
0000
0000
0100
0000
0000
0010
,
0000
0100
1000
0010
0100
0001
0010
0100
,
1100
0000
0010
0001
0100
1000
0100
0001
,
1000
0001
1020
0000
0000
0000
0030
0000
,
0020
0000
0000
0000
0030
0200
0000
0000
,
0000
0000
0300
0002
0000
0000
0000
0003
,
2000
0000
0000
0000
0000
3000
0020
0000
,
0000
0000
0030
0200
0000
0000
0000
0000
,
0300
0000
0000
0000
0002
0000
0000
0000
0000
0000
0000
0000
0000
0000
0000
0000
0013
0000
0100
0000
1000
0001
1000
0001
2000
0000
0000
0000
0000
0000
0000
0000
,
3010
0100
0001
0010
0100
0010
0001
0000
,
1000
1000
0001
0010
0001
0100
0210
0000
,
0301
0010
0100
0010
0012
0000
0103
0010
,
1000
0010
0100
0001
0010
0000
0100
0001
,
0100
1000
0010
0100
0001
0010
1000
0010
,
0001
1000
1020
0000
0130
0100
0010
1000
,
0001
0001
0020
0000
0130
0010
0001
1000
,
0010
0000
2010
0000
3100
0001
0100
1000
,
1200
0000
0310
0000
0001
0010
0100
0000
,
0010
0000
0001
0000
0100
0010
0100
0000
0010
0000
1000
0000
1001
0000
0000
0000
,
0000
0000
0000
0000
,
0000
0000
0000
0000
,
0000
0000
0000
0000
,
0000
0000
0000
0000
,
0000
0000
0000
0000
,
0000
0000
0000
0000
,
0110
1000
0001
0010
0001
1000
0000
0100
,
0010
0100
0100
0000
0010
0001
0100
0001
,
1000
0000
0100
0000
0010
0000
0001
0000
1000
0001
0100
0000
0010
0000
1000
0000
,
0001
0000
0010
0000
0100
0000
4000
0004
0000
0000
0000
0000
0000
0000
0000
0000
,
0000
3003
0110
1000
0001
0010
0100
0010
,
0001
0000
1000
0001
0100
0010
0000
0010
0100
0000
0001
0000
0010
0000
1000
0000
,
0010
0001
0200
0300
0010
1000
1000
0000
,
0011
0000
1000
0001
0010
0001
1000
0100
,
0010
0001
0100
0000
0010
1000
0001
0010
,
0100
1000
0001
0001
0100
0000
0020
0000
,
1030
0000
0001
0000
0010
0000
0001
0000
1000
0000
0100
0000
0010
0001
0010
0001
,
2000
0000
3010
0100
1000
0100
0001
0010
,
0001
1000
1000
0000
0201
0000
0310
1000
,
0100
0010
0021
0000
0130
1000
0001
0100
,
0001
0000
1000
0000
0100
0000
0010
0000
0011
0000
1100
0000
1000
0010
0100
0000
,
0001
0000
1000
0000
1010
0000
0101
0000
0001
1000
0010
0000
0100
0001
0100
0001
,
0200
0000
0310
0010
1000
0001
0010
0100
,
1200
0000
0010
0310
0100
0010
0001
1000
,
2010
0000
3001
0010
1000
0010
0210
0000
,
1300
0100
0001
0100
1000
0010
0100
0000
,
0010
1000
1001
0110
1000
1000
0001
1000
,
0100
0000
0010
0000
0001
0000
1000
0001
2000
0000
0000
0000
3001
0000
0100
0000
,
0001
0010
0100
0010
0002
1000
1000
0000
,
0100
0000
0013
0000
1200
0000
0310
0001
,
0100
0000
1000
0000
1200
0000
0000
0000
0310
0000
0010
0000
1000
0001
1000
0001
,
0100
0010
0100
0010
2000
0000
3100
0000
0011
0000
0001
0100
0010
0000
1000
0000
,
0002
0000
0013
0000
1100
0000
0100
0010
0001
0000
1000
0000
0010
0100
0010
0100
,
0020
0000
0000
0000
1030
0000
1000
0000
1000
0000
0001
0010
0001
0010
0100
1000
,
0002
0000
0000
0000
0103
0000
0100
0000
0010
1000
0010
1000
0001
0100
0001
0100
,
0020
0000
1030
0100
0010
0100
2000
0000
,
3100
0000
0001
0000
0100
0000
1000
0000
0010
0000
0100
0000
0010
1000
0001
0010
,
0100
1000
0001
0100
0010
0000
1000
0000
0010
0010
0010
0000
0000
0000
0000
0000
,
2000
0000
3000
2000
,
0000
0000
3000
0002
0000
0000
0000
0003
,
0000
2000
0000
0000
0000
3000
0020
0000
,
0000
0000
0030
0000
0200
0000
0000
0300
,
0000
0020
0000
0000
0000
0030
0000
2002
,
0000
0000
0000
0000
,
0000
3003
0000
0000
;

//---------------dance-single - ----------------
#NOTEDATA:;
#CHARTNAME:;
#STEPSTYPE:dance-single;
#DESCRIPTION:;
#CHARTSTYLE:;
#DIFFICULTY:Easy;
#METER:9;
#RADARVALUES:0.355061,0.442470,0.307992,0.164740,0.003581,347.000000,304.000000,43.000000,23.000000,0.000000,0.000000,0.000000,0.000000,0.000000,0.355061,0.442470,0.307992,0.164740,0.003581,347.000000,304.000000,43.000000,23.000000,0.000000,0.000000,0.000000,0.000000,0.000000;
#CREDIT:Pandemonium X;
#NOTES:
0000
0000
0000
0000
,
0000
0000
0000
0000
,
0000
0000
0000
0000
,
0000
0000
0000
0000
,
0000
0000
0110
1000
0001
0000
0000
0000
,
0010
0000
0001
0000
0100
0010
0100
0000
,
0010
0000
1000
0000
0010
1000
0010
0000
,
0100
0000
0010
0000
1000
0001
0010
0000
,
0100
0010
0001
1000
0100
0000
0011
0000
,
1100
0100
1000
0010
,
0100
0001
0010
0100
,
0010
0001
1000
0010
,
0101
0000
0100
0010
1000
0000
0001
0000
,
1000
1001
1000
0100
,
1000
0010
0101
0001
,
0010
0100
0010
0001
,
1200
0010
0310
0100
,
1000
0101
0001
0010
,
0001
1200
0310
1001
,
1000
0010
0001
0010
,
1000
0200
2300
3020
,
0130
0001
0010
0000
2100
0000
3001
0000
,
0100
0001
1000
0011
,
0010
0100
1000
0021
,
0130
0000
1001
0000
1000
0000
0010
0100
,
0001
0000
0010
0000
0100
0000
0010
0001
,
1000
0001
0100
0000
0010
1000
0001
0000
,
0010
0000
0100
0000
0010
0001
0100
0010
,
1000
0100
1001
0000
0000
0000
0000
0000
,
1000
0000
0000
0000
0000
0001
0000
0000
,
0000
0000
0000
0010
0000
0000
0000
0000
,
0100
0000
0000
0001
,
0000
0000
0000
1000
0000
0000
0000
0000
,
0000
0001
0000
2000
0000
0000
3200
0000
,
0310
0100
1000
0010
,
0110
0000
0100
0010
0100
0000
1001
0000
,
0010
0000
0100
0001
0101
0000
0001
0000
,
0100
0010
1100
0010
,
0001
0011
0001
0100
,
0010
1001
1000
0100
,
1000
0010
0100
0001
,
0010
1100
0100
0010
,
0011
0001
0100
0010
,
1000
0000
0001
0100
0010
0000
1001
0000
,
0000
0000
0000
0000
,
0000
0000
0000
0000
,
0000
0000
0000
0000
,
0000
0000
0000
0000
,
0000
0000
0000
0000
,
0000
0000
0000
0000
,
0220
0000
0330
0000
,
0001
1000
0010
0000
1000
0000
0100
0000
,
1000
0100
0000
0100
0010
0000
0011
0000
,
0010
0000
0001
0200
0000
0000
0000
0000
,
0000
0310
1000
0001
,
0010
0001
1010
1000
,
0100
0001
0100
1000
,
1100
0010
0100
0001
,
1000
0101
0001
0010
,
0001
1000
0100
0110
,
0100
1000
0010
0100
,
0101
0001
0100
0010
,
1000
0001
1001
1000
,
0010
0100
0110
0000
0010
0000
0100
0010
,
1000
0001
1000
0100
,
1000
0010
0100
0001
,
1010
1000
0100
0010
,
0022
0000
0000
0033
,
1100
0000
0100
0000
0010
0001
0101
0000
,
0001
0100
0001
1000
,
0001
0100
0010
1000
,
0010
0000
0100
0001
1001
0000
0010
0000
,
0100
1000
2200
0000
,
0000
3300
0011
0001
,
0010
0100
1100
0000
0100
0000
1000
0000
,
0010
0200
0320
2030
,
3001
0010
0100
1000
0100
0010
0001
1000
,
0010
0000
0100
0100
0100
0000
0010
0000
,
2000
0000
3100
0000
0010
0001
0010
0001
,
0201
0310
1000
2001
,
3100
0010
0001
0010
,
0001
0000
0100
0000
0010
0000
0000
0000
1000
0001
1000
0000
0000
0000
0000
0000
,
1000
0000
0000
1000
,
0000
0000
0000
0001
0000
0000
0000
0000
,
0000
1000
0000
0000
0000
0000
0010
0000
,
0000
0000
0100
0000
,
0000
0001
0000
0000
0000
0000
0000
0020
,
0000
0000
0000
0000
,
0000
0030
0000
0000
;

//---------------dance-single - ----------------
#NOTEDATA:;
#CHARTNAME:;
#STEPSTYPE:dance-single;
#DESCRIPTION:;
#CHARTSTYLE:;
#DIFFICULTY:Beginner;
#METER:5;
#RADARVALUES:0.154508,0.248901,0.157577,0.021488,0.000000,151.000000,129.000000,22.000000,3.000000,0.000000,0.000000,0.000000,0.000000,0.000000,0.154508,0.248901,0.157577,0.021488,0.000000,151.000000,129.000000,22.000000,3.000000,0.000000,0.000000,0.000000,0.000000,0.000000;
#CREDIT:Pandemonium X;
#NOTES:
0000
0000
0000
0000
,
0000
0000
0000
0000
,
0000
0000
0000
0000
,
0000
0000
0000
0000
,
0000
1001
0010
0000
,
0000
0000
0000
0000
,
0100
0000
0000
0000
,
0000
0001
0000
0000
,
0000
0000
0000
1001
,
1000
0010
0000
0000
,
1000
0000
0001
0000
,
0000
0000
0000
0000
,
1000
0000
0000
0000
,
0000
0010
0000
0000
,
0000
0000
1000
0000
,
0000
0000
0001
0000
,
0010
0000
0000
0000
,
0001
0001
0000
0000
,
1000
0010
0000
0100
,
0000
0000
0000
0010
,
1000
0100
0000
0000
,
0010
0000
1001
0000
,
0001
0000
1000
0001
,
0000
1000
0000
0010
,
1000
0100
0000
0010
,
0000
0100
0010
0100
,
0000
0000
0010
0001
,
1000
0000
0001
0000
,
1000
0110
0000
0000
,
1000
0000
0000
0000
0000
0001
0000
0000
,
0000
0000
0000
1000
0000
0000
0000
0000
,
0001
0000
0000
1000
,
0000
0000
0000
0001
0000
0000
0000
0000
,
0000
1000
0000
0000
0000
0000
0220
0000
,
0000
0330
0000
1000
,
0000
0001
0000
0011
,
0000
0100
1100
0000
,
0100
1000
0001
0000
,
0000
1000
0000
0010
,
0000
1001
0000
0000
,
0000
0001
0000
0010
,
0000
0011
0000
0000
,
1100
0000
0000
0000
,
0100
0000
1000
0010
,
0000
0000
0000
0000
,
0000
0000
0000
0000
,
0000
0000
0000
0000
,
0000
0000
0000
0000
,
0000
0000
0000
0000
,
0000
0000
0000
0000
,
0010
0000
0000
0000
,
0100
0000
0010
0000
,
0000
0000
1000
0001
,
0000
1000
0000
0000
,
0000
0010
0000
0100
,
0000
0010
0010
0000
,
1000
0000
0001
0001
,
1000
0000
0001
0000
,
0010
0001
0000
0100
,
0000
0010
0010
1000
,
0000
0001
0000
1000
,
1001
0000
0001
0000
,
0100
0000
0110
0000
,
0000
1001
0001
0000
,
0000
1000
0000
0000
,
0010
0000
0000
0000
,
1001
0000
1000
0000
,
0001
0000
0000
0000
,
0010
0000
0000
1100
,
0000
0000
0000
0100
,
0000
0000
1000
0000
,
0010
0000
1001
0000
,
0000
0000
0200
0000
,
0300
0000
0110
0000
,
0000
1001
0000
0001
,
0000
1000
0000
0001
,
0010
0000
0000
0000
,
1001
0000
0000
0000
,
0001
0000
0000
0000
,
0110
0000
0000
1001
,
0000
0000
0000
1000
,
0000
0001
0110
0000
,
1000
0000
0000
1000
,
0000
0000
0000
0001
0000
0000
0000
0000
,
0000
0010
0000
0000
0000
0000
0001
0000
,
0000
0000
0100
0000
,
0000
0010
0000
0000
0000
0000
0000
0100
;
