#TITLE:Sandstorm;
#SUBTITLE:;
#ARTIST:Darude;
#TITLETRANSLIT:;
#SUBTITLETRANSLIT:;
#ARTISTTRANSLIT:;
#GENRE:90s HARD TRANCE;
#CREDIT:;
#BANNER:Sandstorm.png;
#BACKGROUND:Sandstorm-bg.png;
#LYRICSPATH:;
#CDTITLE:;
#MUSIC:Sandstorm.ogg;
#OFFSET:-0.005000;
#SAMPLESTART:36.970001;
#SAMPLELENGTH:15.000000;
#SELECTABLE:YES;
#DISPLAYBPM:136.000000;
#BPMS:0.000000=136.369995
;
#STOPS:
;
#BGCHANGES:;
#KEYSOUNDS:;
#ATTACKS:;

//---------------dance-single - ----------------
#NOTES:
     dance-single:
     :
     Hard:
     14:
     0.580637,0.717907,0.044179,0.044179,0.392088,368.000000,364.000000,4.000000,4.000000,0.000000,0.000000,0.580637,0.717907,0.044179,0.044179,0.392088,368.000000,364.000000,4.000000,4.000000,0.000000,0.000000:
// measure 0
0000
0000
0000
0000
,  // measure 1
2002
0000
0000
0000
,  // measure 2
0000
0000
0000
0000
,  // measure 3
0000
0000
0000
0000
,  // measure 4
0000
0000
0000
0000
,  // measure 5
3003
0000
0000
0000
0000
0000
0000
1000
,  // measure 6
0010
0000
0000
0010
0000
0000
0010
0000
0100
0000
0000
0100
0000
0000
0100
0000
,  // measure 7
0001
0000
0000
0010
0000
0000
0100
0000
0010
0000
0000
0001
0000
0000
1000
0000
,  // measure 8
0010
0000
0000
0100
0000
0000
0001
0000
0010
0000
0000
0000
1001
0000
0000
0000
,  // measure 9
0010
0010
0010
0000
0000
0000
0000
0000
,  // measure 10
0000
0000
0000
1000
,  // measure 11
0001
0001
0001
0000
0000
0000
0000
0000
,  // measure 12
0000
0000
0000
0000
,  // measure 13
0110
0100
0100
0000
1000
1000
1000
0000
,  // measure 14
0010
0010
0010
0000
0100
0100
0100
0000
,  // measure 15
0001
1000
0001
1000
0001
1000
0001
1000
,  // measure 16
0001
1000
0001
1000
0001
1000
0001
1000
0001
1000
0001
1000
0001
1000
0001
1000
,  // measure 17
0001
0001
0100
0001
0001
0001
0100
0010
,  // measure 18
1000
1000
0001
1000
0001
0001
1000
0100
,  // measure 19
0010
0010
0001
0010
0001
0001
0010
0001
,  // measure 20
0010
0010
0100
1000
0001
0001
0001
1000
,  // measure 21
0001
0001
0010
0001
0001
0001
0010
0001
,  // measure 22
0100
0100
0010
0100
0100
0100
0010
1000
,  // measure 23
0100
0100
0100
0010
0001
0001
0001
1000
,  // measure 24
0010
0010
0100
0001
1000
1000
0100
0010
,  // measure 25
0100
1000
0100
1000
0100
0000
0000
0000
1000
0010
1000
0010
1000
0000
0000
0000
,  // measure 26
0001
0010
0001
0010
0001
0000
0010
0000
0100
1000
0100
1000
0100
0000
0010
0000
,  // measure 27
0001
1000
0010
1000
0001
0000
0000
0000
1000
0001
0010
0001
1000
0000
0000
0000
,  // measure 28
0001
0010
0100
1000
0001
0000
0000
0000
1000
0100
0010
0001
1000
0000
0000
0000
,  // measure 29
0001
0100
0001
0100
0001
0000
0000
0000
1000
0010
1000
0010
1000
0000
0000
0000
,  // measure 30
0010
0100
0010
0100
0010
0000
0100
0000
0001
1000
0001
1000
0001
0000
0010
0000
,  // measure 31
0100
0010
0001
0010
0100
0000
0000
0000
0010
0100
1000
0100
0010
0000
0000
0000
,  // measure 32
0100
1000
0010
0100
0001
0000
0000
0000
0010
0001
0100
0010
1000
0000
0001
0000
,  // measure 33
1000
0001
1000
0000
0001
0000
1000
0001
1000
0000
0001
0000
1000
0000
0000
0000
,  // measure 34
0001
0100
0001
0000
0100
0000
0001
0100
0001
0100
0001
0000
0100
0000
0100
0000
,  // measure 35
0010
0100
0010
0000
0100
0000
0010
0100
0010
0000
0100
0000
0010
0000
1000
0000
,  // measure 36
0010
0000
0010
0000
1000
0000
0100
0000
0010
0000
0010
0000
0100
0000
1000
0001
,  // measure 37
1000
0001
1000
0000
0001
0000
1000
0001
1000
0000
0001
0000
1000
0000
0000
0000
,  // measure 38
0100
0010
0100
0000
0010
0000
0100
0010
0100
0000
0010
0000
0100
0000
0100
0000
,  // measure 39
1000
0001
1000
0000
0001
0000
1000
0001
1000
0000
0001
0000
0010
0000
0100
0000
,  // measure 40
0010
0010
0001
0100
0010
0010
0100
0001
,  // measure 41
1000
0100
0010
0100
1000
0010
0100
0100
,  // measure 42
0010
1000
0001
0010
0001
1000
0100
0100
,  // measure 43
0010
0001
0010
0100
1000
0010
0100
0100
,  // measure 44
0010
1000
0001
0010
0100
0010
0100
0100
,  // measure 45
1000
0001
0010
0000
0100
0000
0100
0000
0010
0001
0100
0000
0010
0000
0010
0000
,  // measure 46
0100
0001
0010
0000
0100
0000
0100
0000
0010
0001
0100
0000
0010
0000
0010
0000
,  // measure 47
1000
0001
1000
0000
0001
1000
0001
0000
1000
0001
1000
0000
0001
1000
0001
0000
,  // measure 48
0100
0010
0100
0000
0010
0100
0010
0000
0100
0010
0100
0000
0010
0100
0010
0000
,  // measure 49
2002
0000
0000
0000
,  // measure 50
3003
0000
0000
0000
;

//---------------dance-single - ----------------
#NOTES:
     dance-single:
     :
     Challenge:
     16:
     0.798375,0.911189,0.342386,0.099402,0.971935,506.000000,475.000000,31.000000,9.000000,0.000000,0.000000,0.798375,0.911189,0.342386,0.099402,0.971935,506.000000,475.000000,31.000000,9.000000,0.000000,0.000000:
// measure 0
0000
0000
0000
0000
,  // measure 1
0220
0000
0000
0000
,  // measure 2
0000
0000
0000
0000
,  // measure 3
0000
0000
0000
0000
,  // measure 4
0000
0000
0000
0300
,  // measure 5
2030
0000
0000
0000
,  // measure 6
3002
0000
0023
0000
,  // measure 7
0032
0000
0000
0000
,  // measure 8
2003
0000
3000
0110
,  // measure 9
1001
0001
1000
0010
1000
0000
0000
0000
0000
0000
0000
0000
0000
0000
0000
0000
,  // measure 10
0000
0000
0000
0010
,  // measure 11
0100
0001
0010
0001
1000
0000
0000
0000
0000
0000
0000
0000
0000
0000
0000
0000
,  // measure 12
0000
0000
0000
0000
,  // measure 13
1001
1000
0001
0010
0001
0000
0000
0000
1000
0001
1000
0010
1000
0000
0000
0000
,  // measure 14
0001
1000
0001
0010
0001
0000
0000
0000
1000
0001
1000
0010
1000
0000
0000
0000
,  // measure 15
0001
1000
0001
0010
0001
1000
0010
1000
0001
1000
0010
1000
0001
1000
0010
1000
,  // measure 16
0001
1000
0001
1000
0001
1000
0001
1000
0001
1000
0010
0100
0001
0010
0100
1000
,  // measure 17
0001
0010
0001
0010
0001
0000
0010
0001
1000
0100
1000
0100
1000
0000
0100
0010
,  // measure 18
0001
1000
0001
1000
0010
0000
1000
0001
0100
0001
0100
0001
0010
0000
0100
1000
,  // measure 19
0010
0100
0010
0100
0010
0000
0100
0001
0010
0100
0010
0100
0010
0000
0100
0010
,  // measure 20
0100
1000
0100
1000
0100
0000
1000
0100
0010
0001
0010
0001
0010
0000
0001
1000
,  // measure 21
0010
0100
0010
0100
0010
0000
0100
0001
0010
0100
0010
0100
0010
0000
0100
0010
,  // measure 22
0001
0010
0001
0010
0001
0000
1000
0100
0010
0100
0010
0100
0010
0000
0100
1000
,  // measure 23
0001
0100
0001
0100
0001
0000
0100
0010
1000
0001
1000
0001
1000
0000
0001
0010
,  // measure 24
0100
1000
0100
1000
0100
0000
0010
0001
0100
0010
0100
0010
0100
0000
0010
1000
,  // measure 25
0001
0010
0001
0010
0001
0000
0010
0100
1000
0100
1000
0100
1000
0000
0001
0100
,  // measure 26
0010
0100
0010
0100
0010
0000
0100
0010
1000
0001
1000
0001
1000
0000
0001
0010
,  // measure 27
0100
1000
0010
0100
0001
0000
1000
0001
0010
0100
0010
0001
1000
0000
0001
1000
,  // measure 28
0001
0010
0001
1000
0100
0000
0010
0100
0010
0001
0100
0010
1000
0000
0001
1000
,  // measure 29
0100
0010
0100
0010
0001
0000
0010
0100
1000
0001
1000
0001
0100
0000
0001
0100
,  // measure 30
0010
1000
0010
1000
0100
0000
0010
0001
1000
0010
1000
0010
0100
0000
0010
1000
,  // measure 31
0001
0010
0100
0010
0001
0000
1000
0001
0100
0001
0010
0100
0010
0000
0100
0010
,  // measure 32
0001
1000
0010
0100
0001
0000
0010
0001
0100
0010
1000
0100
0010
0000
0100
1000
,  // measure 33
0010
1000
0010
0000
1000
0000
0010
1000
0010
1000
0010
0000
1000
0000
1001
0000
,  // measure 34
0001
0010
0001
0000
0010
0000
0001
0010
0001
0010
0001
0000
1001
0000
1001
0000
,  // measure 35
0001
0100
0001
0000
0100
0000
0001
0100
0001
0100
0001
0000
0100
0000
0001
0100
,  // measure 36
0010
1000
0001
0000
0011
0000
0010
0100
0010
0001
1000
0000
1010
0000
0010
1000
,  // measure 37
0001
1000
0001
0000
1000
0000
0001
1000
0001
1000
0001
0000
1000
0000
1001
0000
,  // measure 38
0100
0010
0100
0000
0010
0000
0100
0010
0100
0010
0100
0000
0110
0000
0110
0000
,  // measure 39
0001
1000
0001
0000
1000
0000
0001
1000
0001
1000
0001
0000
1000
0000
0001
0100
,  // measure 40
0010
1000
0010
0000
0110
0000
0100
0001
0010
0100
1000
0000
1100
0000
0100
0010
,  // measure 41
0001
0100
0010
0000
1000
0000
0001
0010
0001
1000
0100
0000
0110
0000
0110
0000
,  // measure 42
0100
1000
0001
0000
0100
0000
0010
1000
0001
0010
0100
0000
1100
0000
1100
0000
,  // measure 43
0100
1000
0010
0000
0100
0000
0010
1000
0001
0010
0100
0000
0110
0000
0110
0000
,  // measure 44
0100
1000
0001
0000
0100
0000
0001
1000
0100
0010
0001
0000
0011
0000
0011
0000
,  // measure 45
0001
0100
1000
0000
1100
0000
0101
0000
0001
0010
1000
0000
1010
0000
0011
0000
,  // measure 46
0001
0010
1000
0000
1010
0000
0011
0000
0001
0100
1000
0000
1100
0000
0101
0000
,  // measure 47
0001
0100
1000
0000
1000
0100
0001
0000
0001
0010
1000
0000
1000
0010
0001
0000
,  // measure 48
0001
0100
1000
0000
1000
0100
0001
0000
0001
0010
1000
0000
1000
0010
0001
0000
,  // measure 49
2002
0000
0000
0000
,  // measure 50
3003
0000
0000
0000
;

//---------------dance-single - ----------------
#NOTES:
     dance-single:
     :
     Medium:
     9:
     0.366054,0.497012,0.077313,0.176716,0.022089,232.000000,225.000000,7.000000,16.000000,0.000000,0.000000,0.366054,0.497012,0.077313,0.176716,0.022089,232.000000,225.000000,7.000000,16.000000,0.000000,0.000000:
// measure 0
0000
0000
0000
0000
,  // measure 1
2002
0000
0000
0000
,  // measure 2
0000
0000
0000
0000
,  // measure 3
0000
0000
0000
0000
,  // measure 4
0000
0000
0000
0000
,  // measure 5
3003
0000
0000
0000
,  // measure 6
0000
0000
0000
0000
,  // measure 7
0000
0000
0000
0000
,  // measure 8
0000
0000
0000
0110
,  // measure 9
1001
1000
0001
0000
0000
0000
0000
0000
,  // measure 10
0000
0000
0000
0010
,  // measure 11
0001
1000
0001
0000
0000
0000
0000
0000
,  // measure 12
0000
0000
0000
0000
,  // measure 13
1000
0001
1000
0000
0001
1000
0001
0000
,  // measure 14
1000
0001
1000
0000
0001
1000
0001
0000
,  // measure 15
0010
0100
0010
0100
0010
0100
0010
0100
,  // measure 16
0010
0100
0010
0100
0010
0220
0000
0330
,  // measure 17
1001
0001
0100
0000
0010
1000
0100
0000
,  // measure 18
0010
0100
1000
0000
0100
0010
0001
1000
,  // measure 19
0010
0100
0001
0000
0010
0100
1000
0000
,  // measure 20
0100
0000
0010
0000
0000
0000
0010
0000
0010
0000
0000
0010
0000
0000
0010
0000
,  // measure 21
0100
1000
0010
0000
0100
0001
1000
0000
,  // measure 22
0001
0010
0100
0010
0001
1000
0010
0000
,  // measure 23
1000
0001
0100
0000
0010
1000
0100
0000
,  // measure 24
0010
0000
0001
0000
0000
0000
0001
0000
0001
0000
0000
0001
0000
0000
0001
0000
,  // measure 25
1001
1000
1000
0000
0010
0010
1000
0000
,  // measure 26
0100
0100
1000
0010
0100
0100
0001
0000
,  // measure 27
0100
0100
0001
0000
0010
0010
0100
0000
,  // measure 28
0010
0000
0100
0000
0000
0000
0100
0000
0100
0000
0000
0100
0000
0000
0100
0000
,  // measure 29
0010
0010
0001
0000
1000
1000
0010
0000
,  // measure 30
0100
0100
0010
1000
1000
0001
0010
0000
,  // measure 31
0100
0100
1000
0000
0100
0100
0010
0000
,  // measure 32
0100
0000
1000
0000
0000
0000
1000
0000
1000
0000
0000
1000
0000
0000
1000
0000
,  // measure 33
0002
0000
0100
0000
0010
0000
1003
0100
,  // measure 34
0020
0000
0100
0000
0001
0000
0130
0100
,  // measure 35
2000
0010
0001
3010
,  // measure 36
0100
0010
2000
0000
3001
0010
0200
0000
,  // measure 37
0320
0000
0001
0000
0100
0000
0031
0100
,  // measure 38
0020
0000
0100
0000
1000
0000
0100
0130
,  // measure 39
0002
0000
0010
0000
0100
0000
0013
0100
,  // measure 40
0100
0010
0200
0000
0310
0001
0200
0000
,  // measure 41
0310
0000
1000
0000
0010
0000
0100
0100
,  // measure 42
0100
0000
0010
0000
1000
0000
0001
0001
,  // measure 43
0001
0000
0010
0000
0100
0000
1000
1000
,  // measure 44
1000
0000
0100
0000
1000
0000
0010
0010
,  // measure 45
0100
0100
0100
0000
0010
0010
0010
0000
,  // measure 46
1000
1000
1000
0000
0001
0001
0001
0000
,  // measure 47
1000
1000
0001
0001
1000
1000
0001
0001
,  // measure 48
1000
1000
0001
0001
1000
1000
0001
0001
,  // measure 49
0220
0000
0000
0000
,  // measure 50
0330
0000
0000
0000
;

//---------------dance-single - ----------------
#NOTES:
     dance-single:
     :
     Easy:
     5:
     0.227206,0.276118,0.055224,0.817309,0.000000,144.000000,139.000000,5.000000,74.000000,0.000000,0.000000,0.227206,0.276118,0.055224,0.817309,0.000000,144.000000,139.000000,5.000000,74.000000,0.000000,0.000000:
// measure 0
0000
0000
0000
0000
,  // measure 1
2002
0000
0000
0000
,  // measure 2
0000
0000
0000
0000
,  // measure 3
0000
0000
0000
0000
,  // measure 4
0000
0000
0000
0000
,  // measure 5
3003
0000
0000
0000
,  // measure 6
0000
0000
0000
0000
,  // measure 7
0000
0000
0000
0000
,  // measure 8
0000
0000
0000
0110
,  // measure 9
0002
0003
0000
0000
,  // measure 10
0000
0000
0000
1000
,  // measure 11
0002
0003
0000
0000
,  // measure 12
0000
0000
0000
0000
,  // measure 13
2000
3000
0020
0030
,  // measure 14
0200
0300
0002
0003
,  // measure 15
2000
3002
2003
3002
,  // measure 16
2003
3002
2000
3003
,  // measure 17
0002
0103
0002
1003
,  // measure 18
0002
0013
0002
1003
,  // measure 19
2000
3001
2000
3010
,  // measure 20
2000
3100
2000
3001
,  // measure 21
0120
1030
0020
0130
,  // measure 22
0020
1030
0020
0130
,  // measure 23
0200
0301
0200
0310
,  // measure 24
0200
0301
0200
0310
,  // measure 25
1002
0013
0002
0013
,  // measure 26
0002
1003
0002
0103
,  // measure 27
0002
1003
2000
3001
,  // measure 28
0002
1003
2000
3001
,  // measure 29
2010
3100
2000
3010
,  // measure 30
2000
3001
2000
3010
,  // measure 31
2000
3100
2000
3001
,  // measure 32
0002
1003
0002
0103
,  // measure 33
0002
0100
0000
0010
,  // measure 34
2003
0100
0000
0010
,  // measure 35
3002
0100
0000
0010
,  // measure 36
2003
3100
0002
0103
,  // measure 37
0002
1000
0000
0013
,  // measure 38
0200
1000
0000
0310
,  // measure 39
0200
1000
0000
1300
,  // measure 40
0002
0103
0020
1030
,  // measure 41
0010
1000
0001
2000
,  // measure 42
3001
0010
0100
0020
,  // measure 43
0031
0100
0010
2000
,  // measure 44
3100
1000
0010
0200
,  // measure 45
0302
0013
0020
0130
,  // measure 46
0200
1300
2000
3100
,  // measure 47
2000
3002
0203
0320
,  // measure 48
2030
3002
0203
0320
,  // measure 49
0200
0000
0000
0000
,  // measure 50
0330
0000
0000
0000
;

//---------------dance-single - ----------------
#NOTES:
     dance-single:
     :
     Beginner:
     4:
     0.119914,0.270596,0.022089,0.077313,0.000000,76.000000,74.000000,2.000000,7.000000,0.000000,0.000000,0.119914,0.270596,0.022089,0.077313,0.000000,76.000000,74.000000,2.000000,7.000000,0.000000,0.000000:
// measure 0
0000
0000
0000
0000
,  // measure 1
0000
0000
0000
0000
,  // measure 2
0000
0000
0000
0000
,  // measure 3
0000
0000
0000
0000
,  // measure 4
0000
0000
0000
0000
,  // measure 5
0000
0000
0000
0000
,  // measure 6
0000
0000
0000
0000
,  // measure 7
0000
0000
0000
0000
,  // measure 8
0000
0000
0000
0000
,  // measure 9
0010
0000
0000
0000
,  // measure 10
0000
0000
0000
0100
,  // measure 11
0010
0000
0000
0000
,  // measure 12
0000
0000
0000
0000
,  // measure 13
1001
0000
1000
0000
,  // measure 14
1000
0000
1000
0000
,  // measure 15
1000
0000
0001
0000
,  // measure 16
0100
0000
0020
0000
,  // measure 17
0130
0000
0010
0000
,  // measure 18
1000
0000
0100
0000
,  // measure 19
1000
0000
0001
0000
,  // measure 20
0100
0000
0010
0000
,  // measure 21
1000
0000
0001
0000
,  // measure 22
0010
0000
0001
0000
,  // measure 23
1000
0000
0100
0000
,  // measure 24
1000
0000
0010
0000
,  // measure 25
0100
0000
0010
0000
,  // measure 26
1000
0000
0001
0000
,  // measure 27
0010
0000
0001
0000
,  // measure 28
0100
0000
0010
0000
,  // measure 29
1000
0000
0010
0000
,  // measure 30
0100
0000
0001
0000
,  // measure 31
0010
0000
0100
0000
,  // measure 32
1000
0000
0100
0000
,  // measure 33
2000
0000
0000
3000
,  // measure 34
0002
0000
0000
0003
,  // measure 35
0200
0000
0000
0300
,  // measure 36
0010
0000
0100
0000
,  // measure 37
0020
0000
0000
0030
,  // measure 38
2000
0000
0000
3000
,  // measure 39
0200
0000
0000
0300
,  // measure 40
0010
0000
0100
0000
,  // measure 41
1000
0000
0000
0001
,  // measure 42
1000
0000
0000
0001
,  // measure 43
1000
0000
0000
0001
,  // measure 44
1000
0000
0000
0001
,  // measure 45
1000
0000
0001
0000
,  // measure 46
1000
0000
0001
0000
,  // measure 47
1000
0001
1000
0001
,  // measure 48
1000
0001
1000
0001
,  // measure 49
0110
0000
0000
0000
;
