#VERSION:0.83;
#TITLE:SEXY PLANET;
#SUBTITLE:;
#ARTIST:Crystal Aliens;
#TITLETRANSLIT:;
#SUBTITLETRANSLIT:;
#ARTISTTRANSLIT:;
#GENRE:SEXUAL DRUM AND BASS;
#ORIGIN:;
#CREDIT:;
#BANNER:SEXY PLANET.png;
#BACKGROUND:SEXY PLANET-bg.png;
#PREVIEWVID:;
#JACKET:SEXY PLANET-jacket.png;
#CDIMAGE:;
#DISCIMAGE:;
#LYRICSPATH:;
#CDTITLE:cdtitle.png;
#MUSIC:SEXY PLANET.ogg;
#OFFSET:-0.011000;
#SAMPLESTART:54.766998;
#SAMPLELENGTH:15.000000;
#SELECTABLE:YES;
#DISPLAYBPM:181.000000;
#BPMS:0.000=180.905,
4.000=180.255;
#STOPS:;
#DELAYS:;
#WARPS:;
#TIMESIGNATURES:0.000=4=4;
#TICKCOUNTS:0.000=4;
#COMBOS:0.000=1;
#SPEEDS:0.000=1.000=0.000=0;
#SCROLLS:0.000=1.000;
#FAKES:;
#LABELS:0.000=Song Start;
#BGCHANGES:3.750=SEXY PLANET.avi=1.000=1=0=0=StretchNoLoop==CrossFade==,
238.000=SEXY PLANET-bg.png=1.000=0=0=1=====,
99999=-nosongbg-=1.000=0=0=0 // don't automatically add -songbackground-
;
#KEYSOUNDS:;
#ATTACKS:
;

//---------------dance-single - ----------------
#NOTEDATA:;
#CHARTNAME:;
#STEPSTYPE:dance-single;
#DESCRIPTION:;
#CHARTSTYLE:;
#DIFFICULTY:Hard;
#METER:15;
#RADARVALUES:0.769706,0.879713,0.727134,0.667533,0.220524,452.000000,391.000000,61.000000,56.000000,0.000000,0.000000,0.000000,0.000000,0.000000,0.769706,0.879713,0.727134,0.667533,0.220524,452.000000,391.000000,61.000000,56.000000,0.000000,0.000000,0.000000,0.000000,0.000000;
#CREDIT:Pandemonium X;
#DISPLAYBPM:181.000000;
#NOTES:
// measure 0
0000
0000
0000
0000
,  // measure 1
0000
0000
0000
0000
,  // measure 2
0000
0000
0000
1200
,  // measure 3
0310
0001
1000
1001
0000
0010
0010
0000
,  // measure 4
0100
0011
0000
1100
0000
1000
0002
0000
,  // measure 5
1003
0010
0001
0010
,  // measure 6
1000
0000
0001
0010
0000
0000
0120
0000
,  // measure 7
0031
0010
0100
0110
0000
1000
1000
0000
,  // measure 8
0001
1000
0001
0000
0100
0000
0001
0000
0000
0000
0000
0000
0010
0000
0000
0000
,  // measure 9
1100
0100
0001
0101
0000
1100
0000
1000
,  // measure 10
0001
0100
1000
1100
0000
0110
0000
0010
,  // measure 11
1000
0100
0001
0101
0000
1100
0000
1000
,  // measure 12
0001
0200
1300
0200
0301
2000
3100
0010
,  // measure 13
0001
0010
1000
1010
0000
0011
0001
1000
,  // measure 14
0001
0100
1000
1100
0000
0100
0010
1000
,  // measure 15
0001
0010
1000
1010
0000
1000
0100
0010
,  // measure 16
1001
0010
1001
0010
1001
0010
1001
0010
,  // measure 17
1001
0000
1000
0100
0020
0000
0031
0000
1000
0000
0001
0010
0200
0000
1300
0000
,  // measure 18
0001
0000
1000
0100
0020
0000
0031
0000
1000
0000
0001
0010
0200
0000
1300
0000
,  // measure 19
0001
0000
1000
0100
0020
0000
0031
0000
1000
0000
0001
0010
0200
0000
1300
0000
,  // measure 20
0001
0000
1000
0100
0020
0000
0130
0000
1000
0000
0010
0000
0100
0000
0000
0000
,  // measure 21
0110
0000
0100
0001
2000
0000
3010
0000
0100
0000
0010
1000
0002
0000
0103
0000
,  // measure 22
0010
0000
0100
0001
2000
0000
3010
0000
0100
0000
0010
1000
0002
0000
0103
0000
,  // measure 23
0010
0000
0100
0001
2000
0000
3010
0000
0100
0000
0010
1000
0002
0000
0103
0000
,  // measure 24
0010
0000
0100
0001
2000
0000
3001
0000
0100
0000
0010
0000
1000
0000
0100
0000
,  // measure 25
0000
0011
0000
1010
0000
0011
0000
1010
,  // measure 26
0000
0011
0000
0011
0010
1000
0010
0001
,  // measure 27
0000
0101
0000
1100
0000
0101
0000
1100
,  // measure 28
0000
0101
0000
1100
0100
0010
0001
1000
,  // measure 29
0020
0000
1030
0200
0000
0310
0002
0000
,  // measure 30
0003
1001
0000
1000
0100
0010
0100
1000
,  // measure 31
0010
0110
0000
1010
0000
0101
0000
0011
,  // measure 32
0000
0110
0110
0000
0020
0000
0030
0000
,  // measure 33
1001
0000
0001
0100
0000
0110
0000
0000
,  // measure 34
0000
1010
0000
0201
0000
0301
0010
0000
,  // measure 35
1100
0100
0010
0110
0000
0100
0100
0000
,  // measure 36
2000
3002
0003
0200
0000
0300
0020
0000
,  // measure 37
1030
1000
0001
2000
0000
0000
0000
0000
,  // measure 38
0000
0010
0000
0100
0000
0001
0001
0000
,  // measure 39
0010
0000
0000
0100
0000
0000
0001
0000
,  // measure 40
3001
0010
0001
0000
1000
0000
0010
0000
0100
0000
0000
0000
0020
0000
0000
0000
,  // measure 41
1030
1010
1010
1010
1200
0000
0300
0011
,  // measure 42
0011
0011
0010
0100
0010
0001
0100
0010
,  // measure 43
1000
0001
0010
0100
0010
0002
0000
1003
,  // measure 44
0000
0000
0001
1000
0010
1000
0001
0010
,  // measure 45
0100
0010
0001
1000
0010
2000
0000
3200
,  // measure 46
0000
0300
0010
0001
1000
0100
0010
0100
,  // measure 47
1000
0001
0100
0001
0010
0200
0000
0320
,  // measure 48
0000
0030
0001
0100
0001
1000
0100
1000
,  // measure 49
0001
1000
1001
0010
1001
0010
1001
0010
,  // measure 50
1001
0000
0010
0000
1001
0000
0001
0100
0020
0000
1000
0000
1030
0000
0100
0010
,  // measure 51
0002
0000
0100
0000
0103
0000
0010
1000
0200
0000
0010
0000
0310
0000
0100
0010
,  // measure 52
0002
0000
1000
0000
1003
0000
0100
0010
0002
0000
0100
0000
0103
0000
0010
1000
,  // measure 53
0002
0000
0010
0000
0013
0000
0100
0010
0002
0000
1000
0000
0003
0000
1000
0000
,  // measure 54
0100
0000
0010
0000
0001
0000
0100
0010
2000
0000
0100
0000
3100
0000
0010
0001
,  // measure 55
0200
0000
0010
0000
0310
0000
0100
0001
2000
0000
0100
0000
3100
0000
1000
0001
,  // measure 56
0020
0000
0100
0000
0130
0000
0010
0001
2000
0000
0010
0000
3010
0000
0100
0001
,  // measure 57
2000
0000
0001
0000
3001
0010
0001
0010
0002
0000
0000
0000
1003
0010
1000
0010
,  // measure 58
2000
0000
0000
0000
3001
0100
0001
0100
0002
0000
0000
0000
1003
0100
1000
0100
,  // measure 59
2000
3000
0220
0000
,  // measure 60
0000
0000
0000
0000
,  // measure 61
0000
0000
0330
0000
;

//---------------dance-single - ----------------
#NOTEDATA:;
#CHARTNAME:;
#STEPSTYPE:dance-single;
#DESCRIPTION:;
#CHARTSTYLE:;
#DIFFICULTY:Medium;
#METER:9;
#RADARVALUES:0.442751,0.531940,0.548331,0.071521,0.000000,260.000000,214.000000,46.000000,6.000000,0.000000,0.000000,0.000000,0.000000,0.000000,0.442751,0.531940,0.548331,0.071521,0.000000,260.000000,214.000000,46.000000,6.000000,0.000000,0.000000,0.000000,0.000000,0.000000;
#CREDIT:Pandemonium X;
#DISPLAYBPM:181.000000;
#NOTES:
0000
0000
0000
0000
,
0000
0000
0000
0000
,
0000
0000
0000
1200
,
0310
0000
0000
0001
0000
0000
0100
0000
,
0000
0010
0000
1000
0000
0001
0010
0000
,
0100
0010
0001
0100
,
1000
0000
0100
0010
0000
0000
1020
0000
,
0130
0000
0010
1000
0000
0000
0001
0000
,
0000
0011
0000
1100
0000
0000
0000
0000
,
0001
0000
1000
0010
0000
1000
0000
0000
,
0001
0000
0010
0100
0000
0010
0000
0000
,
0001
0000
1000
0010
0000
0100
0000
0000
,
0000
1001
0000
0110
0000
1001
0000
0000
,
0001
0000
1000
0010
0000
1000
0000
0000
,
0100
0000
0010
0100
0000
1000
0000
0000
,
0010
0000
0100
0001
0000
0010
0000
0000
,
0011
1100
0011
1100
,
0001
0101
0100
0101
,
0001
0101
0100
0101
,
0001
0101
0100
0101
,
0001
1001
0000
0000
,
1000
1010
0010
1010
,
1000
1010
0010
1010
,
1000
1010
0010
1010
,
0010
1010
0000
0000
,
0100
0010
0000
1000
0000
0001
0000
0010
,
0000
0100
0000
0010
0001
1000
0001
1000
,
0000
0010
0000
1000
0000
0001
0000
0010
,
0000
0001
0000
1000
0100
0010
0001
1000
,
0000
0001
0000
0100
0000
0001
0000
0010
,
0000
0100
0000
1000
0100
0010
0100
1000
,
0000
0010
0000
0100
0000
0001
0000
1000
,
0000
0001
0001
0000
1000
0000
0000
0000
,
1001
0000
0000
0000
0000
0110
0000
0000
,
0000
1000
0000
0010
0000
0100
0001
0000
,
0010
0000
0000
0100
0000
0000
0010
0000
,
0002
0203
0300
0020
0030
0000
2000
0000
,
3100
0000
0000
0010
0000
0000
0000
0000
,
0000
0100
0000
1000
0000
0010
0100
0000
,
0001
0000
0000
1000
0000
0000
0001
0000
,
0000
0010
0000
0010
0000
0000
0000
0000
,
0000
0001
0001
0001
0001
0000
0000
0001
,
0001
0001
1001
0000
0001
0000
1000
0000
,
0010
1000
0100
1000
,
0010
0100
0001
0000
1000
0000
0100
0000
,
0010
0000
0100
0000
1000
0100
0000
1000
,
0000
0010
0100
0001
,
0010
0000
0100
0000
0010
0001
0000
0010
,
0000
0100
0010
0001
,
1000
1010
0101
1010
,
0101
1000
1100
0100
,
1100
1000
1100
0100
,
1100
1000
1100
0100
,
1100
1000
1001
0000
,
0000
0001
0101
0100
,
0101
0001
0101
0100
,
0101
0001
0101
0100
,
0101
0000
0010
0000
,
0010
0000
0010
0000
,
0010
0000
1001
0000
;

//---------------dance-single - ----------------
#NOTEDATA:;
#CHARTNAME:;
#STEPSTYPE:dance-single;
#DESCRIPTION:;
#CHARTSTYLE:;
#DIFFICULTY:Easy;
#METER:6;
#RADARVALUES:0.257136,0.390090,0.011920,0.035761,0.000000,151.000000,150.000000,1.000000,3.000000,0.000000,0.000000,0.000000,0.000000,0.000000,0.257136,0.390090,0.011920,0.035761,0.000000,151.000000,150.000000,1.000000,3.000000,0.000000,0.000000,0.000000,0.000000,0.000000;
#CREDIT:Pandemonium X;
#DISPLAYBPM:181.000000;
#NOTES:
0000
0000
0000
0000
,
0000
0000
0000
0000
,
0000
0000
0000
2000
,
3001
0000
0000
1000
0000
0000
0001
0000
,
0000
0100
0000
0100
0000
0000
0000
0000
,
0010
1000
0100
0010
,
0001
0000
0000
1000
0000
0000
0020
0000
,
1030
0000
0000
0010
0000
0000
1000
0000
,
0000
0001
0000
1000
0000
0000
0000
0000
,
0001
0000
1000
0000
,
0010
1000
0010
0000
,
0100
0000
0001
0000
,
1000
0001
0010
0100
,
1000
0000
0100
0000
,
1000
0010
0100
0000
,
0010
0000
1000
0000
,
0001
0001
0001
0001
,
1000
0001
0000
1000
,
0000
0010
0000
1000
,
0000
0100
0000
0010
,
0000
0001
0000
0000
,
0000
0010
0000
0001
,
0000
0100
0000
0010
,
0000
1000
0000
0100
,
0000
1000
0000
0000
,
0001
0000
1000
0000
,
0010
0000
1000
0001
,
0100
0000
0001
0000
,
0010
0001
0100
0001
,
1000
0000
0000
0000
,
0001
0000
0000
0000
,
0010
0000
0000
0000
,
0000
0001
1000
0000
1000
0000
0000
0000
,
0001
0000
0000
0000
0000
1000
0000
0000
,
0000
0010
0000
1000
0000
0000
0100
0000
,
0010
0000
0000
0100
0000
0000
1000
0000
,
0001
1000
0000
0010
0000
0000
0200
0000
,
0301
0000
0000
0100
0000
0000
0000
0000
,
0000
0010
0000
1000
0000
0000
0001
0000
,
1000
0000
0000
0001
0000
0000
0100
0000
,
0000
0010
0000
1000
0000
0000
0000
0000
,
0000
0001
1000
0001
1000
0000
0000
0001
,
1000
0001
1000
0000
0001
0000
0010
0000
,
0001
0000
1000
0000
0100
0000
0000
0010
,
0000
0010
0100
0010
,
0001
1000
0010
0100
,
0000
0010
0100
0001
,
1000
0000
0100
0000
0010
0000
0000
0001
,
0000
0010
0001
0100
,
0010
1000
1000
1000
,
1000
1000
0001
0010
,
0100
0000
1000
0000
,
0010
0000
0100
0000
,
0001
0000
0010
0000
,
0000
0000
0001
0000
,
0100
0000
0010
0000
,
1000
0000
0001
0000
,
1000
0000
0100
0000
,
0100
0000
0100
0000
,
0100
0000
1001
0000
;

//---------------dance-single - ----------------
#NOTEDATA:;
#CHARTNAME:;
#STEPSTYPE:dance-single;
#DESCRIPTION:;
#CHARTSTYLE:;
#DIFFICULTY:Beginner;
#METER:4;
#RADARVALUES:0.144746,0.248239,0.035761,0.000000,0.000000,85.000000,82.000000,3.000000,0.000000,0.000000,0.000000,0.000000,0.000000,0.000000,0.144746,0.248239,0.035761,0.000000,0.000000,85.000000,82.000000,3.000000,0.000000,0.000000,0.000000,0.000000,0.000000,0.000000;
#CREDIT:Pandemonium X;
#DISPLAYBPM:181.000000;
#NOTES:
0000
0000
0000
0000
,
0000
0000
0000
0000
,
0000
0000
0000
0000
,
0100
0000
0000
0000
,
0000
0000
0000
0000
,
0000
0000
0000
0000
,
0000
0000
0000
0000
,
0100
0000
0000
0000
,
0000
0000
0000
0000
,
0010
0000
0000
0000
,
1000
0000
0000
0000
,
0100
0000
0000
0000
,
0010
0000
0001
0000
,
1000
0000
0000
0000
,
0010
0000
0000
0000
,
0100
0000
0000
0000
,
0001
1000
0001
1000
,
0001
0001
0000
1000
,
0000
0001
0000
1000
,
0000
0001
0000
1000
,
0000
0001
0000
0000
,
0000
0100
0000
0010
,
0000
0100
0000
0010
,
0000
0100
0000
0010
,
0000
0100
0000
0000
,
0010
0000
0000
0000
,
1000
0000
0000
0000
,
0100
0000
0000
0000
,
0010
0000
0001
0000
,
0100
0000
0000
0000
,
0010
0000
0000
0000
,
1000
0000
0000
0000
,
0001
1000
0001
0000
,
1000
0000
0000
0000
0000
1000
0000
0000
,
0000
0000
0000
0000
,
0001
0000
0001
0000
,
1000
0000
0000
0000
,
1001
0000
0000
0000
,
0010
0000
0000
0000
,
0100
0000
0000
0000
,
0010
0000
0000
0000
,
0000
1000
1000
0000
,
1000
0001
0000
0000
,
0000
1000
0000
0000
,
0000
0010
0000
0000
,
0000
1000
0000
0000
,
0000
1100
0000
0000
,
0000
0100
0000
0000
,
0000
0010
0000
0000
,
0000
0100
0010
0100
,
0010
0100
0010
0000
,
0001
0000
1000
0000
,
0001
0000
1000
0000
,
0001
0000
1000
0000
,
0000
0000
0010
0000
,
0100
0000
0010
0000
,
0100
0000
0010
0000
,
0100
0000
0010
0000
,
1000
0000
0100
0000
,
0010
0000
1001
0000
;
