#TITLE:SALMON CANNON DELUXE;
#SUBTITLE:;
#ARTIST:NANORAY;
#TITLETRANSLIT:;
#SUBTITLETRANSLIT:;
#ARTISTTRANSLIT:;
#GENRE:;
#CREDIT:;
#BANNER:SALMON CANNON DELUXE.png;
#BACKGROUND:SALMON CANNON DELUXE-bg.png;
#LYRICSPATH:;
#CDTITLE:;
#MUSIC:SALMON CANNON DELUXE.ogg;
#OFFSET:-0.129000;
#SAMPLESTART:26.602758;
#SAMPLELENGTH:16.551722;
#SELECTABLE:YES;
#BPMS:0.000000=145.000000
;
#STOPS:
;
#BGCHANGES:;
#KEYSOUNDS:;
#ATTACKS:;

//---------------dance-single - ----------------
#NOTES:
     dance-single:
     :
     Challenge:
     17:
     0.899329,1.023851,0.338209,0.430448,1.145299,819.000000,775.000000,44.000000,56.000000,0.000000,0.000000,0.899329,1.023851,0.338209,0.430448,1.145299,819.000000,775.000000,44.000000,56.000000,0.000000,0.000000:
// measure 0
0000
0000
0000
0000
,  // measure 1
0000
0000
0000
0000
,  // measure 2
0000
0000
0000
0000
,  // measure 3
0000
0000
0000
0000
,  // measure 4
1001
0000
1000
0000
0100
0000
0000
0010
0001
1000
0000
0001
0100
0010
0000
0000
,  // measure 5
0101
0001
0010
0110
0100
0010
1001
1000
,  // measure 6
1001
0000
0001
0000
0010
0000
0000
0100
1000
0001
0000
1000
0010
0100
0000
0000
,  // measure 7
0002
0000
2003
0000
3200
0320
0230
0320
0030
0200
0320
0030
0001
0100
0010
0000
,  // measure 8
2001
0000
0000
0000
3010
0000
0100
0000
0001
0000
0010
0001
0000
0010
0100
0000
,  // measure 9
2100
0000
0000
0000
3010
0000
0100
0000
0001
0000
0010
0001
0000
0100
0010
0000
,  // measure 10
0201
0000
0000
0000
0310
0000
1000
0000
0001
0000
0010
0001
0000
1000
0010
0000
,  // measure 11
0120
0000
0000
0000
1030
0000
0001
0000
0010
0000
0100
1000
0000
0100
0010
0000
,  // measure 12
0012
0000
0000
0000
1003
0000
0001
0000
0100
0001
0000
0010
0000
0100
1000
0000
,  // measure 13
1100
0000
0000
0000
1010
0000
0010
0000
0100
0001
0000
0010
0000
0001
1000
0000
,  // measure 14
1001
0000
0000
0000
0101
0000
0001
0000
0010
0100
0000
0010
0000
0001
1000
0000
,  // measure 15
0001
0100
0000
1000
0100
0000
1000
0010
0000
0001
0010
0000
0100
0000
1001
0000
,  // measure 16
0010
1000
0010
1000
0100
1000
0001
1000
0001
0010
0001
0010
0100
1000
0100
1000
,  // measure 17
0002
0000
0000
0000
0000
0000
0103
0000
0000
0010
0000
0000
1000
0000
0000
0100
0000
0000
0010
0001
0010
0001
0000
0000
,  // measure 18
1000
0000
0000
0000
0001
0100
0001
0100
0010
0100
0010
1000
0010
1000
0001
1000
,  // measure 19
0001
1000
0001
0010
1000
0010
0001
0100
,  // measure 20
0010
0100
0010
0100
0001
0100
0001
1000
0100
1000
0100
0010
0100
0010
0001
0010
,  // measure 21
0100
0000
0000
1000
0000
0000
0100
0000
0000
0010
0000
0000
0001
0000
0000
0100
0000
0000
0010
0100
0010
0100
0000
0000
,  // measure 22
0001
1000
0001
0010
1000
0010
0001
0100
,  // measure 23
0020
0000
0000
0230
0000
0000
0320
0000
0000
0230
0000
0000
0302
0000
0000
2000
0003
0000
3200
0000
0000
0320
0000
0000
0032
0000
0000
0200
0000
0000
0000
0000
0000
0303
0000
0000
2020
0000
0000
0000
0000
0000
0000
0000
0000
3030
0000
0000
,  // measure 24
0110
0000
0100
0000
0101
0000
0001
0000
0011
0000
0100
1000
0000
0000
0001
0000
,  // measure 25
1010
0000
0010
0000
0110
0000
0100
0000
0101
0000
0001
0010
0000
0000
0100
0000
,  // measure 26
0110
0000
0100
0000
1100
0000
1000
0000
1001
0000
0100
0010
0000
0000
1000
0000
,  // measure 27
0001
0100
0010
1000
0001
0010
0100
1000
0100
1000
0010
0100
0001
0010
0100
1000
,  // measure 28
1001
0000
0001
0000
0011
0000
0001
0000
0101
0000
0010
1000
0000
0000
0100
0000
,  // measure 29
0110
0000
0010
0000
0011
0000
0001
0000
1001
0000
1000
0010
0000
0000
0100
0000
,  // measure 30
0110
0000
0010
0000
1010
0000
1000
0000
1100
0000
0100
0010
0000
0000
0100
0000
,  // measure 31
1000
0100
0010
0100
1000
0010
0100
0001
0020
0000
0000
0000
0230
0000
0000
0000
,  // measure 32
1300
0000
0001
0000
1001
0000
1000
0000
0100
1000
0010
0100
0000
0000
0010
0000
,  // measure 33
0110
0000
0100
0000
0101
0000
0001
0000
0001
0010
0001
0100
0000
0000
0010
0000
,  // measure 34
0110
0000
0100
0000
0101
0000
0001
0000
0010
0001
1000
0010
0000
0000
0100
0000
,  // measure 35
0010
0100
0010
1000
0010
1000
0001
0010
0100
0010
0001
1000
0100
1000
0010
1000
,  // measure 36
0001
0000
0010
0000
0110
0000
0100
0000
0100
1000
0001
0100
0000
0000
0010
0000
,  // measure 37
0110
0000
0100
0000
0101
0000
0001
0000
1000
0001
0010
0001
0000
0000
0010
0000
,  // measure 38
0110
0000
0100
0000
1100
0000
1000
0000
0010
0100
0001
0010
0000
0000
0100
0000
,  // measure 39
0010
0001
1000
0100
0010
0100
1000
0001
0100
0010
1000
0001
0010
0100
1000
0010
,  // measure 40
0100
0000
0000
0001
0000
0000
0010
0000
0000
0000
0000
0000
0100
0000
0000
0010
0000
0000
0000
0000
0000
0001
0000
0000
0100
0000
0000
0000
0000
0000
0010
0000
0000
0100
0000
0000
0001
0000
1000
0000
0001
0000
1000
0000
0000
0001
0000
0000
,  // measure 41
1000
0100
1000
0001
0100
0001
1000
0100
1000
0001
0100
0001
1000
0100
0010
0001
,  // measure 42
1000
0000
0000
0001
0000
0000
0100
0000
0000
0000
0000
0000
0010
0000
0000
1000
0000
0000
0000
0000
0000
0100
0000
0000
0010
0000
0000
0000
0000
0000
0100
0000
0000
1000
0000
0000
0010
0000
0100
0000
0010
0000
0100
0000
0000
0010
0000
0000
,  // measure 43
1000
0001
0010
0001
1000
0010
1000
0001
0010
0001
1000
0010
2000
0000
0000
0000
,  // measure 44
3100
0000
0000
0010
0000
0000
0001
0000
0000
0000
0000
0000
0010
0000
0000
0001
0000
0000
0000
0000
0000
0100
0000
0000
0010
0000
0000
0000
0000
0000
0100
0000
0000
0010
0000
0000
1000
0000
0100
0000
1000
0000
0100
0000
0000
0010
0000
0000
,  // measure 45
0001
0100
0010
0100
0001
0010
0100
1000
0100
0010
0100
1000
0010
0100
0010
1000
,  // measure 46
0001
0000
0000
0010
0000
0000
0001
0000
0000
0000
0000
0000
0010
0000
0000
0001
0000
0000
0000
0000
0000
0100
0000
0000
0010
0000
0000
0000
0000
0000
1000
0000
0000
0001
0000
0000
0010
0000
0100
0000
0010
0000
0100
0000
0000
1000
0000
0000
,  // measure 47
0001
0100
0001
0100
0010
0100
0010
1000
0010
1000
0001
1000
0001
0010
0001
0010
0100
0010
0200
0000
0000
0000
0000
0000
,  // measure 48
2300
0000
0000
0000
3001
0000
0100
0001
0000
0010
0100
0000
1000
0000
0001
0000
,  // measure 49
1000
0000
0000
0000
0000
0000
0001
0000
0100
0000
0001
0000
0100
0000
0000
0010
0000
0000
1000
0000
0000
0001
0000
0000
0000
0000
0000
0010
0000
0000
0000
0000
0000
0100
0000
0000
1000
0000
0000
0000
0000
0000
0001
0000
0000
0000
0000
0000
,  // measure 50
2000
0000
0000
0000
3100
0000
0010
0100
0000
0100
1000
0000
0010
0000
0100
0000
,  // measure 51
0002
0000
0013
0100
0010
0000
0200
0000
1300
0100
0000
0010
0200
0000
0000
0000
,  // measure 52
2300
0000
3020
0000
0130
0000
0010
1000
0000
0001
0010
0000
0100
0000
0010
0000
,  // measure 53
0001
0000
0000
0000
0000
0000
1000
0000
0001
0000
1000
0000
0001
0000
0000
0100
0000
0000
0001
0000
0000
0010
0000
0000
0000
0000
0000
0001
0000
0000
0010
0000
0000
0000
0000
0000
0100
0000
0000
0000
0000
0000
1000
0000
0000
0000
0000
0000
,  // measure 54
0002
0000
0203
0000
0310
0000
0100
0001
0000
0010
0100
0000
1000
0000
0001
0000
,  // measure 55
1000
0000
0000
0000
0010
0000
1000
0000
0010
0000
1000
0000
0010
0000
0000
1000
0000
0000
0010
0000
0000
1000
0000
0000
0000
0000
0000
0001
0000
0000
0010
0000
0000
0000
0000
0000
0100
0000
0000
0000
0000
0000
1000
0000
0000
0000
0000
0000
,  // measure 56
0001
0000
0000
1000
0000
0000
0100
0000
0000
1000
0000
0000
0001
0000
0000
0100
0000
0000
0001
0000
0000
1000
0000
0000
0100
0000
0000
1000
0000
0000
0001
0000
0000
0100
0000
0000
0010
0000
0100
0000
0010
0000
0100
0000
0000
0010
0000
0000
,  // measure 57
1000
0100
0010
0100
1000
0100
0010
0100
1000
0100
0010
0100
1000
0000
0000
0000
,  // measure 58
1000
0000
0000
0001
0000
0000
0010
0000
0000
0001
0000
0000
1000
0000
0000
0010
0000
0000
1000
0000
0000
0001
0000
0000
0010
0000
0000
0001
0000
0000
1000
0000
0000
0010
0000
0000
0100
0000
0010
0000
0100
0000
0010
0000
0000
0100
0000
0000
,  // measure 59
0001
0000
0000
0010
0000
0000
0100
0000
0000
0010
0000
0000
0001
0000
0000
0010
0000
0000
0100
0000
0000
0010
0000
0000
0001
0000
0000
0010
0000
0000
0100
0000
0000
0010
0000
0000
0001
0000
1000
0000
0001
0000
1000
0000
0000
0001
0000
0000
,  // measure 60
1000
0000
0000
0100
0000
0000
0010
0000
0000
0100
0000
0000
1000
0000
0000
0100
0000
0000
0010
0000
0000
0100
0000
0000
1000
0000
0000
0100
0000
0000
0010
0000
0000
0100
0000
0000
1000
0000
0100
0000
1000
0000
0100
0000
0000
0010
0000
0000
,  // measure 61
0001
0100
0010
0100
0001
0010
0001
0100
0010
0100
0001
0010
0100
0000
0000
0000
,  // measure 62
1000
0100
0010
0001
0010
0100
1000
0100
0010
0001
0100
0010
1000
0001
0010
0100
,  // measure 63
2000
3200
2300
3200
0320
0230
2300
3200
2300
3000
2000
3002
0203
0020
0000
0330
,  // measure 64
1000
0010
1000
0010
0100
0001
0100
0001
0010
0001
0010
0001
1000
0100
1000
0100
,  // measure 65
0010
0000
0000
0000
0000
0000
0100
0000
0000
0010
0000
0000
0100
0000
0000
1000
0000
0000
0001
1000
0001
1000
0000
0000
,  // measure 66
0001
0100
0001
0100
0010
0100
0010
1000
0010
1000
0100
1000
0100
0010
0100
0010
,  // measure 67
0001
0000
0000
0010
0001
0100
0001
1000
,  // measure 68
0100
0010
0100
1000
0100
1000
0010
1000
0010
0100
0010
0100
0001
0100
0001
1000
,  // measure 69
0001
0010
1000
0010
0001
0100
0010
1000
,  // measure 70
0100
0010
0100
0010
0001
0010
0001
0100
0001
0100
0010
0100
0010
1000
0010
1000
,  // measure 71
0100
0000
0000
0000
0010
0000
0000
0000
0001
0000
0000
0000
0100
0000
0000
0000
0010
0000
0000
0000
1000
0000
0000
0000
0200
0300
0020
0030
0200
0300
0020
0030
,  // measure 72
0100
0000
0000
0000
;

//---------------dance-single - ----------------
#NOTES:
     dance-single:
     :
     Hard:
     15:
     0.650064,0.691791,0.299776,0.222911,0.576493,592.000000,553.000000,39.000000,29.000000,0.000000,0.000000,0.650064,0.691791,0.299776,0.222911,0.576493,592.000000,553.000000,39.000000,29.000000,0.000000,0.000000:
// measure 0
0000
0000
0000
0000
,  // measure 1
0000
0000
0000
0000
,  // measure 2
0000
0000
0000
0000
,  // measure 3
0000
0000
0000
0000
,  // measure 4
1001
0000
0000
0000
,  // measure 5
1010
0000
0000
0011
0000
0000
1010
0000
,  // measure 6
1001
0000
0000
0000
,  // measure 7
0001
0000
1000
0000
0001
0100
0001
0100
0000
0100
0001
0000
1000
0001
0020
0000
,  // measure 8
0230
0000
0000
0000
0300
0000
0000
0000
1000
0000
0100
1000
0000
1000
0010
0000
,  // measure 9
0200
0000
0000
0000
0300
0000
0000
0000
0010
0000
1000
0001
0000
0001
1000
0000
,  // measure 10
0200
0000
0000
0000
0300
0000
0000
0000
0010
0000
0001
0010
0000
0010
0100
0000
,  // measure 11
0020
0000
0000
0000
0030
0000
0000
0000
0001
0000
0100
0001
0000
0001
1000
0000
,  // measure 12
2100
0000
0000
0000
3010
0000
1000
0000
0010
1000
0000
0100
0000
0010
0001
0000
,  // measure 13
0021
0000
0000
0000
0130
0000
0010
0000
0001
0100
0000
0010
0000
1000
0100
0000
,  // measure 14
1002
0000
1000
0000
1003
0000
0010
0000
1000
0100
0000
0010
0000
0100
1000
0000
,  // measure 15
0001
1000
0000
0001
1000
0000
0001
1000
0000
0001
1000
0000
0001
0000
0110
0000
,  // measure 16
1000
0100
0010
0100
1000
0001
0100
0010
,  // measure 17
0000
0000
0000
0100
0010
1000
0100
0001
,  // measure 18
0000
0000
0100
1000
0010
0100
0001
0010
,  // measure 19
0000
0000
0100
0010
0001
0010
0100
1000
,  // measure 20
0001
0100
0001
1000
0100
0010
0100
1000
,  // measure 21
0001
0100
0001
0010
0100
1000
0100
0010
,  // measure 22
0001
0100
0001
1000
0100
0010
0001
1000
,  // measure 23
0010
1000
0010
1000
0010
0000
0100
0001
0020
0000
0200
0000
0330
0000
0000
0000
,  // measure 24
1001
0000
1000
0000
1001
0000
0001
0000
1001
0000
0010
0100
0000
0000
0100
0000
,  // measure 25
1001
0000
0001
0000
1001
0000
1000
0000
1001
0000
0100
0010
0000
0000
0010
0000
,  // measure 26
1001
0000
1000
0000
1001
0000
0001
0000
1001
0000
0010
0100
0000
0000
0100
0000
,  // measure 27
0001
0010
0100
0000
0010
0000
0001
0000
1000
0100
0010
0000
0100
0000
1000
0000
,  // measure 28
0110
0000
0100
0000
0110
0000
0010
0000
0110
0000
1000
0001
0000
0000
0010
0000
,  // measure 29
0110
0000
0100
0000
0110
0000
0010
0000
0110
0000
0001
1000
0000
0000
0010
0000
,  // measure 30
0110
0000
0100
0000
0110
0000
0010
0000
0110
0000
1000
0001
0000
0000
0010
0000
,  // measure 31
0100
1000
0010
0000
0100
0000
0001
0000
0010
0001
0100
0000
0002
0000
0000
0000
,  // measure 32
0023
0000
0000
0000
0130
0000
1000
0000
0001
1000
0001
0010
0000
0000
0100
0000
,  // measure 33
2100
0000
0000
0000
3010
0000
0100
0000
0001
0010
0001
1000
0000
0000
0100
0000
,  // measure 34
1200
0000
0000
0000
0310
0000
0100
0000
1000
0010
1000
0100
0000
0000
0010
0000
,  // measure 35
0100
1000
0010
0000
0100
0000
0001
0000
0010
0100
1000
0000
0100
0000
0010
0000
,  // measure 36
0021
0000
0000
0000
0130
0000
1000
0000
0010
1000
0010
0100
0000
0000
0001
0000
,  // measure 37
0021
0000
0000
0000
0130
0000
1000
0000
0001
0100
0001
0010
0000
0000
0100
0000
,  // measure 38
0120
0000
0000
0000
0031
0000
0010
0000
0001
0100
0001
1000
0000
0000
0001
0000
,  // measure 39
1000
0100
0010
0000
0100
0000
1000
0000
0001
0010
0100
0000
2000
0000
0000
0000
,  // measure 40
3010
0000
1000
0000
0000
0001
0000
0000
0010
0000
0000
0100
0010
0001
1000
0010
,  // measure 41
0000
0000
0100
0010
0000
0100
0010
0000
0100
0010
0000
0100
0010
0000
1000
0000
,  // measure 42
0001
0000
0010
0000
0000
0001
0000
0000
1000
0000
0000
0010
1000
0001
0010
0100
,  // measure 43
1000
0000
0100
0010
0000
0100
0010
0000
0100
0010
0000
0100
2000
0000
0000
0000
,  // measure 44
3001
0000
1000
0000
0000
0100
0000
0000
1000
0000
0000
0010
0100
0001
0010
0001
,  // measure 45
1000
0000
0001
0100
0000
0001
0100
0000
0001
0100
0000
0001
0100
0000
0010
0000
,  // measure 46
1000
0100
0000
0010
0001
0000
0100
0010
0000
1000
0001
0000
0010
0000
0100
0000
,  // measure 47
1000
0001
1000
0001
1000
0001
1000
0001
1000
0001
1000
0001
1000
0000
0000
0000
,  // measure 48
0201
0000
0000
0000
0310
0000
1000
0100
0000
0010
0100
0000
1000
0000
0000
0000
,  // measure 49
0000
0000
1000
0100
0010
0100
1000
0001
0000
0010
0100
0000
1000
0000
0001
0000
,  // measure 50
2001
0000
0000
0000
3010
0000
1000
0001
0000
0010
0100
0000
1000
0000
0000
0000
,  // measure 51
2100
0000
3010
0102
0000
0013
2100
0000
,  // measure 52
3001
0000
0200
0000
0310
0000
1000
0001
0000
0010
0100
0000
0010
0000
0000
0000
,  // measure 53
0000
0000
0100
0010
0001
1000
0010
0100
0000
0001
0010
0000
0100
0000
0010
0000
,  // measure 54
2001
0000
3020
0000
0130
0000
0010
1000
0000
0001
0010
0000
0100
0000
0000
0000
,  // measure 55
0000
0000
0010
0001
0100
0001
0010
0100
0000
0010
0001
0000
1000
0000
0000
0000
,  // measure 56
0000
0000
0001
0000
1000
0100
0000
0001
0100
0000
1000
0100
0010
0100
1000
0001
,  // measure 57
0000
0000
0100
0010
0000
0100
0001
0000
0100
0010
0000
0000
1000
0000
0001
0000
,  // measure 58
0010
0000
0100
0000
1000
0001
0000
0010
0001
0000
1000
0001
0010
0100
0010
0001
,  // measure 59
0000
0000
1000
0010
0000
0100
0001
0000
1000
0010
0000
0100
0010
1000
0001
0010
,  // measure 60
0000
0000
0100
1000
0000
0100
0010
0000
0100
1000
0000
0100
0010
0100
1000
0001
,  // measure 61
0000
1000
0010
0000
0100
0010
0000
1000
0010
0000
0100
0001
0000
0010
0100
0000
,  // measure 62
1000
0000
0100
0000
0010
0100
0000
0010
0001
0000
0010
0100
0000
0100
1000
0000
,  // measure 63
0001
1000
0100
1000
0001
0100
0001
1000
0100
0000
0010
0100
2000
0002
0000
3003
,  // measure 64
0110
0001
1000
0100
0010
0100
1000
0001
,  // measure 65
0000
0000
0000
0100
0001
0010
1000
0010
,  // measure 66
0000
0000
0001
0010
0001
1000
0100
0010
,  // measure 67
0000
0000
0100
0010
0100
1000
0001
0100
,  // measure 68
0000
0000
0010
1000
0001
0010
0100
1000
,  // measure 69
0100
1000
0010
1000
0001
0010
0100
0010
,  // measure 70
0001
0100
0010
1000
0001
0010
0100
0010
,  // measure 71
0001
0000
1000
0000
0100
0000
0010
0000
0001
0000
0010
0000
0100
1000
0100
1000
,  // measure 72
0010
0000
0000
0000
;

//---------------dance-single - ----------------
#NOTES:
     dance-single:
     :
     Easy:
     7:
     0.251461,0.387403,0.122985,0.207537,0.000000,229.000000,213.000000,16.000000,27.000000,0.000000,0.000000,0.251461,0.387403,0.122985,0.207537,0.000000,229.000000,213.000000,16.000000,27.000000,0.000000,0.000000:
// measure 0
0000
0000
0000
0000
,  // measure 1
0000
0000
0000
0000
,  // measure 2
0000
0000
0000
0000
,  // measure 3
0000
0000
0000
0000
,  // measure 4
1000
0000
0000
0000
,  // measure 5
1000
0000
0000
1000
0000
0000
1000
0000
,  // measure 6
0001
0000
0000
0000
,  // measure 7
0220
0000
0000
0330
,  // measure 8
1001
0000
0001
1000
,  // measure 9
1010
0000
1000
0001
,  // measure 10
0011
0000
0001
1000
,  // measure 11
1100
0000
1000
0001
,  // measure 12
0101
0011
0001
0100
,  // measure 13
0110
1010
0010
0100
,  // measure 14
0101
0011
0001
0100
,  // measure 15
0020
0000
0000
0030
,  // measure 16
1000
0100
0010
0001
,  // measure 17
0000
0000
1000
0001
,  // measure 18
0000
0100
0010
1000
,  // measure 19
0001
0010
0100
0010
,  // measure 20
0001
0010
0100
1000
,  // measure 21
0100
1000
0001
0100
,  // measure 22
0010
0100
0001
1000
,  // measure 23
0102
0013
2100
3010
,  // measure 24
0001
1000
0020
1030
,  // measure 25
0100
0010
0002
1003
,  // measure 26
0100
1000
0020
1030
,  // measure 27
0002
0103
2000
3100
,  // measure 28
0010
0100
2000
3010
,  // measure 29
0100
0001
0020
0130
,  // measure 30
0010
0001
2000
3100
,  // measure 31
1000
0010
0100
0002
,  // measure 32
0013
0100
1000
0100
,  // measure 33
1000
0010
0100
0001
,  // measure 34
0010
0100
0010
0001
,  // measure 35
1000
0001
0100
0010
,  // measure 36
1000
0001
0010
0001
,  // measure 37
1000
0100
0010
0100
,  // measure 38
1000
0010
0100
0001
,  // measure 39
0010
0100
0010
0001
,  // measure 40
2000
0000
0000
3000
,  // measure 41
0002
0000
0000
0003
,  // measure 42
0200
0000
0000
0300
,  // measure 43
0020
0000
0000
0030
,  // measure 44
2000
0000
0000
3000
,  // measure 45
0200
0000
0000
0300
,  // measure 46
0020
0000
0000
0030
,  // measure 47
0022
0000
0000
0033
,  // measure 48
1100
0100
1000
0010
,  // measure 49
0000
0010
1000
0001
,  // measure 50
1000
0100
1000
0010
,  // measure 51
0100
0000
0000
0010
0000
0000
1000
0000
,  // measure 52
0001
1000
0001
0000
1000
0000
0100
0000
,  // measure 53
0000
0010
0100
1000
,  // measure 54
0001
0100
0001
0000
0100
0000
0001
0000
,  // measure 55
1000
0100
0010
0001
,  // measure 56
1100
0000
0010
0000
,  // measure 57
1000
0000
0001
0000
,  // measure 58
0010
0000
0001
0000
,  // measure 59
1000
0000
0100
0000
,  // measure 60
1000
0000
0010
0000
,  // measure 61
0100
0000
0001
0000
,  // measure 62
1000
0100
0010
0001
,  // measure 63
2000
3002
0203
0320
,  // measure 64
1030
0010
0001
0010
,  // measure 65
0000
0000
0100
0001
,  // measure 66
0000
0010
0001
1000
,  // measure 67
0000
0100
1000
0010
,  // measure 68
0100
0001
1000
0100
,  // measure 69
0010
0100
1000
0010
,  // measure 70
0100
0010
1000
0001
,  // measure 71
0010
0000
0100
0000
1000
0000
0001
0001
,  // measure 72
0001
0000
0000
0000
;

//---------------dance-single - ----------------
#NOTES:
     dance-single:
     :
     Medium:
     12:
     0.460096,0.525761,0.169105,0.092239,0.245970,419.000000,397.000000,22.000000,12.000000,0.000000,0.000000,0.460096,0.525761,0.169105,0.092239,0.245970,419.000000,397.000000,22.000000,12.000000,0.000000,0.000000:
// measure 0
0000
0000
0000
0000
,  // measure 1
0000
0000
0000
0000
,  // measure 2
0000
0000
0000
0000
,  // measure 3
0000
0000
0000
0000
,  // measure 4
1001
0000
0000
0000
,  // measure 5
0011
0000
0000
1100
0000
0000
0011
0000
,  // measure 6
1001
0000
0000
0000
,  // measure 7
1000
0000
0000
0000
0001
0000
0000
0100
0000
0000
0001
0000
0010
0001
1000
0000
,  // measure 8
1100
0000
0000
0000
0000
0000
0000
0000
0100
0000
0000
1000
0000
0000
0010
0000
,  // measure 9
0100
0000
0000
0000
0000
0000
0000
0000
0010
0000
0000
1000
0000
0000
0001
0000
,  // measure 10
0010
0000
0000
0000
0000
0000
0000
0000
0100
0000
0000
0010
0000
0000
0001
0000
,  // measure 11
1000
0000
0000
0000
0000
0000
0000
0000
0001
0000
0000
0100
0000
0000
0001
0000
,  // measure 12
1001
0000
0000
0000
0110
0000
0000
0000
0001
0100
0000
0010
0000
0000
0000
0000
,  // measure 13
0100
0000
0000
0000
1010
0000
0000
0000
1000
0100
0000
0010
0000
0000
0000
0000
,  // measure 14
0100
0000
0000
0000
1100
0000
0000
0000
1000
0010
0000
0100
0000
0000
0000
0000
,  // measure 15
0010
0000
0000
0010
0000
0000
0010
0000
0000
0010
0000
0000
0010
0000
0100
0000
,  // measure 16
0001
0100
0010
1000
0100
0010
0100
1000
,  // measure 17
0000
0000
0000
0001
0100
1000
0100
0001
,  // measure 18
0000
0000
1000
0010
1000
0001
0010
0100
,  // measure 19
0000
0000
0010
0001
1000
0100
0010
0001
,  // measure 20
0000
0000
0010
0001
1000
0010
1000
0001
,  // measure 21
1000
0100
0010
0100
1000
0001
0010
0100
,  // measure 22
1000
0100
0010
0100
1000
0010
0100
0001
,  // measure 23
2000
3100
0002
0103
2000
3010
0100
0000
,  // measure 24
0001
0000
0100
0000
0010
0000
1000
0000
0001
0000
1000
0010
0000
0000
0000
0000
,  // measure 25
1000
0000
0100
0000
0010
0000
0001
0000
1000
0000
0100
0010
0000
0000
0000
0000
,  // measure 26
0100
0000
1000
0000
0010
0000
0100
0000
0001
0000
1000
0001
0000
0000
0000
0000
,  // measure 27
1000
0000
0100
0000
0001
0000
0100
0000
1000
0000
0010
0100
0000
0000
0000
0000
,  // measure 28
0001
0000
0100
0000
0010
0000
1000
0000
0100
0000
0010
0001
0000
0000
0000
0000
,  // measure 29
0010
0000
0100
0000
1000
0000
0010
0000
0100
0000
0001
1000
0000
0000
0000
0000
,  // measure 30
0001
0000
0010
0000
0001
0000
1000
0000
0100
0000
0010
0100
0000
0000
0000
0000
,  // measure 31
0010
0001
0100
1000
0100
0010
1000
0000
,  // measure 32
0010
0000
0000
0000
1000
0000
0000
0000
0001
0000
0000
1000
0000
0000
0100
0000
,  // measure 33
1000
0000
0000
0000
0010
0000
0000
0000
0100
0000
0000
0010
0000
0000
1000
0000
,  // measure 34
0100
0000
0000
0000
1000
0000
0000
0000
0010
0000
0000
0100
0000
0000
0010
0000
,  // measure 35
1000
0010
0100
0001
0010
1000
0010
0001
,  // measure 36
1000
0000
0000
0000
0001
0000
0000
0000
0010
0000
0000
0001
0000
0000
0100
0000
,  // measure 37
0001
0000
0000
0000
1000
0000
0000
0000
0100
0000
0000
1000
0000
0000
0010
0000
,  // measure 38
0100
0000
0000
0000
0010
0000
0000
0000
1000
0000
0000
0010
0000
0000
0100
0000
,  // measure 39
0010
0100
0001
1000
0010
0100
0001
0000
,  // measure 40
0000
0000
1000
0000
0000
0001
0000
0000
0010
0000
0000
0100
0010
0000
0001
0000
,  // measure 41
0000
0000
1000
0000
0000
0001
0000
0000
0010
0000
0000
0100
0000
0000
0000
0000
,  // measure 42
0000
0000
0010
0000
0000
0100
0000
0000
1000
0000
0000
0010
1000
0000
0001
0000
,  // measure 43
0000
0000
0010
0000
0000
0001
0000
0000
1000
0000
0000
0000
1020
0000
0000
0000
,  // measure 44
1030
0000
0100
0000
0000
0010
0000
0000
0001
0000
0000
1000
0100
0000
0010
0000
,  // measure 45
0000
0000
0100
0000
0000
0010
0000
0000
0100
0000
0000
1000
0000
0000
0010
0000
,  // measure 46
0200
0302
0023
0230
,  // measure 47
1300
0000
0100
0000
0010
0000
0001
0000
1000
0001
1000
0001
1000
0000
0000
0000
,  // measure 48
0101
0000
0000
0000
0001
0000
0000
0100
0000
0000
0010
0000
1000
0000
0000
0000
,  // measure 49
1100
0000
1000
0000
0100
0000
0000
0010
0000
0000
0001
0000
1000
0000
0000
0000
,  // measure 50
0011
0000
0000
0000
0010
0000
0000
0100
0000
0000
1000
0000
0100
0000
0000
0000
,  // measure 51
1100
0000
0001
0101
0000
1000
1100
0000
,  // measure 52
1001
0000
1001
0000
0001
0000
0000
0100
0000
0000
0010
0000
1000
0000
0000
0000
,  // measure 53
1010
0000
0010
0000
0100
0000
0000
0001
0000
0000
0010
0000
0100
0000
0000
0000
,  // measure 54
1001
0000
0101
0000
0001
0000
0000
0100
0000
0000
0001
0000
0010
0000
0000
0000
,  // measure 55
0000
0000
0100
0000
0000
0010
0000
0000
0001
0000
1000
0000
0100
0000
0000
0000
,  // measure 56
0000
0000
1000
0000
0000
0010
0000
0000
0100
0000
0000
0010
1000
0000
0001
0000
,  // measure 57
0000
0000
1000
0000
0000
1000
0000
0000
1000
0000
0000
1000
0000
0000
0000
0000
,  // measure 58
0000
0000
0001
0000
0000
0010
0000
0000
0100
0000
0000
0010
0001
0000
0100
0000
,  // measure 59
0000
0000
0010
0000
0000
0010
0000
0000
0010
0000
0000
0100
0010
0000
1000
0000
,  // measure 60
0000
0000
0100
0000
0000
0010
0000
0000
0001
0000
0000
1000
0010
0000
1000
0000
,  // measure 61
0000
0000
0100
0000
0000
0100
0000
0000
0100
0000
0000
0100
0000
0000
0010
0000
,  // measure 62
0000
0000
0001
0000
0000
0010
0000
0000
0100
0000
0000
1000
0100
0000
0010
0000
,  // measure 63
0002
0000
0103
0000
2000
0000
3100
0000
2000
0000
3010
0000
0100
0002
0000
0000
,  // measure 64
0013
0000
0100
0010
0001
0010
0100
1000
,  // measure 65
0000
0000
0000
1000
0100
0001
0100
1000
,  // measure 66
0000
0000
0001
1000
0010
1000
0001
1000
,  // measure 67
0000
0000
0001
0010
0001
1000
0100
0010
,  // measure 68
0000
0000
0100
1000
0010
0100
0001
0010
,  // measure 69
0100
1000
0100
0010
0100
1000
0001
0010
,  // measure 70
0100
1000
0100
0001
0100
1000
0010
0001
,  // measure 71
0010
0000
1000
0000
0010
0000
0100
0000
0001
0000
1000
0000
0001
1000
0001
1000
,  // measure 72
0001
0000
0000
0000
;

//---------------dance-single - ----------------
#NOTES:
     dance-single:
     :
     Beginner:
     4:
     0.143849,0.249045,0.092239,0.069179,0.000000,131.000000,119.000000,12.000000,9.000000,0.000000,0.000000,0.143849,0.249045,0.092239,0.069179,0.000000,131.000000,119.000000,12.000000,9.000000,0.000000,0.000000:
// measure 0
0000
0000
0000
0000
,  // measure 1
0000
0000
0000
0000
,  // measure 2
0000
0000
0000
0000
,  // measure 3
0000
0000
0000
0000
,  // measure 4
0000
0000
0000
0000
,  // measure 5
0000
0000
0000
0000
,  // measure 6
0000
0000
0000
0000
,  // measure 7
0110
0000
0000
0000
,  // measure 8
1000
0000
0001
1000
,  // measure 9
0001
0000
1000
0001
,  // measure 10
1000
0000
0001
1000
,  // measure 11
0001
0000
1000
0001
,  // measure 12
0100
0000
0010
0000
,  // measure 13
1000
0000
0100
0000
,  // measure 14
1000
0000
0010
0000
,  // measure 15
0100
0000
0000
0000
,  // measure 16
0010
0000
1000
0000
,  // measure 17
0000
0000
0001
1000
,  // measure 18
0000
0100
0000
0010
,  // measure 19
0000
0100
0010
0001
,  // measure 20
0000
1000
0000
0001
,  // measure 21
0000
0100
0000
0010
,  // measure 22
1000
0000
0100
0000
,  // measure 23
0010
0100
0010
0100
,  // measure 24
1001
0000
0000
0000
,  // measure 25
0110
0000
0000
0000
,  // measure 26
1001
0000
0000
0000
,  // measure 27
0110
0000
0000
0000
,  // measure 28
0101
0000
0000
0000
,  // measure 29
1010
0000
0000
0000
,  // measure 30
0101
0000
0000
0000
,  // measure 31
1010
0000
0000
0000
,  // measure 32
1000
0000
0001
0000
,  // measure 33
0010
0000
0001
0000
,  // measure 34
0100
0000
0010
0000
,  // measure 35
1000
0100
0010
0000
,  // measure 36
0100
0000
1000
0000
,  // measure 37
0010
0000
1000
0000
,  // measure 38
0001
0000
0010
0000
,  // measure 39
0100
0010
0001
0000
,  // measure 40
0200
0000
0000
0300
,  // measure 41
0010
0000
0000
0000
,  // measure 42
2000
0000
0000
3000
,  // measure 43
0001
0000
0010
0000
,  // measure 44
0200
0000
0000
0300
,  // measure 45
0010
0000
0000
0000
,  // measure 46
0001
0000
1000
0000
,  // measure 47
0020
0000
0000
0030
,  // measure 48
0110
0100
0000
0000
,  // measure 49
0000
0010
0000
0000
,  // measure 50
1000
0001
0000
0000
,  // measure 51
0010
0000
0001
0000
,  // measure 52
1000
0001
0000
0000
,  // measure 53
0100
0000
0000
0000
,  // measure 54
0010
0000
0000
0000
,  // measure 55
1000
0000
0000
0000
,  // measure 56
0002
0000
0000
0003
,  // measure 57
1000
0000
0000
0000
,  // measure 58
0020
0000
0000
0030
,  // measure 59
0100
0000
0000
0010
,  // measure 60
2000
0000
0000
3000
,  // measure 61
0100
0000
0000
0000
,  // measure 62
0020
0000
0000
0030
,  // measure 63
0001
1000
0001
0110
,  // measure 64
1001
0000
0001
0000
,  // measure 65
0010
0000
0100
0100
,  // measure 66
0000
0010
0000
0001
,  // measure 67
0000
1000
0100
1000
,  // measure 68
0000
0100
0000
1000
,  // measure 69
0010
0000
0100
0000
,  // measure 70
0001
1000
0100
0000
,  // measure 71
0010
0000
0001
0200
,  // measure 72
0300
0000
0000
0000
;
