#TITLE:Riddle;
#SUBTITLE:;
#ARTIST:Bad Computer;
#TITLETRANSLIT:;
#SUBTITLETRANSLIT:;
#ARTISTTRANSLIT:;
#GENRE:ELECTRO;
#CREDIT:;
#BANNER:Riddle.png;
#BACKGROUND:Riddle-bg.png;
#LYRICSPATH:;
#CDTITLE:CDTitle.png;
#MUSIC:Riddle.ogg;
#OFFSET:1.737000;
#SAMPLESTART:37.637997;
#SAMPLELENGTH:15.000000;
#LASTBEATHINT:1.572267;
#SELECTABLE:YES;
#BPMS:0.000000=128.000000
;
#STOPS:
;
#BGCHANGES:;
#KEYSOUNDS:;
#ATTACKS:;

//---------------dance-single - ----------------
#NOTES:
     dance-single:
     :
     Hard:
     13:
     0.505210,0.620083,0.174640,0.139712,0.244497,405.000000,385.000000,20.000000,16.000000,0.000000,0.000000,0.505210,0.620083,0.174640,0.139712,0.244497,405.000000,385.000000,20.000000,16.000000,0.000000,0.000000:
0000
0000
0000
0000
,
0000
0000
0000
0000
,
0000
0000
0000
0000
,
1002
0000
0013
0010
0100
1000
0001
0100
,
0000
0010
1000
1000
0001
0010
0001
1000
,
0010
1010
0010
0011
,
0100
0101
0100
1100
,
0002
0000
0103
0100
0010
1000
0001
0100
,
0000
0000
0000
0100
0000
0000
0000
0000
0100
0010
0000
0000
1000
0000
0000
0100
0000
0000
1000
0000
0000
0001
0000
0000
,
0100
0101
0100
1100
,
0010
1010
0010
0011
,
2000
0000
0000
0000
,
0000
0000
0000
0000
,
3000
0000
0001
0001
1000
0100
0010
0100
,
0000
0010
0001
0001
1000
0001
2000
3020
,
0030
0100
0001
0001
,
0000
1000
0100
0100
,
0000
0000
0010
0010
0100
1000
0001
0100
,
0000
0000
0000
0100
0000
0000
0000
0000
0100
0010
0000
0000
1000
0000
0000
0001
0000
0000
0100
0000
0000
0001
0000
0000
,
0011
0000
0000
0000
0010
0000
0100
0000
0000
0000
0100
0000
1000
0000
0000
0000
0000
0000
0001
0000
0000
1000
0000
0000
0001
0000
0000
0000
0000
0000
0100
0000
0000
0000
0000
0000
0010
0000
0000
1000
0000
0000
0010
0000
0000
1000
0000
0000
,
0000
0001
0000
0010
0100
0000
0000
0100
0000
0000
0100
0000
0010
0000
0001
0000
,
2001
0000
3010
0010
1000
0010
1000
0100
,
0000
0010
0001
0001
1000
0001
0020
0230
,
1300
0000
0000
0000
0000
0001
0010
0000
0000
0110
0000
0000
0000
0000
1100
0000
0000
0000
1001
0000
0000
0001
0000
0000
,
0100
0000
0000
0000
0000
0010
1000
0000
0000
1100
0000
0000
0000
0000
0110
0000
0000
0000
0011
0000
0000
0001
0000
0000
,
0201
0000
0301
0001
0010
0001
1000
0001
,
0000
0000
0000
0001
0000
0000
0000
0000
1000
0001
0000
0000
0100
0000
0000
0010
0000
0000
1000
0000
0000
0010
0000
0000
,
0200
0000
0000
0000
,
0000
0000
0000
0300
,
0001
0000
0000
0001
0000
0000
1000
0000
0001
0000
0100
0000
0000
0000
0000
0000
,
0010
0000
0000
0100
0000
0000
0000
0000
0000
0001
0000
0000
0000
0000
0000
0000
1000
0000
0100
0000
0000
0000
0000
0000
0010
0000
0000
0000
0000
0000
0100
0000
0000
0000
0000
0000
0000
0000
0000
0000
0000
0000
0000
0000
0000
0000
0000
0000
,
0000
0000
0000
0000
,
0000
0000
0000
0000
0000
0000
0000
0000
0000
0000
0000
0000
0010
0000
0001
0010
0000
0010
0100
0000
0100
1000
0000
1000
,
0010
0000
0000
1000
0000
0000
1000
0000
0010
0000
0100
0000
0000
0000
0000
0000
,
0000
0000
0010
0100
0000
0010
0000
0000
1000
0001
0000
0001
0010
0000
0000
0100
0000
0000
1000
0000
0000
0100
0000
0000
,
0000
0000
0000
0000
,
0000
0000
0000
0000
,
1001
0000
0000
0000
0000
0001
0010
0000
0010
0100
0000
0100
0010
0000
0000
0001
0000
0000
0000
0000
0000
0100
0000
0000
,
0010
0000
0000
1000
0000
0000
0000
0000
0000
0001
0000
0000
0000
0000
0000
0000
0010
0000
0100
0000
0000
0000
0100
0000
1000
0000
0000
0000
0000
0000
0010
0000
0000
0000
0000
0000
0100
0000
0000
0000
0000
0000
0001
0000
0000
0000
0000
0000
,
1000
0100
1000
0001
0100
0001
1000
0001
,
0010
0000
0000
0100
0000
0010
0000
0000
0100
1000
0000
0100
0000
0000
1000
0001
0000
0100
0000
0000
0010
1000
0000
0000
,
0001
0000
1000
0001
0010
0001
1000
0000
,
0001
0000
0100
0001
0000
0001
0010
0000
0000
0100
0000
0000
0010
0000
0000
0001
0000
0000
1000
0000
0000
0000
0000
0000
,
0010
0000
0100
0001
0010
1000
0000
0000
,
0000
0000
0010
0001
0000
1000
0100
0000
0000
0010
0000
0000
0100
0000
0000
1000
0000
0000
0001
0000
0000
0100
0000
0000
,
0001
0000
1000
0001
0000
0000
0001
0000
1000
0001
0000
0000
0001
0000
1000
0001
0000
0000
0001
0000
1000
0001
0000
0000
,
1000
0000
0000
0010
0000
0000
1000
0000
0000
0010
0000
0100
0001
0000
0000
0010
0000
0000
0001
0000
0000
0010
0000
0000
,
0100
0000
0000
1000
0000
0000
0100
0000
0000
1000
0000
0100
0010
0000
0000
0001
0000
0000
0010
0000
0000
0001
0000
0000
,
0100
0000
0000
0010
0000
0000
0100
0000
0000
0010
0000
1000
0100
0000
0000
0010
0000
0000
0100
0000
0000
0010
0000
0000
,
0002
0103
0020
1030
0002
1003
0020
0130
,
0101
0000
0000
0000
0000
0000
1000
0000
0100
0010
0000
0000
0001
0000
0000
0010
0000
0000
0001
0000
0000
0010
0000
0000
,
0100
0000
0000
1000
0000
0000
0100
0000
0000
1000
0000
0001
0100
0000
0000
0001
0000
0000
0100
0000
0000
0001
0000
0000
,
1000
0000
0000
0001
0000
0000
1000
0000
0000
0001
0000
1000
0100
0000
0000
0010
0000
0000
0100
0000
0000
0010
0000
0000
,
0000
0000
0000
0010
0000
0000
0000
0000
0010
0100
0000
0000
0010
0000
0000
0010
0000
0000
0001
0000
0000
1000
0000
0000
,
0001
1000
0100
1000
0001
0010
0100
1000
,
0010
0100
0010
0100
0001
0010
0100
0100
,
0010
0001
0100
0001
1000
0100
0010
0001
,
1000
0001
0100
0001
0010
0100
2000
3002
,
0103
0001
0100
0001
1000
0010
1000
0010
,
1000
0100
1000
0100
0010
0001
0010
0001
,
1000
0001
0100
0001
1000
0100
1000
0001
,
1000
0100
0001
0100
1000
0010
0100
0000
;

//---------------dance-single - ----------------
#NOTES:
     dance-single:
     :
     Easy:
     5:
     0.197094,0.350482,0.043660,0.096052,0.000000,158.000000,153.000000,5.000000,11.000000,0.000000,0.000000,0.197094,0.350482,0.043660,0.096052,0.000000,158.000000,153.000000,5.000000,11.000000,0.000000,0.000000:
0000
0000
0000
0000
,
0000
0000
0000
0000
,
0000
0000
0000
0000
,
0020
1030
0001
0010
,
0001
1000
0100
0010
,
0100
1000
0000
1000
,
0000
1000
0000
2000
,
3020
0130
0010
1000
,
0000
0010
1000
1000
,
0002
0000
2003
0000
,
3020
0000
0230
0000
,
0000
0000
0000
0000
,
0000
0000
0000
0000
,
0300
0010
0010
0010
,
0000
1000
1000
0001
,
0000
0000
0000
0000
,
0000
0000
0000
0000
,
0000
0100
0100
0100
,
0000
0010
1000
0001
,
1001
0000
0000
0000
,
0000
0000
0000
0000
,
0002
0013
0001
1000
,
0100
1000
0010
0100
,
0001
0000
1000
0000
,
0010
0000
1000
0000
,
0200
1300
0100
0010
,
0000
0100
0010
0001
,
1000
0000
0000
0000
,
0000
0000
0000
0010
,
0100
0000
0010
0000
,
1000
0000
0000
0000
,
0000
0000
0000
0000
,
0000
0000
0001
1000
,
0010
0000
1000
0000
,
0100
0000
1000
0001
,
0000
0000
0000
0000
,
0000
0000
0000
0000
,
0100
0010
1000
0001
,
0010
0100
0010
0001
,
0001
1000
1000
0001
,
1000
0001
0100
0001
,
0010
0100
1000
0000
,
0000
0100
1000
0000
,
0000
0010
0100
0000
,
0000
0010
0100
0001
,
1001
1001
1001
1001
,
0010
1000
0010
1000
,
0001
0100
0001
0100
,
0001
0010
0001
0010
,
0200
0000
0000
0000
,
0300
1000
0100
1000
,
0100
0010
0100
0010
,
0001
0010
0001
0010
,
0001
0001
0001
0001
,
1000
0100
0010
0001
,
1000
0100
0010
0000
,
0100
1000
0010
0100
,
0001
0100
0010
0000
,
0100
0001
0010
0001
,
1000
0100
1000
0010
,
0100
0010
1000
0001
,
2000
0000
0000
3000
;

//---------------dance-single - ----------------
#NOTES:
     dance-single:
     :
     Medium:
     8:
     0.318095,0.458322,0.122248,0.130980,0.000000,255.000000,241.000000,14.000000,15.000000,0.000000,0.000000,0.318095,0.458322,0.122248,0.130980,0.000000,255.000000,241.000000,14.000000,15.000000,0.000000,0.000000:
0000
0000
0000
0000
,
0000
0000
0000
0000
,
0000
0000
0000
0000
,
1002
0013
0100
0010
,
0001
0000
0100
0000
0010
0000
1000
0001
,
0010
0110
0100
1100
,
1000
1010
0010
0210
,
0302
0013
0100
0010
,
0000
0001
0000
1000
0001
0010
0100
1000
,
0200
1300
2000
3010
,
0020
0130
0200
0302
,
0023
0000
0000
0000
,
0000
0000
0000
0000
,
0030
0100
1000
0010
,
0000
0000
0100
0000
0001
0000
1000
0001
,
0000
0000
0000
0000
,
0000
0000
0000
0000
,
0000
0010
0100
0010
,
0000
0100
0000
1000
0100
0010
0001
1000
,
1010
0000
0000
0000
,
0000
0000
0000
0000
,
0102
0000
0013
0000
0100
0000
0010
0001
,
0000
1000
0001
1000
0001
0010
0100
1000
,
0100
0000
0110
0000
0010
0001
0100
0000
,
0010
0000
0110
0000
0010
1000
0100
0000
,
0020
0000
0130
0000
1000
0000
0010
0100
,
0000
0010
0000
0100
0001
0010
0001
1000
,
0200
0000
0000
0000
,
0000
0000
0000
0000
0000
0000
0310
0010
,
0001
0000
1000
0000
,
0001
0000
1000
0000
0010
0100
0000
0000
,
0000
0000
0000
0000
,
0000
0000
0000
0000
0010
0100
0001
1000
,
0100
1000
0010
0000
,
0100
0000
0000
0000
0010
1000
0010
0100
,
0000
0000
0000
0000
,
0000
0000
0000
0000
,
0010
0000
1000
0001
0010
0000
0100
0000
,
0010
0001
0100
0000
0010
0000
1000
0001
,
0010
0001
1000
0010
1000
0001
0010
0100
,
1000
0100
1000
0010
,
0100
0000
0010
0010
1000
0001
0000
0000
,
0000
1000
1000
0001
0010
0100
0000
0000
,
0000
0000
0010
0100
0010
0001
0000
0000
,
0000
1000
0001
0100
0010
1000
0100
1000
,
1001
1001
1001
1001
,
0001
0100
0010
1000
0001
0100
0010
0000
,
1000
0100
0010
0001
0010
0100
1000
0000
,
0001
0010
0001
0100
0001
1000
0001
0000
,
0100
0100
0100
0100
,
1001
0000
1000
0010
0100
0010
1000
0000
,
0010
0100
0001
0010
0100
1000
0001
0000
,
1000
0001
0010
0001
0100
0010
1000
0000
,
0000
0001
0000
0001
0010
0100
1000
0000
,
0001
0001
0001
0001
,
0001
0000
0001
0000
0001
0000
1000
0001
,
0100
0100
0100
0100
,
0100
0000
0100
0000
0100
0010
1000
0100
,
0010
0010
0010
0010
,
0010
0000
0010
0000
0010
0000
0100
1000
,
0010
0010
0010
0010
,
0200
0302
0023
0130
;

//---------------dance-single - ----------------
#NOTES:
     dance-single:
     :
     Beginner:
     3:
     0.091063,0.215681,0.017464,0.034928,0.000000,73.000000,71.000000,2.000000,4.000000,0.000000,0.000000,0.091063,0.215681,0.017464,0.034928,0.000000,73.000000,71.000000,2.000000,4.000000,0.000000,0.000000:
// measure 0
0000
0000
0000
0000
,  // measure 1
0000
0000
0000
0000
,  // measure 2
0000
0000
0000
0000
,  // measure 3
1000
0001
0000
0000
,  // measure 4
0000
1000
0000
0000
,  // measure 5
0000
0000
0000
0000
,  // measure 6
0000
0000
0000
0010
,  // measure 7
0100
0001
0000
0000
,  // measure 8
0010
0000
0000
0000
,  // measure 9
0100
0000
0000
0000
,  // measure 10
1000
0000
0000
0000
,  // measure 11
0000
0000
0000
0000
,  // measure 12
0000
0000
0000
0000
,  // measure 13
0000
0020
0000
0000
,  // measure 14
0000
0000
0000
0000
,  // measure 15
0030
0000
0000
0000
,  // measure 16
0000
0000
0000
0000
,  // measure 17
0000
0200
0000
0000
,  // measure 18
0000
0000
0000
0300
,  // measure 19
1001
0000
0000
0000
,  // measure 20
0000
0000
0000
0000
,  // measure 21
0001
0010
0000
0000
,  // measure 22
0000
0100
0000
0000
,  // measure 23
1000
0000
0000
0000
,  // measure 24
0010
0000
0000
0000
,  // measure 25
0100
0001
0000
0000
,  // measure 26
0010
0000
0000
0000
,  // measure 27
0100
0000
0000
0000
,  // measure 28
0000
0000
0000
0010
,  // measure 29
0001
0000
0000
0000
,  // measure 30
1000
0000
0000
0000
,  // measure 31
0000
0000
0000
0000
,  // measure 32
0000
0000
0010
1000
,  // measure 33
0001
0000
0000
0000
,  // measure 34
0010
0000
0000
0000
,  // measure 35
0000
0000
0000
0000
,  // measure 36
0000
0000
0000
0000
,  // measure 37
0100
0000
0000
0000
,  // measure 38
1000
0000
0000
0001
,  // measure 39
1000
0000
0001
0000
,  // measure 40
0100
0000
0000
0000
,  // measure 41
0010
0000
0000
0000
,  // measure 42
0000
1000
1000
0000
,  // measure 43
0000
0001
0001
0000
,  // measure 44
0000
0010
0010
0000
,  // measure 45
0100
0100
0100
0100
,  // measure 46
1001
0000
1000
0000
,  // measure 47
0001
0000
1000
0000
,  // measure 48
0001
0000
0010
0000
,  // measure 49
0200
0000
0000
0000
,  // measure 50
0300
0010
0000
0000
,  // measure 51
0001
0000
0000
0000
,  // measure 52
0100
0000
0000
0000
,  // measure 53
0010
0000
0000
0000
,  // measure 54
1000
0000
1000
0000
,  // measure 55
1000
0000
1000
0000
,  // measure 56
0100
0000
0100
0000
,  // measure 57
0100
0000
0100
0000
,  // measure 58
0010
0000
0010
0000
,  // measure 59
0010
0000
0010
0000
,  // measure 60
0001
0000
0001
0000
,  // measure 61
0002
0000
0000
0003
;
