#TITLE:Red. by Jack Trance;
#SUBTITLE:;
#ARTIST:DJ Mass MAD Izm*;
#TITLETRANSLIT:;
#SUBTITLETRANSLIT:;
#ARTISTTRANSLIT:;
#GENRE:;
#CREDIT:;
#BANNER:Red. by Jack Trance.png;
#BACKGROUND:Red. by Jack Trance-bg.png;
#LYRICSPATH:;
#CDTITLE:;
#MUSIC:Red. by Jack Trance.ogg;
#OFFSET:0.000000;
#SAMPLESTART:8.980000;
#SAMPLELENGTH:12.000000;
#SELECTABLE:YES;
#DISPLAYBPM:*;
#BPMS:0.000000=160.000000
,198.000000=80.000000
,222.000000=160.000000
;
#STOPS:147.000000=0.188000,
154.500000=0.188000,
156.000000=0.188000,
157.500000=0.188000
;
#BGCHANGES:;
#KEYSOUNDS:;
#ATTACKS:;

//---------------dance-single - ----------------
#NOTES:
     dance-single:
     :
     Hard:
     17:
     0.850014,0.991404,0.233664,0.625887,0.913795,713.000000,685.000000,28.000000,75.000000,0.000000,0.000000,0.850014,0.991404,0.233664,0.625887,0.913795,713.000000,685.000000,28.000000,75.000000,0.000000,0.000000:
// measure 0
0000
0000
0000
0000
,  // measure 1
0000
0000
0000
0000
0000
0000
0000
0000
1000
0001
1000
0001
0010
0000
0000
0000
,  // measure 2
0100
1000
0100
1000
0100
0001
0200
0000
,  // measure 3
1300
0010
1000
0010
0001
0010
2000
0000
,  // measure 4
3001
1000
0001
1000
0001
0010
0200
0000
,  // measure 5
1300
0001
1000
0001
1000
0001
1000
0001
1000
0001
1000
0001
1001
0000
0000
0000
,  // measure 6
0001
0000
0001
0000
0010
0000
0001
0000
0001
0000
1000
0000
0001
0100
0000
0001
,  // measure 7
1000
1000
0100
0010
0010
0200
2300
3020
,  // measure 8
0130
0000
0100
0000
0010
0000
1000
0000
1000
0000
0001
0000
1000
0100
0000
0010
,  // measure 9
0001
0100
0001
0100
0001
0000
0001
0000
0010
0000
0001
0000
1000
0000
0100
0000
,  // measure 10
0010
0000
0010
0000
0100
1000
0100
1000
0100
0000
1000
0000
0001
0000
0001
0000
,  // measure 11
0010
0100
0000
0100
1000
0000
0001
0000
0100
0001
0100
0000
0100
0000
0000
0000
,  // measure 12
0010
0010
1000
0001
0001
0001
1000
1000
,  // measure 13
0001
1000
0001
0000
1000
0001
1000
0000
0001
1000
0001
0000
0100
0000
0000
0000
,  // measure 14
0010
0000
1000
0010
0000
0100
0001
0010
0100
0000
0010
0001
0000
0010
0100
1000
,  // measure 15
0001
0000
1000
0001
0000
0010
0001
1000
0100
0000
0010
0100
0000
0010
0001
1000
,  // measure 16
1001
0000
0000
1001
0000
0000
0010
0100
0110
0000
0000
0110
0000
0000
1000
0001
,  // measure 17
1001
0000
0000
1001
0000
0000
0010
0100
0110
0000
0000
0110
0000
0000
0001
1000
,  // measure 18
0002
0000
0203
0000
0320
2030
0000
3100
0010
0100
0010
0100
0010
0000
0001
0000
,  // measure 19
0020
0000
0032
0000
1003
0020
0000
0100
0000
1030
0001
0010
0100
0000
1000
0000
,  // measure 20
0002
0000
0023
0000
0230
2300
0000
0001
0000
3001
0100
0010
0100
0000
0001
0000
,  // measure 21
2000
0000
3020
0000
0230
0302
0000
0013
0100
1000
0100
0010
0001
0000
1000
0000
,  // measure 22
0001
0000
1000
0000
0010
2000
0000
0200
0300
3200
0320
0032
2003
3000
0000
0000
,  // measure 23
0001
0100
0001
0100
0001
0100
0020
0030
0000
0000
0200
0000
0320
0000
2030
0000
,  // measure 24
3002
0000
2003
0000
3010
2000
0000
0100
0000
3100
0010
0001
0010
0100
1000
0001
,  // measure 25
0101
0000
0000
1010
0000
0000
1000
0000
1100
0000
0000
0011
0000
0000
0001
0000
,  // measure 26
1000
0001
1000
0001
1000
0001
1000
0001
1000
0000
0220
0000
0000
0000
0330
0000
,  // measure 27
1000
0000
0000
0000
0001
0000
0001
0000
0000
0000
1000
0000
1000
0001
1000
0010
,  // measure 28
0100
0001
0010
0001
0100
0010
1000
0100
0010
0100
1000
0010
0100
0001
0010
0100
,  // measure 29
1000
0000
0100
0100
0010
0001
0100
0001
,  // measure 30
1000
0000
0001
1000
0001
0000
0100
0000
0010
1000
0010
1000
0010
0000
0100
0000
,  // measure 31
0001
0000
0010
0000
0100
0000
0100
0010
0001
0000
0010
0100
1000
0000
0001
0000
,  // measure 32
1000
0000
0001
0000
0100
0000
0001
0010
0000
0100
1000
0100
0010
0000
0010
0000
,  // measure 33
0100
0000
1000
0001
0100
0000
0001
1000
0010
0000
0100
0001
0010
0000
0100
1000
,  // measure 34
0001
0000
1000
0000
0010
0100
0004
0040
0000
0000
0000
0000
0000
0000
0000
0033
,  // measure 35
1100
0000
0000
0000
1000
0100
0010
0100
1000
0010
0100
0001
0010
0100
0010
0001
,  // measure 36
1000
0001
0100
0001
0010
0100
0010
0001
1000
0001
0100
0000
0110
0000
1000
0010
,  // measure 37
0100
0001
0010
0100
0010
0001
0100
0010
1000
0001
0010
0001
1000
0100
0010
0100
,  // measure 38
1000
0010
0100
0001
0010
0100
1000
0000
0001
0000
0110
0000
1000
0010
0100
0000
,  // measure 39
0101
0000
0001
0010
0100
0000
1100
0000
0001
0000
0100
0010
1000
0000
0001
0000
,  // measure 40
0100
0010
0100
0000
4004
0000
0000
0000
0000
0000
0000
0000
0000
0000
0000
0000
,  // measure 41
0000
0000
0000
0000
3003
0000
0000
0000
1000
0010
0100
0001
0020
0000
0000
0000
,  // measure 42
0100
0000
0031
0000
1000
0010
0100
0000
,  // measure 43
0001
0000
0000
0000
1000
0000
0000
0000
0100
0010
0001
0100
0020
0000
0000
0000
,  // measure 44
1000
0000
0130
0000
0010
1000
0001
0000
,  // measure 45
0010
0000
0000
0000
0100
0000
0000
0000
0010
0001
1000
0010
0200
0000
0000
0000
,  // measure 46
0001
0000
0000
0000
0310
0000
0000
0000
0100
0010
1000
0001
0020
0000
0000
0000
,  // measure 47
0100
0000
0000
0000
0031
0000
0000
0000
1000
0100
1000
0000
0001
0100
0001
0000
,  // measure 48
1000
0010
1000
0000
0001
0010
0001
0000
1000
0000
1000
0000
1000
0100
0010
0001
,  // measure 49
1000
0000
0100
0000
0110
0000
1001
0000
1000
0001
0200
0000
0301
1000
0020
0000
,  // measure 50
1030
0100
0010
0100
1000
0010
0200
0000
0310
1000
0002
0000
0013
0100
2000
0000
,  // measure 51
3100
0010
0001
0010
0100
0010
0002
0000
1003
0100
0002
0000
0103
1000
0020
0000
,  // measure 52
0130
1000
0100
0001
0100
0010
2000
0000
3001
0010
2000
0000
3010
0001
0200
0000
,  // measure 53
0310
0000
1000
0000
0001
0000
0010
0000
1000
0000
0010
0000
0002
0000
0000
0000
1003
0000
0001
0000
0100
0000
0010
0100
0010
0000
1000
0000
0020
0000
0000
0000
,  // measure 54
0130
0000
0001
0000
1000
0000
0010
1000
0010
0000
0100
0000
0020
0000
0000
0000
0130
0000
0001
0000
0010
0000
0100
0010
0100
0000
0010
0000
0002
0000
0000
0000
,  // measure 55
1003
0000
0100
0000
1000
0000
0010
1000
0010
0000
0100
0000
0002
0000
0000
0000
1003
0000
0000
0000
0001
0000
0000
0000
0100
0000
0000
0000
0010
0000
1000
0000
,  // measure 56
0100
0000
0010
0000
0022
0000
0033
0000
0010
0000
0001
0000
0100
0000
0010
1000
,  // measure 57
0100
0010
0220
0330
0010
0001
0100
0010
,  // measure 58
1000
0000
0100
0000
1000
0000
0001
0000
1000
0010
1000
0010
1000
0010
1000
0010
,  // measure 59
1000
0010
0200
0000
0000
0000
0000
0000
0301
0000
0001
0000
1000
0000
0001
0000
,  // measure 60
0010
0000
0010
0000
0001
0000
0010
0000
0100
0000
1000
0100
0010
0000
0010
0100
,  // measure 61
1000
0000
0001
0100
0000
0010
1000
0000
0001
0000
0001
0000
1000
0000
0010
0000
,  // measure 62
0100
0000
0100
0000
0010
0000
1000
0000
0100
0000
0010
0001
0100
0001
0010
0100
,  // measure 63
1000
0000
0220
0000
0000
0000
0330
0000
1000
0000
0001
0100
0001
0000
0001
1000
,  // measure 64
0001
0000
0010
0000
0200
0000
0000
0000
0310
0000
0100
1000
0100
0000
0100
0010
,  // measure 65
0100
0010
0001
1000
0100
0010
0001
1000
0001
0000
0100
0000
0010
0000
1000
0100
,  // measure 66
1000
0000
0001
0000
0200
0000
0000
0000
0310
0000
1000
0001
0010
0000
0100
0010
,  // measure 67
0001
0000
0010
0001
0000
0100
0010
0000
1000
0000
0001
0100
0010
0000
0100
0001
,  // measure 68
1000
0000
0001
0010
0000
0100
1000
0000
0010
0000
0100
0001
0100
0001
0010
0000
,  // measure 69
0000
0000
0220
0000
0000
0000
0330
0000
0100
0010
0001
0100
0010
1000
0001
0010
,  // measure 70
0200
0000
0300
0200
0000
0300
0200
0000
2300
3000
1000
0001
2000
3000
1000
0001
,  // measure 71
2000
3000
0000
0110
0000
0000
0220
0000
0000
0000
0000
0000
0000
0000
0000
0000
,  // measure 72
0330
0000
0000
0000
;

//---------------dance-single - ----------------
#NOTES:
     dance-single:
     :
     Medium:
     13:
     0.586545,0.744544,0.383877,0.200284,0.171076,492.000000,446.000000,46.000000,24.000000,0.000000,0.000000,0.586545,0.744544,0.383877,0.200284,0.171076,492.000000,446.000000,46.000000,24.000000,0.000000,0.000000:
// measure 0
0000
0000
0000
0000
,  // measure 1
0000
0000
0000
0000
,  // measure 2
1000
0001
1000
0000
0001
1000
0020
0000
,  // measure 3
0130
0001
0100
0000
0001
0100
0020
0000
,  // measure 4
1030
0100
1000
0000
0001
0100
0020
0000
,  // measure 5
1030
0000
0001
0000
1000
0000
0000
0000
0001
0100
0000
0010
1000
0000
0000
0000
,  // measure 6
0100
0010
0000
0100
1000
0001
0100
0000
,  // measure 7
0010
1000
0000
0001
0010
0000
0000
0000
,  // measure 8
0100
0010
0000
0100
1000
0001
0100
0001
,  // measure 9
1000
1000
1000
0001
0010
0100
0010
0001
,  // measure 10
1000
0001
0100
0000
0010
1000
0100
0000
,  // measure 11
0110
0000
1100
0000
1000
0001
0100
0000
,  // measure 12
0010
1000
0000
0001
0010
0001
0010
0100
,  // measure 13
1000
0001
0010
0001
1000
0010
1000
0001
,  // measure 14
0010
0000
0000
0100
0000
0000
1000
0000
0010
0000
0000
0100
0000
0000
0010
0000
,  // measure 15
1000
0000
0000
0001
0000
0000
0010
0000
0100
0000
0000
0010
0000
0000
0001
0000
,  // measure 16
1001
0000
0000
1001
0000
0000
1001
0000
0110
0000
0000
0110
0000
0000
0110
0000
,  // measure 17
1001
0000
0000
1001
0000
0000
1001
0000
0110
0000
0000
0110
0000
0000
0110
0000
,  // measure 18
0001
0000
0100
0000
0010
1000
0000
0010
0000
0000
0000
0000
0000
0000
0000
0000
,  // measure 19
1000
0000
0100
0000
0010
0001
0000
0010
0100
0000
0000
0000
0000
0000
0000
0000
,  // measure 20
1000
0000
0001
0000
1000
0010
0000
0100
0000
0000
0000
0000
0000
0000
0000
0000
,  // measure 21
0010
0000
1000
0000
0001
1000
0000
0001
0010
0000
0000
0000
0000
0000
0000
0000
,  // measure 22
0100
0000
0010
0000
0001
0000
1000
0000
0010
0000
1000
0001
1000
0000
0000
0000
,  // measure 23
0100
0100
0100
0010
0000
0010
0100
0000
,  // measure 24
0010
0000
0100
0000
1000
0001
0000
0010
0000
0000
0000
0000
0000
0000
0000
0000
,  // measure 25
1100
0000
0000
1100
0000
0000
1100
0000
0011
0000
0000
0011
0000
0000
0011
0000
,  // measure 26
0001
0100
0010
1000
0000
2002
0000
3003
,  // measure 27
0110
0000
0001
0001
0000
1000
1000
1000
,  // measure 28
0000
0100
0000
0100
0100
0010
0001
0001
,  // measure 29
0100
0000
0010
0010
1000
0001
0010
0100
,  // measure 30
0010
0010
0100
0000
0010
0001
1000
0100
,  // measure 31
0010
0000
0000
0000
0100
0000
1000
0001
1000
0000
0001
0000
0000
0000
0100
0000
,  // measure 32
0010
1000
0100
0001
0100
1000
0001
1000
,  // measure 33
0010
0010
0100
0000
0001
0001
0010
0000
,  // measure 34
0100
0010
0001
2002
0000
0000
0000
3003
,  // measure 35
0110
0000
1000
0010
0100
0001
0010
1000
,  // measure 36
0010
0001
0010
0100
1000
0001
1001
0001
,  // measure 37
0100
1000
0100
0010
1000
0001
0010
1000
,  // measure 38
0010
0001
0100
0010
1000
1001
0001
0100
,  // measure 39
1010
1000
0100
0011
1000
0001
0100
0010
,  // measure 40
1000
0001
1000
0000
0220
0000
0000
0000
0000
0000
0000
0000
0000
0000
0000
0000
,  // measure 41
0000
0000
0330
0000
0001
0100
1000
0000
,  // measure 42
0100
0001
0010
1000
,  // measure 43
0010
0000
0001
0000
1000
0010
0001
0000
,  // measure 44
0010
0001
0010
1000
,  // measure 45
0001
0000
1000
0000
0001
0100
1000
0000
,  // measure 46
0100
0000
0010
0000
1000
0100
0001
0000
,  // measure 47
0100
0000
0001
0000
0010
0100
1000
0000
,  // measure 48
0001
0000
1000
0000
0001
0001
1000
1000
,  // measure 49
0001
0001
1000
0001
0100
0001
0010
0101
,  // measure 50
1000
0010
0001
1100
0001
1000
0010
0101
,  // measure 51
0001
0010
0001
1100
0100
1000
0010
0101
,  // measure 52
0001
0010
0001
1010
0010
0100
0001
1100
,  // measure 53
0100
0000
1000
0000
0010
0000
0110
0000
0100
0000
0010
0000
1000
0001
0010
0000
,  // measure 54
0100
0000
0010
0000
0001
1000
0100
0000
0010
0000
0100
0000
1000
0010
0100
0000
,  // measure 55
0001
0000
0010
0000
0100
0010
0001
0000
1000
0000
0000
0000
0001
0000
0000
0000
,  // measure 56
0100
0001
0020
0000
0130
0000
0010
0000
,  // measure 57
0001
0010
0200
0000
1300
0000
0100
0000
,  // measure 58
1000
0010
0100
0000
0010
1000
0001
0010
,  // measure 59
0100
2200
0000
3300
1000
0001
1000
1000
,  // measure 60
0001
0000
1000
0000
0020
0000
0000
0000
0130
0000
0001
0100
0001
0000
0100
0001
,  // measure 61
0100
0000
0000
0100
0000
0000
0100
0000
0010
0000
0100
0000
0100
0000
0001
0000
,  // measure 62
1000
1000
0200
0000
0310
0001
0100
0010
,  // measure 63
0000
2002
0000
0000
3003
1000
0010
0010
,  // measure 64
0100
0001
0020
0000
0130
0100
1000
0001
,  // measure 65
0200
0000
0000
0320
0000
0000
2030
0000
3001
0000
1000
0000
0010
0000
1000
0000
,  // measure 66
0001
0010
0200
0000
1300
0100
0001
0100
,  // measure 67
1000
0000
0000
0010
0000
0000
0100
0000
0001
0000
1000
0001
1000
0000
0001
1000
,  // measure 68
0001
0000
0000
0010
0000
0000
0100
0000
1000
0000
0100
0010
0100
0000
0010
0100
,  // measure 69
0010
2002
0000
3003
1000
0100
0010
0001
,  // measure 70
0011
0000
0000
1100
0000
0000
0011
0000
0001
0000
0010
0000
0100
0000
1000
0000
,  // measure 71
1100
0000
0000
0011
0000
0000
1001
0000
0000
0000
0000
0000
0000
0000
0000
0000
;

//---------------dance-single - ----------------
#NOTES:
     dance-single:
     :
     Easy:
     8:
     0.370763,0.506290,0.233664,0.292080,0.016690,311.000000,283.000000,28.000000,35.000000,0.000000,0.000000,0.370763,0.506290,0.233664,0.292080,0.016690,311.000000,283.000000,28.000000,35.000000,0.000000,0.000000:
// measure 0
0000
0000
0000
0000
,  // measure 1
0000
0000
0000
0000
,  // measure 2
1000
1000
0001
2000
,  // measure 3
3001
0001
1000
0002
,  // measure 4
1003
1000
0001
2000
,  // measure 5
3001
0100
0010
1001
,  // measure 6
0001
0100
0001
1000
,  // measure 7
0100
1000
0010
0100
,  // measure 8
0001
1000
0100
1000
,  // measure 9
0010
0010
0100
0010
,  // measure 10
0100
0100
0010
1000
,  // measure 11
0001
0010
0001
1000
,  // measure 12
0100
1000
0010
0100
,  // measure 13
0001
0100
1000
0100
,  // measure 14
0101
0001
0010
0100
,  // measure 15
1100
0100
0010
0001
,  // measure 16
1001
0000
0110
0000
,  // measure 17
1001
0000
0110
0000
,  // measure 18
0002
0203
0020
0330
,  // measure 19
0020
2030
0200
3300
,  // measure 20
2000
3200
0020
0330
,  // measure 21
0200
2300
3020
0130
,  // measure 22
0200
0302
2000
3003
,  // measure 23
0002
2003
0200
3300
,  // measure 24
2000
3020
0200
0330
,  // measure 25
0110
0000
1001
0000
,  // measure 26
0110
0000
0000
0000
0000
1001
0000
0000
,  // measure 27
0001
1000
0010
1000
,  // measure 28
0100
0001
0100
1000
,  // measure 29
0010
0001
0010
0100
,  // measure 30
0010
0010
0100
0100
,  // measure 31
0010
1000
0001
0010
,  // measure 32
0001
0100
1000
0100
,  // measure 33
0001
1000
0100
0001
,  // measure 34
0100
0000
1000
0020
0000
0000
0000
0000
,  // measure 35
0130
0001
0010
0001
,  // measure 36
1000
0000
0010
0000
0100
0000
0101
0001
,  // measure 37
0000
1000
0000
0100
0000
0010
0000
0100
,  // measure 38
0000
1000
0000
0001
0000
1100
0010
0000
,  // measure 39
1001
0100
0000
1001
0110
0000
1001
0000
,  // measure 40
0110
2002
0000
0000
,  // measure 41
0000
0000
3003
0000
0001
0100
0010
0000
,  // measure 42
0100
0010
1000
0100
,  // measure 43
0010
0000
0001
0000
0010
0100
1000
0000
,  // measure 44
0100
1000
0010
0100
,  // measure 45
0001
0000
1000
0000
0001
0100
0010
0000
,  // measure 46
1000
0000
0001
0000
1000
0010
0100
0000
,  // measure 47
0010
1000
1001
0010
,  // measure 48
0100
0001
1001
0110
,  // measure 49
1010
0101
0002
0010
,  // measure 50
0100
1003
2000
0100
,  // measure 51
0010
3001
0002
0100
,  // measure 52
0010
1003
2000
0100
,  // measure 53
0010
0000
3001
0000
1000
0100
0010
0001
,  // measure 54
0010
0100
0010
0001
1000
0100
0010
0100
,  // measure 55
1000
0010
0100
0001
1000
0000
0001
0000
,  // measure 56
0010
0100
0010
0001
,  // measure 57
0100
0001
1000
0100
,  // measure 58
1000
0010
0100
0001
,  // measure 59
0100
0110
0000
0000
0100
0000
0001
0000
,  // measure 60
1000
0100
0010
0100
,  // measure 61
1000
0000
0000
1000
0000
0000
1000
0000
0001
0000
0000
0000
1000
0000
0000
0000
,  // measure 62
0010
0000
1000
0000
0001
0000
0100
0010
,  // measure 63
0000
2002
0000
3003
0001
0000
1000
0000
,  // measure 64
0010
1000
0001
0010
,  // measure 65
0100
0000
0000
0100
0000
0000
0100
0000
0010
0000
0000
0000
0001
0000
0000
0000
,  // measure 66
0100
0001
1000
0001
,  // measure 67
1000
0000
0000
0010
0000
0000
0100
0000
1001
0000
0000
0000
0001
0000
0100
0000
,  // measure 68
0010
0000
0100
0010
1000
0000
0001
0010
,  // measure 69
0000
2200
0000
3300
0100
1000
0010
0000
,  // measure 70
0100
0010
1000
0000
0001
0010
0100
1000
,  // measure 71
0001
0000
0000
1000
0000
0000
0001
0000
0000
0000
0000
0000
0000
0000
0000
0000
;

//---------------dance-single - ----------------
#NOTES:
     dance-single:
     :
     Beginner:
     5:
     0.182401,0.268505,0.100142,0.133522,0.000000,153.000000,141.000000,12.000000,16.000000,0.000000,0.000000,0.182401,0.268505,0.100142,0.133522,0.000000,153.000000,141.000000,12.000000,16.000000,0.000000,0.000000:
// measure 0
0000
0000
0000
0000
,  // measure 1
0000
0000
0000
0000
,  // measure 2
1000
0000
0000
0000
,  // measure 3
0001
0000
0000
0000
,  // measure 4
0100
0000
0000
0000
,  // measure 5
0010
0000
0000
0000
,  // measure 6
1000
0000
1000
0000
,  // measure 7
0001
0000
0001
0000
,  // measure 8
1000
0000
1000
0000
,  // measure 9
0010
0010
0010
0000
,  // measure 10
0100
0100
0000
0010
,  // measure 11
0100
0000
0001
0000
,  // measure 12
0010
0000
0001
0001
,  // measure 13
1000
0000
0001
0000
,  // measure 14
1001
0000
0010
0000
,  // measure 15
1001
0000
0010
0000
,  // measure 16
1001
0000
0110
0000
,  // measure 17
1001
0000
0110
0000
,  // measure 18
2000
0000
3000
0000
,  // measure 19
0002
0000
0003
0000
,  // measure 20
0020
0000
0030
0000
,  // measure 21
0200
0000
0300
0000
,  // measure 22
0020
0030
0000
0000
,  // measure 23
0002
0000
0003
0000
,  // measure 24
2000
0000
3000
0000
,  // measure 25
0110
0000
1001
0000
,  // measure 26
0110
0000
0000
0000
0000
1000
0000
0000
,  // measure 27
0001
0000
1000
0000
,  // measure 28
0010
0000
1000
0000
,  // measure 29
0100
0000
1000
0000
,  // measure 30
0001
0000
0100
0000
,  // measure 31
0010
0000
1000
0000
,  // measure 32
0100
0000
1000
0000
,  // measure 33
0001
0000
0010
0000
,  // measure 34
0001
0000
0000
0200
0000
0000
0000
0300
,  // measure 35
0010
0000
0100
0000
,  // measure 36
0001
0000
0000
0000
1000
0000
0000
0001
,  // measure 37
0000
0000
0000
1000
0000
0000
0000
0010
,  // measure 38
0000
0000
0000
1000
0000
0000
0100
0000
,  // measure 39
0000
0100
0000
0000
0100
0000
0010
0000
,  // measure 40
0001
1001
0000
0000
,  // measure 41
0000
0000
1000
1000
,  // measure 42
0000
0000
0000
0000
,  // measure 43
0000
0000
0010
0010
,  // measure 44
0000
0000
0000
0000
,  // measure 45
0000
0000
0100
0100
,  // measure 46
0000
0000
0001
0001
,  // measure 47
0000
0000
0010
0010
,  // measure 48
0000
0000
0100
0010
,  // measure 49
0001
1000
0001
1000
,  // measure 50
0010
1000
0100
0010
,  // measure 51
0001
0010
0001
1000
,  // measure 52
0010
0100
0010
1000
,  // measure 53
0001
0000
1000
0000
0020
0000
0000
0030
,  // measure 54
0200
0000
0000
0300
0002
0000
0000
0003
,  // measure 55
2000
0000
0000
3000
0002
0000
0000
0000
,  // measure 56
0000
0003
2000
0000
,  // measure 57
0000
3000
0020
0000
,  // measure 58
0000
0030
0100
0000
,  // measure 59
0000
0110
0000
0000
0001
0000
0000
0000
,  // measure 60
1000
0000
0010
1000
,  // measure 61
0100
0000
0010
0000
,  // measure 62
0001
0000
1000
0001
,  // measure 63
0000
0100
0000
0000
0010
0000
0000
0000
,  // measure 64
1000
0000
0001
1000
,  // measure 65
0010
0000
1000
0000
,  // measure 66
0100
0000
0010
0001
,  // measure 67
0100
0000
0010
1000
,  // measure 68
0001
0000
0010
0001
,  // measure 69
0000
1001
0000
0000
1000
0000
0000
0000
,  // measure 70
0001
0000
0100
0000
,  // measure 71
0020
0000
0030
0000
;
