#VERSION:0.83;
#TITLE:POWER DREAM;
#SUBTITLE:;
#ARTIST:PINK PONG;
#TITLETRANSLIT:;
#SUBTITLETRANSLIT:;
#ARTISTTRANSLIT:;
#GENRE:TRANCE;
#ORIGIN:;
#CREDIT:;
#BANNER:banner.png;
#BACKGROUND:background.png;
#PREVIEWVID:;
#JACKET:jacket.png;
#CDIMAGE:;
#DISCIMAGE:;
#LYRICSPATH:;
#CDTITLE:;
#MUSIC:POWER DREAM (Alternative).ogg;
#OFFSET:-0.837000;
#SAMPLESTART:61.682076;
#SAMPLELENGTH:13.943665;
#SELECTABLE:YES;
#BPMS:0.000=142.000;
#STOPS:142.000=0.423,
173.000=0.423;
#DELAYS:;
#WARPS:;
#TIMESIGNATURES:0.000=4=4;
#TICKCOUNTS:0.000=4;
#COMBOS:0.000=1;
#SPEEDS:0.000=1.000=0.000=0;
#SCROLLS:0.000=1.000;
#FAKES:;
#LABELS:0.000=Song Start;
#BGCHANGES:;
#KEYSOUNDS:;
#ATTACKS:
;

//---------------dance-single - ----------------
#NOTEDATA:;
#CHARTNAME:;
#STEPSTYPE:dance-single;
#DESCRIPTION:;
#CHARTSTYLE:;
#DIFFICULTY:Hard;
#METER:15;
#RADARVALUES:0.651597,0.648528,0.207737,0.135481,1.124488,505.000000,482.000000,23.000000,15.000000,0.000000,0.000000,0.000000,0.000000,0.000000,0.651597,0.648528,0.207737,0.135481,1.124488,505.000000,482.000000,23.000000,15.000000,0.000000,0.000000,0.000000,0.000000,0.000000;
#CREDIT:Pandemonium X;
#NOTES:
0000
0000
0000
0000
,
0000
0000
0000
0000
,
0000
0000
0000
0000
,
0000
0000
0000
0000
,
1000
0000
0100
0000
0010
0100
0000
1000
0000
0010
1000
0000
0001
0100
0000
0001
,
0010
0000
0100
0000
1000
0100
0000
1000
0000
0100
0010
0000
0001
0100
0000
0010
,
1000
0000
0001
0000
0010
0100
0000
0010
0000
0100
1000
0000
0100
0010
0000
0100
,
1000
0000
0001
0000
1000
0001
1000
0001
0000
0000
0000
0000
0110
0000
0000
0000
,
2000
0000
0000
0001
0000
3001
0000
0010
0200
0000
0000
1000
0000
1300
0000
0100
,
0020
0000
0000
0001
0000
0031
0000
1000
0020
0000
0000
0100
0000
0130
0000
0010
,
2000
0000
0000
0100
0000
3100
0000
0010
0002
0000
0000
0100
0000
0103
0000
0010
,
2000
0000
0000
0001
0000
3001
0000
1000
0001
0100
0001
0010
0000
0100
0000
0100
,
0020
0000
0000
0001
0000
0031
0000
1000
0020
0000
0000
0100
0000
0130
0000
1000
,
0002
0000
0000
0010
0000
0013
0000
0100
2000
0000
0000
0001
0000
3001
0000
0100
,
0020
0000
0000
0100
0000
0130
0000
0001
0020
0000
0000
0100
0000
0130
0000
1000
,
1001
0000
0110
0000
,
1000
0000
0001
0000
0010
0100
0000
0010
0000
0000
0011
0000
0000
1100
0000
0000
,
0100
0000
1000
0000
0010
0100
0000
0001
0000
0000
1010
0000
0000
0101
0000
0000
,
0001
0000
1000
0000
0100
1000
0000
0010
0000
0000
1010
0000
0000
0011
0000
0000
,
0010
0000
0001
0000
1000
0100
0000
0010
0000
0000
1100
0000
0000
0101
0000
0000
,
0010
0000
1000
0000
0001
0100
0000
0010
0000
0000
1010
0000
0000
1100
0000
0000
,
0100
0000
0010
0000
0001
1000
0000
0010
0000
0000
0110
0000
0000
0101
0000
0000
,
0001
0000
0010
0000
0100
1000
0000
0100
0000
0000
0011
0000
0000
1100
0000
0000
,
0100
0000
1000
0000
0010
1000
0000
0010
0100
0010
1000
0001
0000
1000
0001
0010
,
0100
1000
0010
0100
,
0001
1000
0001
0000
1000
0001
1000
0000
0001
0000
0100
0010
0000
1000
0100
0000
,
0010
0100
0010
0000
0100
0010
0100
0000
0010
0000
0001
0100
0000
0010
1000
0000
,
0001
0000
0000
0000
0000
0000
0000
0000
1000
0100
0010
0001
1000
0100
0010
0001
,
1000
0000
0010
0000
,
1000
0000
0100
0000
,
0010
0000
0000
0000
0000
0000
0000
0000
0001
0010
0100
1000
0001
0010
0100
1000
,
0001
0000
0000
0000
0000
1000
0010
0100
,
1001
0000
0001
0000
,
1000
0000
0000
0010
0000
0100
0010
1010
,
1001
0000
0010
0000
,
0110
0000
0000
0000
0000
0000
0000
0000
1001
0000
0000
0000
1000
0000
0010
1000
,
0000
1000
0000
1000
0001
0000
0001
0010
0000
0010
0000
0010
0100
0000
0100
1000
,
0000
1000
0000
1000
0010
0000
0010
0100
0000
0100
0000
0100
0010
0000
0010
1000
,
0000
1000
0000
1000
0001
0000
0001
0010
0000
0010
0000
0010
0001
0000
0001
0100
,
0000
0100
0000
0100
0010
0000
0010
1000
0000
1000
0000
1000
0100
0000
0100
0010
,
0000
0010
0000
0010
0001
0000
0001
0100
0000
0100
0000
0100
0010
0000
0010
1000
,
0000
1000
0000
1000
0001
0000
0001
1000
0000
1000
0000
1000
0001
0000
0001
0010
,
0000
0010
0000
0010
0001
0000
0001
0100
0000
0100
0000
0100
0010
0000
0010
1000
,
0000
1000
0000
1000
0001
0000
0000
0000
1000
0000
0010
1000
0000
0010
0000
0100
,
0001
0000
0010
0100
0000
0010
0000
0001
0010
0000
0100
1000
0000
0010
0000
0100
,
0010
0000
1000
0001
0000
0010
0000
0100
1000
0000
0010
0100
0000
0001
0000
0010
,
0001
0000
1000
0100
0000
1000
0000
0010
1000
0000
0010
0100
0000
0010
0000
1000
,
0001
0000
0010
0100
0000
1000
0000
0100
1000
0000
0100
0010
0000
0001
0000
0010
,
0100
0000
1000
0010
0000
0100
0000
0010
1000
0000
0010
0100
0000
0001
0000
0010
,
0100
0000
0010
0001
0000
1000
0001
1000
0010
0000
0100
0010
0000
1000
0000
0001
,
0010
0000
0100
0010
0000
0001
0000
0100
0010
0000
1000
0100
0000
0010
0000
0100
,
1000
0000
0001
0100
0000
0010
0000
1000
0001
0000
0000
0000
1000
0010
0100
0000
,
0010
1000
0001
0000
0010
0100
1000
0000
0100
0010
0001
0000
0010
0100
1000
0000
,
0001
0000
0000
1000
0000
0000
0020
0000
0200
0000
0000
0000
0000
0000
0000
0000
,
0030
0000
0000
0000
0300
0000
0000
0000
1001
0000
1000
0010
0000
0100
0000
0001
,
0010
0000
0100
0010
0000
0001
0000
0010
0100
0000
1000
0010
0000
0100
0000
0010
,
1000
0000
0001
0010
0000
0100
0010
0001
1000
0000
0010
1000
0000
0001
0000
0010
,
0100
0000
0010
0001
0000
0100
0000
0010
1000
0000
0001
0010
0000
0100
0000
0010
,
0001
0000
0100
0000
0010
1000
0010
1000
0010
0000
0100
0001
0000
0001
0000
0010
,
0100
0000
0010
0001
0000
0001
0010
0100
1000
0000
0100
1000
0000
1000
0000
0001
,
1000
0000
0010
0100
0000
0001
0100
0010
1000
0000
0001
0100
0000
1000
0000
0100
,
0001
0000
0010
1000
0000
0010
0000
0001
0100
0000
1000
0100
0000
0010
0000
1000
,
0001
0000
0010
0100
0000
1000
0000
0001
0000
0000
0000
0000
0000
0000
0000
0000
;

//---------------dance-single - ----------------
#NOTEDATA:;
#CHARTNAME:;
#STEPSTYPE:dance-single;
#DESCRIPTION:;
#CHARTSTYLE:;
#DIFFICULTY:Medium;
#METER:9;
#RADARVALUES:0.389668,0.507544,0.270961,0.307089,0.338701,302.000000,272.000000,30.000000,34.000000,0.000000,0.000000,0.000000,0.000000,0.000000,0.389668,0.507544,0.270961,0.307089,0.338701,302.000000,272.000000,30.000000,34.000000,0.000000,0.000000,0.000000,0.000000,0.000000;
#CREDIT:Pandemonium X;
#NOTES:
0000
0000
0000
0000
,
0000
0000
0000
0000
,
0000
0000
0000
0000
,
0000
0000
0000
0000
,
1000
0001
0100
0000
0001
0000
0011
0000
,
0010
0001
0100
0000
0010
0000
1010
0000
,
1000
0001
0100
0000
0001
0000
0011
0000
,
0200
0000
0300
0000
,
0020
0031
0020
0130
,
0020
0031
0020
0130
,
0020
0031
0020
0130
,
0020
0000
0031
0000
1000
0001
1000
0000
,
0200
1300
0200
0310
,
0200
1300
0200
0310
,
0200
1300
0200
0310
,
1001
0000
0110
0000
,
1000
0010
0200
0000
0001
0000
0301
0000
,
0001
0010
0200
0000
1000
0000
1300
0000
,
0100
1000
0020
0000
0100
0000
0130
0000
,
0010
1000
0002
0000
1000
0000
1003
0000
,
0100
1000
0010
0000
0200
0000
0320
0000
,
1030
0001
0010
0000
0200
0000
0320
0000
,
0130
1000
0010
0000
0200
0000
0302
0000
,
1003
0000
0000
0001
0000
1000
0000
0000
0010
0000
0000
0000
1000
0000
0001
0000
,
0200
0000
0300
0000
,
0101
1010
1100
0011
,
1001
0110
1010
0011
,
2200
0000
3000
0300
,
0011
0000
0001
0000
,
0100
0000
0001
0000
,
1000
0000
0020
0000
,
1030
0000
0000
0000
0000
0100
0010
0001
,
1001
0000
1000
0000
,
0001
0000
0000
0100
0000
0010
0100
0001
,
1001
0000
1000
0000
,
0101
0000
0000
0000
0000
0000
0000
0000
0000
0000
0000
0000
0001
0000
0000
0100
,
0000
0100
0000
0000
0010
0000
0000
1000
0000
1000
0000
0000
0100
0000
0000
1000
,
0000
1000
0000
0000
0100
0000
0000
0010
0000
0010
0000
0000
0100
0000
0000
1000
,
0000
1000
0000
0000
0001
0000
0000
0100
0000
0100
0000
0000
0001
0000
0000
1000
,
0000
1000
0000
0000
0100
0000
0000
1000
0000
1000
0000
0000
0100
0000
0000
0010
,
0000
0010
0000
0000
0100
0000
0000
1000
0000
1000
0000
0000
0100
0000
0000
1000
,
0000
1000
0000
0000
0100
0000
0000
0010
0000
0010
0000
0000
0100
0000
0000
0010
,
0000
0010
0000
0000
0001
0000
0000
0010
0000
0010
0000
0000
0001
0000
0000
0100
,
0000
0100
0000
0000
0000
0000
0000
0000
0001
0000
0000
0100
0000
0010
0000
0000
,
1000
0000
0000
0100
0000
1000
0000
0000
0010
0000
0000
1000
0000
0001
0000
0000
,
0010
0000
0000
0100
0000
0010
0000
0000
0100
0000
0000
1000
0000
0001
0000
0000
,
0100
0000
0000
0001
0000
0010
0000
0000
0100
0000
0000
0010
0000
0001
0000
0000
,
1000
0000
0000
0100
0000
1000
0000
0000
0010
0000
0000
0100
0000
0001
0000
0000
,
0010
0000
0000
0100
0000
0010
0000
0000
0100
0000
0000
1000
0000
0001
0000
0000
,
0100
0000
0000
0010
0000
1000
0000
0000
1001
0000
0000
1000
0000
0010
0000
0000
,
1001
0000
0000
0001
0000
0010
0000
0000
1001
0000
0000
1000
0000
0100
0000
0000
,
1001
0000
0000
0001
0000
0100
0000
0010
0000
0000
0000
0000
0110
0000
0000
0000
,
1010
0011
1100
0101
,
1001
0000
0000
0110
0000
0000
1001
0000
0000
0000
0000
0000
0000
0000
0000
0000
,
0001
0100
0020
0000
1030
0100
0010
0000
,
0100
1000
0010
0000
0100
0010
1000
0000
,
0002
0000
1003
0000
0100
1000
0010
0000
,
0100
0001
0010
0000
0100
0010
0001
0000
,
0020
0000
0230
0000
1300
0100
1000
0000
,
0200
0000
0310
0000
0100
0010
0100
0000
,
0020
0000
0000
0000
0031
0000
0000
0000
1000
0000
0001
0100
0000
0001
0000
0000
,
1000
0000
0100
0010
0000
0100
0000
0000
0010
0000
0001
0010
0000
0001
0000
0000
,
1000
0000
0010
1000
0000
0001
0000
1000
0000
0000
0000
0000
0000
0000
0000
0000
;

//---------------dance-single - ----------------
#NOTEDATA:;
#CHARTNAME:;
#STEPSTYPE:dance-single;
#DESCRIPTION:;
#CHARTSTYLE:;
#DIFFICULTY:Easy;
#METER:5;
#RADARVALUES:0.219349,0.281687,0.144513,0.325153,0.000000,170.000000,154.000000,16.000000,36.000000,0.000000,0.000000,0.000000,0.000000,0.000000,0.219349,0.281687,0.144513,0.325153,0.000000,170.000000,154.000000,16.000000,36.000000,0.000000,0.000000,0.000000,0.000000,0.000000;
#CREDIT:Pandemonium X;
#NOTES:
0000
0000
0000
0000
,
0000
0000
0000
0000
,
0000
0000
0000
0000
,
0000
0000
0000
0000
,
1000
0010
0000
1000
,
0000
0100
0000
0010
,
0001
1000
0000
0001
,
0110
0000
0000
0000
,
0010
0000
1000
0000
,
0100
0000
1000
0000
,
0001
0000
0100
0000
,
0001
0000
1000
0001
,
1000
0000
0010
0000
,
1000
0000
0100
0000
,
1000
0000
0010
0000
,
0110
0000
0110
0000
,
0100
0010
1000
0000
,
0001
0010
0100
0000
,
0010
0001
1000
0000
,
0100
1000
0010
0000
,
0100
0000
0010
0000
,
1000
0000
0001
0000
,
0010
0000
0001
0000
,
1000
0001
1000
0010
,
1000
0000
0000
0000
,
1001
0000
0110
0000
,
1001
0000
0010
0010
,
1001
0000
0100
0100
,
1001
0000
1000
0000
,
0010
0000
1000
0000
,
0100
0000
0020
0000
,
0031
0000
0000
0010
,
0110
0000
0100
0000
,
0010
0000
0000
0001
0000
0000
1000
0000
,
1001
0000
0010
0000
,
1001
0000
0000
0002
,
0000
0203
0000
0320
,
0000
2030
0000
3020
,
0000
0230
0000
0302
,
0000
0023
0000
0230
,
0000
2300
0000
3200
,
0000
2300
0000
3020
,
0000
0230
0000
0302
,
0000
0003
0020
0031
,
0020
0130
0020
0031
,
0020
0130
0200
1300
,
0200
0310
0200
1300
,
0200
0310
0200
1300
,
2000
3010
0020
0130
,
0200
0301
0002
1003
,
2000
3001
0002
0013
,
0020
0130
0010
0100
,
0100
1000
1000
0001
,
1000
0001
1001
0000
,
0000
0000
0001
1000
,
0010
1000
0001
0010
,
0100
0000
0010
0001
,
1000
0100
1000
0010
,
0100
0100
0100
0010
,
2000
3000
0001
0010
,
0200
0300
0110
0000
,
1001
0000
1010
0000
,
0202
0000
0000
0303
0000
0000
0000
0000
;

//---------------dance-single - ----------------
#NOTEDATA:;
#CHARTNAME:;
#STEPSTYPE:dance-single;
#DESCRIPTION:;
#CHARTSTYLE:;
#DIFFICULTY:Beginner;
#METER:4;
#RADARVALUES:0.131610,0.279993,0.162577,0.009032,0.000000,102.000000,84.000000,18.000000,1.000000,0.000000,0.000000,0.000000,0.000000,0.000000,0.131610,0.279993,0.162577,0.009032,0.000000,102.000000,84.000000,18.000000,1.000000,0.000000,0.000000,0.000000,0.000000,0.000000;
#CREDIT:Pandemonium X;
#NOTES:
// measure 0
0000
0000
0000
0000
,  // measure 1
0000
0000
0000
0000
,  // measure 2
0000
0000
0000
0000
,  // measure 3
0000
0000
0000
0000
,  // measure 4
0010
0000
0000
0000
,  // measure 5
1000
0000
0000
0000
,  // measure 6
0010
0000
0000
0000
,  // measure 7
1001
0000
0000
0000
,  // measure 8
0001
0000
0000
0000
,  // measure 9
1000
0000
0000
0000
,  // measure 10
0010
0000
0000
0000
,  // measure 11
1000
0000
0001
0000
,  // measure 12
1000
0000
0000
0000
,  // measure 13
0100
0000
0000
0000
,  // measure 14
1000
0000
0000
0000
,  // measure 15
1001
0000
0110
0000
,  // measure 16
1001
0000
0000
0000
,  // measure 17
0001
0000
0000
0000
,  // measure 18
0010
0000
0000
0000
,  // measure 19
0100
0000
0000
0000
,  // measure 20
0010
0000
0001
0000
,  // measure 21
0100
0000
0010
0000
,  // measure 22
1000
0000
0001
0000
,  // measure 23
1000
0000
0010
0000
,  // measure 24
0110
0000
0000
0000
,  // measure 25
1000
0000
1000
0000
,  // measure 26
0001
0000
0100
0100
,  // measure 27
0100
0000
0000
0000
,  // measure 28
0110
0000
0000
0000
,  // measure 29
0000
0000
0000
0000
,  // measure 30
0000
0000
0002
0000
,  // measure 31
0003
0000
0000
0000
,  // measure 32
1001
0000
0000
0000
,  // measure 33
0000
0000
0000
0000
,  // measure 34
0110
0000
0000
0000
,  // measure 35
1001
0000
0000
1000
,  // measure 36
0000
0100
0000
0010
,  // measure 37
0000
0001
0000
1000
,  // measure 38
0000
0001
0000
0100
,  // measure 39
0000
0010
0000
1000
,  // measure 40
0000
0100
0000
0010
,  // measure 41
0000
0001
0000
0010
,  // measure 42
0000
0001
0000
1000
,  // measure 43
0000
0000
0010
0000
,  // measure 44
1000
0000
0100
0000
,  // measure 45
1000
0000
0001
0000
,  // measure 46
0100
0000
0001
0000
,  // measure 47
0010
0000
0100
0000
,  // measure 48
0010
0000
0001
0000
,  // measure 49
1000
0000
1001
0000
,  // measure 50
0110
0000
1001
0000
,  // measure 51
0110
0000
1001
0000
,  // measure 52
0000
0000
0000
0000
,  // measure 53
0000
0000
0000
0000
,  // measure 54
1000
0001
0100
0000
,  // measure 55
0000
0000
0010
0000
,  // measure 56
0000
0000
1000
0000
,  // measure 57
0000
0000
0001
0000
,  // measure 58
0010
0001
1000
0000
,  // measure 59
0000
0000
0100
0000
,  // measure 60
0000
0000
1001
0000
,  // measure 61
0110
0000
1001
0000
,  // measure 62
0110
0000
0000
0000
;
