#TITLE:Orenda;
#SUBTITLE:;
#ARTIST:Ferry Corsten Presents Gouryella;
#TITLETRANSLIT:;
#SUBTITLETRANSLIT:;
#ARTISTTRANSLIT:;
#GENRE:NEW MILLENNIUM TRANCE;
#CREDIT:;
#BANNER:;
#BACKGROUND:;
#LYRICSPATH:;
#CDTITLE:;
#MUSIC:Orenda.ogg;
#OFFSET:0.029000;
#SAMPLESTART:87.082115;
#SAMPLELENGTH:17.777779;
#SELECTABLE:YES;
#BPMS:0.000000=135.000000
,132.000000=33.750000
,140.000000=135.000000
;
#STOPS:
;
#BGCHANGES:;
#KEYSOUNDS:;
#ATTACKS:;

//---------------dance-single - ----------------
#NOTES:
     dance-single:
     :
     Hard:
     14:
     0.486953,0.743677,0.179027,0.214832,0.386698,476.000000,451.000000,25.000000,30.000000,0.000000,0.000000,0.486953,0.743677,0.179027,0.214832,0.386698,476.000000,451.000000,25.000000,30.000000,0.000000,0.000000:
0000
0000
0000
0000
,
0000
0000
0000
0000
,
0000
0000
0000
0000
,
0000
0000
0000
0000
,
0000
0000
0000
0000
,
0000
0000
0000
0000
,
0000
0000
0000
0000
,
0000
0000
0000
0000
,
0000
0000
0000
0000
,
1020
0130
0021
0130
,
1002
0103
2001
3100
,
0021
0130
0010
0100
,
1000
0100
0001
0100
,
0012
0103
0120
1030
,
1200
0310
0012
0103
,
2010
3100
0010
0001
,
1000
0010
0100
0001
,
0021
0130
1020
0130
,
0001
1000
0010
0000
0100
0001
0010
0000
,
2100
3010
0102
0013
,
0100
0010
0001
0000
0210
0000
1300
0000
,
0021
0130
1020
0130
,
0102
0013
2100
3010
,
2001
3010
0012
0103
,
0010
0000
0000
0000
1000
0000
0000
0000
0100
0000
0010
0000
0001
1000
0001
0000
,
0100
0001
0000
0010
0001
1000
0000
0001
,
0100
1000
0000
0100
0001
0010
0000
0100
,
0010
0001
0000
1000
0100
0001
0000
0100
,
1000
0010
0000
0100
0010
1000
0000
0001
,
1000
0010
0000
0100
0001
0010
0000
0100
,
0010
0001
0000
1000
0100
0010
0000
0100
,
2000
0000
0000
0000
,
3002
0000
0000
0203
0000
0000
0320
0000
0000
2030
0000
0000
3001
0010
0001
0010
,
0100
0011
0000
0000
0001
1100
0000
1010
,
0001
0100
1000
0010
0001
1001
0000
0000
,
0001
0000
1000
0000
0010
0000
1000
0000
0001
0000
1000
0100
0000
0000
0100
0010
,
0000
0000
0010
0001
0000
0000
0001
0010
0000
0000
0010
0100
0000
0000
0100
0000
,
1000
0000
0010
0000
0100
0000
0001
0000
0010
0000
0100
0010
0000
0000
0010
0001
,
0000
0000
0001
0100
0000
0000
0100
0010
0000
0000
0010
1000
0000
0000
0001
1000
,
0001
0010
0001
0010
0100
1000
0100
1000
,
0001
0100
0001
1000
0010
1000
0001
0010
,
0100
1000
0100
1000
0001
0100
0001
0100
0001
0010
0001
0010
0100
1000
0100
1000
,
0001
0000
0000
1000
0000
0000
0001
0000
0000
1000
0000
0000
0001
0000
0000
1000
0000
0000
0001
0000
0000
1000
0000
0000
0001
0000
0000
0000
0001
0000
0000
0000
0010
0000
0000
0000
0001
0000
0000
0000
0001
0000
0000
0000
0010
0000
0000
0000
,
0100
1000
0010
0000
0100
0001
0010
0000
0100
0010
0001
0000
0010
0100
1000
0000
,
0100
1000
0010
0000
0100
0001
0010
0000
0100
0010
0001
0000
0010
0100
1000
0000
,
0001
1000
0010
0000
0100
0001
0010
0000
0100
0010
0001
0000
0010
0100
1000
0000
,
0001
0100
1000
0100
0001
0010
0100
1000
,
0001
0010
0100
0000
0010
0001
1000
0000
0010
0100
0001
0000
0010
0100
1000
0000
,
0001
0100
0010
0000
0100
0010
1000
0000
0001
0010
0100
0000
0010
0001
1000
0000
,
0001
0000
0100
0000
0010
1000
0100
0000
0010
0001
0100
0000
0010
1000
0001
0000
,
1000
0100
0001
0100
1000
0010
0100
0001
,
1000
0000
0001
0000
0010
0000
0100
0000
1000
0100
1000
0000
0001
0100
0001
0000
,
1000
0100
1000
0000
0001
0100
0001
0000
1000
0100
1000
0000
0001
0100
0001
0000
,
1000
0000
0001
0000
0010
0000
0001
0000
1000
0010
1000
0000
0001
0010
0001
0000
,
1000
0010
1000
0000
0001
0010
0001
0000
0010
0100
0010
0000
0100
1000
0100
0000
,
0010
0000
0001
0000
0100
0010
1000
0000
0100
0000
0010
0000
0100
1000
0001
0000
,
0100
0000
0010
0000
1000
0001
0010
0000
0100
0000
0010
0000
0001
1000
0100
0000
,
0010
0001
0100
0010
1000
0001
0010
0100
,
1000
0001
1000
0001
1000
0001
1000
0001
1000
0001
1000
0001
0010
0100
0010
0100
,
1000
0100
1000
0000
0001
0100
0001
0000
,
1000
0000
0010
0000
1000
0000
0000
0000
0001
0000
0010
0100
1000
0001
0000
0001
,
1000
0000
0001
0000
0100
0000
0010
1000
0000
0001
0000
0010
0000
0100
0010
0000
,
0001
0000
0010
0000
0100
0000
0010
0001
0000
1000
0000
0010
0000
0100
0010
1000
,
0100
0000
0010
0000
0001
0000
0010
0001
0000
0100
0000
0001
0000
1000
0001
0000
,
0010
0000
0100
0000
1000
0000
0100
1000
0000
0010
0000
0100
0000
0010
1000
0001
,
0010
0000
0100
0000
0010
0000
0001
0010
0000
0100
0000
1000
0000
0100
0010
0000
,
0200
0000
0000
2300
0000
0000
3020
0000
0000
0230
0000
0000
0301
1000
0001
1000
,
0010
0000
0000
0000
;

//---------------dance-single - ----------------
#NOTES:
     dance-single:
     :
     Medium:
     11:
     0.331455,0.455802,0.000000,0.157543,0.118158,324.000000,324.000000,0.000000,22.000000,0.000000,0.000000,0.331455,0.455802,0.000000,0.157543,0.118158,324.000000,324.000000,0.000000,22.000000,0.000000,0.000000:
0000
0000
0000
0000
,
0000
0000
0000
0000
,
0000
0000
0000
0000
,
0000
0000
0000
0000
,
0000
0000
0000
0000
,
0000
0000
0000
0000
,
0000
0000
0000
0000
,
0000
0000
0000
0000
,
0000
0000
0000
0000
,
2000
3100
2000
3010
,
0200
0301
0200
0310
,
2000
3100
0010
0001
,
0100
0010
1000
0100
,
0020
0130
0020
0031
,
0200
0310
0200
0301
,
2000
3001
0010
0001
,
0100
0010
1000
0001
,
0020
0130
0200
1300
,
0100
1000
0100
0000
1000
0010
1000
0000
,
0020
0130
0200
0301
,
0001
0010
0001
0000
0020
0000
0130
0000
,
0200
1300
0020
0130
,
0002
1003
0200
0310
,
0020
0130
2000
3010
,
0100
0000
0001
0000
1000
0100
0010
0001
,
1000
0000
0010
0000
1000
0010
0100
0000
,
0001
0000
0010
0000
0100
0010
0001
0000
,
0010
0000
0100
0000
1000
0010
0100
0000
,
0001
0000
1000
0000
0010
0100
0001
0000
,
1000
0000
0100
0000
0001
0100
1000
0000
,
0010
0000
0100
0000
0010
0100
0001
0000
,
0020
0000
0000
0000
,
0130
0000
0000
0100
0000
0000
1000
0000
0000
1000
0000
0000
0001
0000
0001
0000
,
1000
0010
0000
0000
1000
0010
0000
0010
,
0100
0010
1000
0001
0100
0010
0000
0000
,
1000
0100
1000
0100
0010
0100
0000
0100
,
0000
0100
0000
0100
0000
0100
0000
0100
,
0010
0001
0010
0100
1000
0001
0000
0001
,
0000
0001
0000
0001
0000
1000
0000
0001
,
1000
0010
1000
0000
0001
0100
0001
0000
,
0100
0010
0100
0000
0010
1000
0010
0000
,
1000
0100
0010
0001
0010
0100
1000
0001
,
1000
0000
0000
1000
0000
0000
0001
0000
0000
0001
0000
0000
0100
0000
0010
0000
1000
0000
0001
0000
0100
0000
0010
0000
,
1000
0100
0010
0000
0100
1000
0010
0000
,
0100
0001
0010
0000
0100
0010
0001
0000
,
1000
0000
0010
0000
0100
0000
0001
0000
0000
0000
0010
0100
0000
0000
0100
1000
,
0000
0000
1000
0010
0000
0000
0010
0100
0000
0000
0100
0001
0000
0000
1000
0000
,
0100
1000
0010
0000
0100
0001
0010
0000
,
0001
0010
0100
0000
0010
0001
0100
0000
,
0010
0000
1000
0000
0000
0000
0001
0010
0000
0000
0010
0100
0000
0000
0100
1000
,
0000
0000
1000
0010
0000
0000
0010
0100
0000
0000
0100
0001
0000
0000
0001
0000
,
1000
0000
0010
0000
0100
0000
0001
0000
0010
0000
0100
0010
0000
0000
0010
0001
,
0000
0000
0001
0100
0000
0000
0100
0010
0000
0000
0010
1000
0000
0000
1000
0000
,
0010
0000
0100
0000
0001
0000
0010
0000
0100
0000
0010
0001
0000
0000
0010
0100
,
0000
0000
0010
0001
0000
0000
1000
0010
0000
0000
0100
0001
0000
0000
1000
0000
,
0001
0100
0010
0000
0100
0010
1000
0000
,
0100
0010
0001
0000
0010
0100
1000
0000
,
0001
0100
0010
1000
0010
0100
0010
1000
,
0100
1000
0001
1000
0010
1000
0001
1000
,
0100
1000
0010
0100
,
0010
0000
0000
0000
1000
0000
0000
0000
0001
0000
1000
0000
0001
1000
0000
0001
,
1000
0001
0010
0001
,
0100
0010
1000
0100
,
0010
0100
1000
0010
,
0100
0000
0000
0000
0010
0000
0000
0000
1000
0000
0001
0000
1000
0001
0000
1000
,
0001
1000
0010
1000
,
0100
0000
0000
0100
0000
0000
0010
0000
0000
0010
0000
0000
0100
0000
1000
0000
,
0010
0000
0000
0000
;

//---------------dance-single - ----------------
#NOTES:
     dance-single:
     :
     Easy:
     6:
     0.170843,0.263885,0.028644,0.221993,0.000000,167.000000,163.000000,4.000000,31.000000,0.000000,0.000000,0.170843,0.263885,0.028644,0.221993,0.000000,167.000000,163.000000,4.000000,31.000000,0.000000,0.000000:
0000
0000
0000
0000
,
0000
0000
0000
0000
,
0000
0000
0000
0000
,
0000
0000
0000
0000
,
0000
0000
0000
0000
,
0000
0000
0000
0000
,
0000
0000
0000
0000
,
0000
0000
0000
0000
,
0000
0000
0000
0000
,
1000
0010
1000
0100
,
1000
0001
1000
0010
,
0100
0000
0000
0000
,
0000
0000
0000
0000
,
0001
0100
0001
1000
,
0001
0010
0001
1000
,
0010
0000
0000
0000
,
0000
0000
0000
0000
,
0100
0001
0200
0000
,
0000
0000
0300
0000
,
0010
1000
0002
0000
,
0000
0000
1003
0000
,
0002
0003
0200
0300
,
0020
0030
2000
3000
,
0200
0300
0020
0000
,
0000
0000
0000
0130
,
1001
0001
1000
0000
,
0010
1000
0100
0000
,
0010
0100
1000
0000
,
0001
0100
0010
0000
,
2000
0000
0001
0000
,
3002
0000
1000
0000
,
0203
0000
0320
0000
,
2030
0000
0000
3100
,
1001
0000
0000
0000
0010
0000
0000
0100
,
0001
0010
0100
1000
0001
0100
0000
0000
,
0010
1000
0200
0000
,
0000
0000
0000
0300
,
0010
0001
2000
0000
,
0000
0000
3002
0000
,
2003
3010
2000
3001
,
2000
3100
2000
3001
,
0002
1003
0020
0000
,
0000
0030
0100
0100
,
1001
0001
0010
0001
,
1000
0100
0010
0100
,
1000
0010
0100
0010
,
1000
1000
1000
1000
,
0001
0010
0001
1000
,
0100
0010
0100
1000
,
0010
0100
0010
0010
,
0010
0010
0010
0010
,
1000
0001
0010
0010
,
0010
0010
0010
0010
,
0100
0010
0001
0001
,
0001
0001
1000
1000
,
0001
0100
0001
1000
,
0001
0010
0001
1000
,
0100
1000
0020
0000
,
0000
0000
0000
0000
,
0130
0001
2000
3000
,
0100
0010
0002
0003
,
0010
0001
2000
3000
,
0001
0100
0020
0030
,
0100
0010
2000
3000
,
0100
0010
0002
0003
,
0010
0001
0200
0300
,
0020
0000
0000
0030
,
1001
0000
0000
0000
;

//---------------dance-single - ----------------
#NOTES:
     dance-single:
     :
     Beginner:
     3:
     0.085933,0.215906,0.028644,0.064450,0.000000,84.000000,80.000000,4.000000,9.000000,0.000000,0.000000,0.085933,0.215906,0.028644,0.064450,0.000000,84.000000,80.000000,4.000000,9.000000,0.000000,0.000000:
// measure 0
0000
0000
0000
0000
,  // measure 1
0000
0000
0000
0000
,  // measure 2
0000
0000
0000
0000
,  // measure 3
0000
0000
0000
0000
,  // measure 4
0000
0000
0000
0000
,  // measure 5
0000
0000
0000
0000
,  // measure 6
0000
0000
0000
0000
,  // measure 7
0000
0000
0000
0000
,  // measure 8
0000
0000
0000
0000
,  // measure 9
1000
0000
1000
0000
,  // measure 10
0001
0000
0001
0000
,  // measure 11
1000
0000
0000
0000
,  // measure 12
0000
0000
0000
0000
,  // measure 13
0010
0000
0010
0000
,  // measure 14
0100
0000
0100
0000
,  // measure 15
0010
0000
0000
0000
,  // measure 16
0000
0000
0000
0000
,  // measure 17
1000
0000
0001
0000
,  // measure 18
0000
0000
0000
0000
,  // measure 19
0010
0000
0100
0000
,  // measure 20
0000
0000
0100
0000
,  // measure 21
0010
0000
0001
0000
,  // measure 22
1000
0000
0010
0000
,  // measure 23
1000
0000
0001
0000
,  // measure 24
0000
0000
0000
0000
,  // measure 25
1001
0000
0000
0000
,  // measure 26
1000
0000
0000
0000
,  // measure 27
0010
0000
0000
0000
,  // measure 28
0100
0000
0000
0000
,  // measure 29
0001
0000
0000
0000
,  // measure 30
0010
0000
0000
0000
,  // measure 31
0100
0000
0000
0000
,  // measure 32
2000
0000
0000
0000
,  // measure 33
3000
0000
0000
0000
,  // measure 34
0000
0000
0000
0000
,  // measure 35
0010
0000
2000
0000
,  // measure 36
0000
0000
0000
3000
,  // measure 37
0001
0000
0200
0000
,  // measure 38
0000
0300
0010
0000
,  // measure 39
1000
0000
0100
0000
,  // measure 40
0010
0000
0001
0000
,  // measure 41
1000
0000
0001
0000
,  // measure 42
0000
0000
0110
1001
,  // measure 43
0110
0000
0010
0000
,  // measure 44
1000
0000
0100
0000
,  // measure 45
0010
0000
0200
0000
,  // measure 46
0000
0000
0000
0300
,  // measure 47
0010
0000
0001
0000
,  // measure 48
1000
0000
0010
0000
,  // measure 49
1000
0000
0002
0000
,  // measure 50
0000
0000
0000
0003
,  // measure 51
1000
0000
0020
0000
,  // measure 52
0000
0000
0000
0030
,  // measure 53
0100
0000
0020
0000
,  // measure 54
0000
0030
0100
0000
,  // measure 55
0001
0000
0010
0000
,  // measure 56
0100
0000
1000
0000
,  // measure 57
0001
0000
2000
0000
,  // measure 58
0000
0000
0000
3000
,  // measure 59
0010
0000
1000
0000
,  // measure 60
0100
0000
1000
0000
,  // measure 61
0001
0000
0100
0000
,  // measure 62
0001
0000
0010
0000
,  // measure 63
0001
0000
1000
0000
,  // measure 64
0100
0000
1000
0000
,  // measure 65
0010
0000
0100
0000
,  // measure 66
0002
0000
0000
0000
,  // measure 67
0003
0000
0000
0000
;
