#TITLE:No.13;
#SUBTITLE:;
#ARTIST:TAKA respect for J.S.B.;
#TITLETRANSLIT:;
#SUBTITLETRANSLIT:;
#ARTISTTRANSLIT:;
#GENRE:;
#CREDIT:;
#BANNER:No.13.png;
#BACKGROUND:No.13 -background.png;
#LYRICSPATH:;
#CDTITLE:;
#MUSIC:No.13.ogg;
#OFFSET:0.090000;
#SAMPLESTART:51.545910;
#SAMPLELENGTH:11.162788;
#SELECTABLE:YES;
#BPMS:0.000000=172.000000
;
#STOPS:
;
#BGCHANGES:;
#KEYSOUNDS:;
#ATTACKS:;

//---------------dance-single - ----------------
#NOTES:
     dance-single:
     :
     Challenge:
     18:
     0.999223,1.136771,0.362498,0.214203,1.178118,849.000000,805.000000,44.000000,26.000000,0.000000,0.000000,0.999223,1.136771,0.362498,0.214203,1.178118,849.000000,805.000000,44.000000,26.000000,0.000000,0.000000:
// measure 0
0000
0000
0000
0000
,  // measure 1
0000
0000
0000
0000
,  // measure 2
0000
0000
0000
0000
,  // measure 3
0000
0000
0000
0000
,  // measure 4
0000
0000
0000
0000
,  // measure 5
1000
0100
1000
0000
0001
0100
0001
0000
1000
0100
1000
0010
0000
0010
0100
0000
,  // measure 6
0001
0010
0001
0000
1000
0010
1000
0000
0001
0010
0001
1000
0000
1000
0001
0000
,  // measure 7
0100
0010
0100
0000
0001
1000
0001
0000
0010
0100
0010
0100
0000
0100
1000
0000
,  // measure 8
0010
1000
0010
0000
0100
0001
0100
0000
0001
0010
0100
0010
0000
0000
1100
0000
,  // measure 9
0000
0000
0100
1000
0010
0000
0100
0001
1000
0000
0001
0010
0100
0000
0010
0001
,  // measure 10
1000
0000
0010
0100
0001
0000
1000
0010
0100
0000
0001
1000
0002
0000
2003
0000
,  // measure 11
3100
0000
0010
0001
0100
0000
0001
1000
0010
0000
0100
0001
0010
0000
0100
1000
,  // measure 12
0010
0000
0100
0001
1000
0000
0100
0010
0001
0000
0010
0100
1000
0000
1001
0000
,  // measure 13
0000
0000
0001
0100
0010
0000
1000
0100
0010
0000
0100
1000
0001
0000
1010
0000
,  // measure 14
0000
0000
1000
0001
0010
0000
0100
0010
0001
0000
1000
0010
0100
0000
0101
0000
,  // measure 15
0000
0000
0001
0010
0100
0000
1100
0000
0000
0000
1000
0100
0010
0000
0011
0000
,  // measure 16
0010
0001
0100
0000
0010
1000
0001
0000
0010
0100
1000
0000
0100
0010
0001
0000
,  // measure 17
2000
0000
0000
3010
,  // measure 18
0101
0000
0100
0000
0001
0010
0000
0100
0000
0010
0001
1000
0010
0000
0100
0000
,  // measure 19
0001
0000
1000
0000
0001
1000
0000
0010
0000
1000
0100
0000
0010
0100
0000
0010
,  // measure 20
0000
0100
0001
0000
0100
1000
0000
0100
0001
0000
0100
1000
0000
0100
0010
0000
,  // measure 21
0001
1000
0100
0000
0010
0100
0000
1000
0000
0001
0100
0001
0010
0000
0001
0000
,  // measure 22
1000
0001
0100
0000
0001
0010
0000
0100
0000
0010
0001
1000
0010
0000
0010
0000
,  // measure 23
0100
0000
0001
0000
0100
0010
0000
1000
0000
0100
0010
0100
1000
0001
0000
0001
,  // measure 24
1000
0000
0001
0000
0100
1000
0000
1000
0100
0000
0100
0001
0000
0001
0100
0000
,  // measure 25
0010
1000
0010
1000
0001
0100
0001
0100
0001
0010
0001
0010
0100
1000
0100
1000
,  // measure 26
0001
0000
1000
0100
0001
0000
0001
0100
1000
0000
1000
0100
0001
0000
0001
0100
,  // measure 27
1000
0100
1000
0100
0010
0001
0010
0001
0100
0001
0100
0001
1000
0010
1000
0010
,  // measure 28
1000
0000
1000
0010
0001
0000
0001
0010
1000
0000
1000
0010
0100
0000
0001
0000
,  // measure 29
1000
0100
1000
0100
1000
0100
0010
0001
1000
0001
0100
0000
0001
1000
0100
0000
,  // measure 30
0010
0001
0010
0001
0010
0100
1000
0001
0100
0000
0010
1000
0010
0100
0010
1000
,  // measure 31
0001
1000
0010
1000
0001
0010
0001
1000
0100
1000
0001
0100
0001
0010
0100
1000
,  // measure 32
0100
0100
1000
1000
0010
0010
0100
0200
,  // measure 33
0000
0000
0000
0000
0000
0000
0310
1001
,  // measure 34
0000
0000
0000
0000
0001
1000
0000
0010
0000
0100
0010
1000
0100
0000
0100
0000
,  // measure 35
0010
0001
0100
0000
0001
1000
0000
0100
0000
0010
0100
0000
1000
0010
0000
0100
,  // measure 36
0000
0001
0010
0000
1000
0010
0000
0001
0100
0000
0010
0100
0000
0010
1000
0000
,  // measure 37
0001
1000
0100
1000
0001
0100
0001
1000
0100
0010
0001
0010
0100
0010
0001
1000
,  // measure 38
0010
0000
1000
0010
1000
0000
0010
0100
0010
0000
0100
0001
0100
0000
0001
0000
,  // measure 39
0010
0001
1000
0010
1000
0001
0100
0001
1000
0100
0010
0100
1000
0001
0100
0001
,  // measure 40
1000
0000
0100
1000
0100
0000
0010
0100
0010
0000
0100
1000
0100
0000
1000
0000
,  // measure 41
0020
1000
0130
0101
,  // measure 42
0001
0010
0001
1000
0100
1000
0010
1000
0001
0010
0001
1000
0100
0010
0100
1000
,  // measure 43
0001
1000
0010
1000
0001
0010
0001
1000
0010
1000
0001
0010
0001
1000
0010
1000
,  // measure 44
0002
0000
0000
0000
,  // measure 45
1003
0000
1000
0100
0000
0100
0010
0000
0010
0001
0000
0001
,  // measure 46
0100
0000
0000
0010
1000
0000
0100
0000
0020
0000
0000
0130
1000
0000
0001
0000
,  // measure 47
1000
1000
0100
0100
0010
0010
0100
1000
,  // measure 48
0002
0023
0230
2300
,  // measure 49
3010
0000
0010
0100
0001
0000
0001
1000
0100
0000
0100
1000
0010
0100
0010
0100
,  // measure 50
0001
0000
1000
0001
1001
0000
0001
1000
1001
0000
1000
0001
1001
0000
0001
1000
,  // measure 51
1001
0000
1000
0100
0010
0000
0010
0001
0100
0000
0100
0010
1000
0010
0100
0001
,  // measure 52
0010
0000
0100
0010
0110
0000
0010
0100
0110
0000
0100
0010
0110
0000
0001
0000
,  // measure 53
1000
0010
0001
0010
0100
0001
1000
0100
,  // measure 54
0010
0100
1000
0000
0012
0000
0000
0000
0103
0010
0100
0010
0100
0000
0001
0000
,  // measure 55
1000
0001
0010
0000
1200
0000
0000
0000
0310
0100
0010
0100
0010
0000
0100
0000
,  // measure 56
1000
0010
0100
0000
0102
0000
0000
0000
1003
0010
1000
0010
0100
0000
0001
0000
,  // measure 57
1000
0000
0100
1000
0001
0000
0100
0010
1000
0000
0001
0010
0100
0000
1000
0000
,  // measure 58
0020
0000
0000
0000
,  // measure 59
0130
0001
0100
0010
1000
0010
1000
0001
1000
0001
0010
0001
0010
0100
0010
0100
,  // measure 60
1000
0100
0010
0001
1000
0100
0010
0001
1001
0000
0001
0000
1001
0000
1000
0000
,  // measure 61
1001
1000
0010
1000
0010
0100
0010
0100
0001
0100
0001
0010
0001
0010
0100
0010
,  // measure 62
0100
0010
0001
1000
0100
0010
0100
1000
1001
0000
0001
0000
1001
0000
1000
0000
,  // measure 63
1001
0000
0000
1000
0020
0000
0100
0000
1030
0000
0000
1000
0200
0000
0010
0000
,  // measure 64
1300
0000
0000
0100
0010
0000
0001
0000
0101
0000
0100
0000
0110
0000
0010
0000
,  // measure 65
2010
0000
0000
3001
0020
0000
0100
0000
0031
0000
0000
0010
0002
0000
0100
0000
,  // measure 66
1003
0000
0000
0001
0010
0000
0001
0000
0100
0000
0100
0000
0010
0000
1000
0000
,  // measure 67
0001
0100
1000
0100
0001
0010
1000
0010
,  // measure 68
0001
0100
1000
0010
0001
1000
1001
0000
,  // measure 69
0110
0110
0110
0110
1001
1001
1001
1001
,  // measure 70
0110
0000
1001
0000
0110
0000
1001
0000
0001
0100
0010
1000
0001
0100
0010
1000
,  // measure 71
0001
0001
0010
0100
1000
1000
0100
0010
,  // measure 72
0001
0001
0100
0010
1000
1000
0100
0010
,  // measure 73
0100
1000
0010
0000
0100
0000
0010
0000
0100
0010
1000
0000
0001
0000
1000
0000
,  // measure 74
0001
1000
0100
0000
0010
0000
0200
0000
0000
0000
0000
0000
0000
0000
0000
0000
,  // measure 75
0310
0200
2300
3020
,  // measure 76
0130
0000
0010
1000
0000
0010
0100
0000
0010
1000
0000
1000
,  // measure 77
0001
0010
0001
0010
0001
0010
0001
0010
0100
1000
0100
0010
0100
1000
0001
1000
,  // measure 78
0010
1000
0010
0100
0001
0010
0001
0010
0100
1000
0100
0010
0100
1000
0001
1000
,  // measure 79
0001
0000
0000
1000
0000
0000
0100
0000
0000
0010
0000
0000
0001
0000
0000
0100
0000
0000
0010
0000
0000
1000
0000
0000
0010
0000
0000
0000
0000
0000
0000
0000
0100
0000
0000
0000
0010
0000
0000
0000
0000
0000
0000
0000
1000
0000
0000
0000
,  // measure 80
0001
0000
0000
0000
0000
0000
0000
0000
0010
0000
0000
0000
0100
0000
0000
0000
0000
0000
0000
0000
0010
0000
0000
0000
0001
0000
0000
0010
0000
0000
0100
0000
0000
0010
0000
0000
0100
0000
0000
0000
0000
0000
0010
0000
0000
0000
0000
0000
,  // measure 81
0001
0010
0001
1000
0010
0100
0001
1000
0100
0010
0100
1000
0010
0100
0001
0010
,  // measure 82
0110
1000
0110
0001
2002
0000
0000
0000
,  // measure 83
0000
0000
0000
0000
0000
3003
0000
0000
;

//---------------dance-single - ----------------
#NOTES:
     dance-single:
     :
     Hard:
     15:
     0.662618,0.758980,0.197726,0.115340,0.378975,563.000000,539.000000,24.000000,14.000000,0.000000,0.000000,0.662618,0.758980,0.197726,0.115340,0.378975,563.000000,539.000000,24.000000,14.000000,0.000000,0.000000:
// measure 0
0000
0000
0000
0000
,  // measure 1
0000
0000
0000
0000
,  // measure 2
0000
0000
0000
0000
,  // measure 3
0000
0000
0000
0000
,  // measure 4
0000
0000
0000
0000
,  // measure 5
1000
0000
0010
0000
1000
0000
0100
0000
0010
0000
0001
1000
0000
1000
0000
0000
,  // measure 6
0001
0000
0100
0000
0001
0000
0010
0000
0100
0000
1000
0010
0000
0010
0000
0100
,  // measure 7
0010
0000
1000
0000
0001
0000
0010
0000
0100
0000
1000
0010
0000
0010
0000
1000
,  // measure 8
0001
0000
0010
0000
0001
0000
1000
0000
0010
1000
0100
0010
0000
0000
0110
0000
,  // measure 9
0000
1000
0100
0001
0100
1000
0010
0100
,  // measure 10
0001
0010
1000
0010
0001
1000
1000
1000
,  // measure 11
0001
0100
1000
0100
0010
1000
0001
0010
,  // measure 12
0001
0010
1000
0010
0001
0100
0100
0110
,  // measure 13
0000
0010
1000
0001
0010
0100
0100
0110
,  // measure 14
0000
0000
0010
0000
0001
0000
1000
0000
0010
0000
0100
0000
0010
1000
0001
0000
,  // measure 15
0000
0000
1000
0000
0001
0010
0100
0000
0000
0000
1000
0000
0100
0010
0001
0000
,  // measure 16
0100
0000
0010
1000
0010
0000
0100
0001
0100
0000
0001
0010
0001
0000
0010
0000
,  // measure 17
0200
0000
0000
0300
,  // measure 18
1000
0000
0010
0000
0100
0001
0000
0010
0000
0100
0010
0000
0001
0000
1000
0000
,  // measure 19
0100
0000
1000
0000
0001
0100
0000
0010
0000
0000
1000
0000
0001
1000
0000
0100
,  // measure 20
0000
0000
0010
0000
0000
0100
0000
0000
1000
0000
0000
0010
0000
0000
0100
0000
,  // measure 21
0010
0000
0100
0000
0010
1000
0000
0001
0000
0010
0100
0000
0010
0000
0001
0000
,  // measure 22
1000
0000
0001
0000
0100
0001
0000
0010
0000
0000
0100
0000
1000
0000
0010
0000
,  // measure 23
1000
0000
0001
0000
0010
0001
0000
1000
0000
0000
0001
0000
1000
0100
0000
0010
,  // measure 24
0000
0000
0100
0000
0000
0010
0000
0000
0001
0000
0000
1000
0000
0000
0010
0000
,  // measure 25
0100
0100
0100
0100
,  // measure 26
0110
0000
0010
1000
0001
0000
0010
0100
1000
0000
0100
0010
0001
0000
1000
0000
,  // measure 27
0100
0100
0100
0100
,  // measure 28
0110
0000
0001
0010
0100
0000
0010
0001
1000
0000
0010
0100
0001
0000
1000
0000
,  // measure 29
0001
1000
0001
1000
0001
0010
0100
1000
,  // measure 30
0010
1000
0010
1000
0010
0100
0001
0010
,  // measure 31
0100
1000
0100
0010
0100
1000
0100
0010
,  // measure 32
0001
0001
0010
0010
0100
0100
1000
1000
,  // measure 33
0020
0000
0000
0000
0000
0000
0030
1001
,  // measure 34
0000
0000
0000
0000
0001
0100
0000
0010
0000
1000
0100
0000
0010
0000
0100
0000
,  // measure 35
1000
0000
0001
0000
0010
0001
0000
0100
0000
0000
0010
0000
1000
0100
0000
1000
,  // measure 36
0000
0000
0001
0000
0000
0010
0000
0000
0100
0000
0000
0010
0000
0000
0001
0000
,  // measure 37
1000
0100
0001
0100
1000
0010
0100
0001
,  // measure 38
0010
0000
0000
0001
0010
0000
0000
0010
0100
0000
0000
0100
1000
0000
0001
0000
,  // measure 39
1000
0100
0001
0100
1000
0010
1000
0100
,  // measure 40
0010
0000
0000
0100
0010
0000
0000
0010
0001
0000
0000
0001
1000
0000
0010
0000
,  // measure 41
0200
0000
0000
0300
,  // measure 42
0010
1000
0010
0100
0010
1000
0001
0010
,  // measure 43
0100
0010
0001
0000
0010
0001
0100
0000
0010
0100
0010
0000
0100
0010
1000
0000
,  // measure 44
0002
0000
0000
0000
,  // measure 45
0003
0000
0000
0000
,  // measure 46
1000
0000
0000
1000
0100
0000
0000
0000
0100
0000
0000
0100
0010
0000
0000
0000
,  // measure 47
0010
0000
0000
0010
0001
0000
0000
0000
0001
0000
0000
0001
0100
0000
0000
0000
,  // measure 48
0100
0000
0000
0100
0010
0000
0000
0000
0010
0000
0000
0010
1000
0000
0000
0000
,  // measure 49
1001
0000
0000
1000
0100
0000
0000
0100
0010
0000
0000
0010
0001
0000
0000
0010
,  // measure 50
0100
0000
1000
0001
1000
0000
0010
1000
0010
0000
0100
0001
0100
0000
0010
0000
,  // measure 51
0100
0000
0000
0100
0010
0000
0000
0010
0001
0000
0000
0001
1000
0000
0000
0010
,  // measure 52
1000
0000
0010
1000
0010
0000
0100
0010
0100
0000
0001
0100
0001
0000
0010
0000
,  // measure 53
0100
1000
0010
0001
0010
1000
0001
0010
,  // measure 54
0100
0010
0001
0000
1200
0000
0000
0000
0310
0100
0010
0000
0100
0000
1000
0000
,  // measure 55
0010
1000
0100
0000
0021
0000
0000
0000
0130
0010
0100
0000
0010
0000
0001
0000
,  // measure 56
1000
0001
0100
0000
1020
0000
0000
0000
0130
0010
0100
0000
0001
0000
1000
0000
,  // measure 57
0001
0000
0010
0100
1000
0000
0100
0000
0010
0000
0100
0000
1000
0000
0010
0000
,  // measure 58
0200
0000
0000
0000
,  // measure 59
0301
0100
1000
0010
,  // measure 60
0001
0000
0000
0000
1000
0100
0010
0001
,  // measure 61
1000
0100
0001
0010
,  // measure 62
1000
0000
0000
0000
0001
0010
0100
1000
,  // measure 63
0001
1010
0001
1100
,  // measure 64
1000
0000
0011
0000
0001
0100
1000
0010
,  // measure 65
0001
1100
0010
1001
,  // measure 66
0001
0000
1100
0000
1000
0100
0001
0010
,  // measure 67
1000
1000
0001
0010
0100
0100
0010
0001
,  // measure 68
1000
0100
0010
0100
1000
0001
1001
0000
,  // measure 69
0100
0100
0100
0100
0100
0100
0100
0100
,  // measure 70
0100
0000
0100
0000
0100
0000
0100
0000
0100
0010
0100
0010
0100
0010
0100
0010
,  // measure 71
0100
1001
1010
1001
,  // measure 72
0001
0011
1001
1100
,  // measure 73
1000
0100
0010
0001
,  // measure 74
0010
0000
0100
2000
0000
0000
0000
0000
,  // measure 75
3010
2000
3020
0230
,  // measure 76
0000
0310
1000
0010
0100
0010
1000
0010
,  // measure 77
0100
0100
0001
1000
0010
0010
1000
0001
,  // measure 78
0010
0100
1000
0100
0010
0100
1000
0001
,  // measure 79
0100
0010
1000
0001
0010
0010
0100
0100
,  // measure 80
0010
0010
0001
1000
0010
0100
0001
1000
,  // measure 81
0010
0010
0100
0001
1000
1000
0001
0100
,  // measure 82
0001
0100
1000
0100
0202
0000
0000
0000
,  // measure 83
0000
0000
0000
0303
;

//---------------dance-single - ----------------
#NOTES:
     dance-single:
     :
     Medium:
     13:
     0.553162,0.726644,0.346021,0.131817,0.148295,470.000000,428.000000,42.000000,16.000000,0.000000,0.000000,0.553162,0.726644,0.346021,0.131817,0.148295,470.000000,428.000000,42.000000,16.000000,0.000000,0.000000:
// measure 0
0000
0000
0000
0000
,  // measure 1
0000
0000
0000
0000
,  // measure 2
0000
0000
0000
0000
,  // measure 3
0000
0000
0000
0000
,  // measure 4
0000
0000
0000
0000
,  // measure 5
1000
0000
0000
0000
0100
0000
0000
0000
1000
0000
0000
0001
0000
0100
0000
0000
,  // measure 6
0010
0000
0000
0000
0100
0000
0000
0000
0001
0000
0000
0010
0000
0100
0000
0000
,  // measure 7
0010
0000
0000
0000
0001
0000
0000
0000
1000
0000
0000
0100
0000
1000
0000
0000
,  // measure 8
0001
0000
1000
0000
0010
0100
0000
0110
,  // measure 9
0000
0001
0010
0100
0000
0010
0001
1000
,  // measure 10
0000
0010
0100
0001
0000
0100
0010
0010
,  // measure 11
1000
0100
0010
0001
0000
0010
0001
0100
,  // measure 12
0000
0010
1000
0001
0000
0010
0100
1100
,  // measure 13
0000
1000
0010
0100
0001
0010
0100
1100
,  // measure 14
0000
1000
0010
0100
0001
0010
0100
1100
,  // measure 15
0000
0010
0100
1100
0000
0010
0100
1000
,  // measure 16
0100
0001
0100
1000
0010
0001
0010
1000
,  // measure 17
2002
0000
0000
3003
,  // measure 18
0001
1000
0100
0000
0010
0001
1000
0000
,  // measure 19
0001
0000
0100
0000
0010
1000
0000
0001
0000
0000
0010
0000
0100
0000
0000
1000
,  // measure 20
0000
0000
0001
0000
0000
1000
0000
0000
0100
0000
0000
0010
0000
0000
0100
0000
,  // measure 21
1000
0010
0100
0000
0010
1000
0100
0000
,  // measure 22
0010
0000
0001
0000
0100
0001
0000
0100
0000
0000
0010
0000
1000
0000
0100
0000
,  // measure 23
1000
0000
0001
0000
0010
0001
0000
0100
0000
0000
0010
0000
0100
0001
0000
1000
,  // measure 24
0000
0000
0100
0000
0000
1000
0000
0000
0010
0000
0000
0100
0000
0000
0010
0000
,  // measure 25
1000
1000
1000
1000
,  // measure 26
1100
0110
0011
0110
,  // measure 27
0001
0001
0001
0001
,  // measure 28
0011
0000
0110
0000
0000
1001
0000
0001
,  // measure 29
0100
0100
0001
0010
0100
1000
0001
0000
,  // measure 30
1000
1000
0100
0010
0100
1000
0010
0000
,  // measure 31
0200
0301
0020
0130
,  // measure 32
1000
0100
0010
0001
1000
0001
0100
0010
,  // measure 33
2000
0000
0000
0000
0000
0000
3000
0011
,  // measure 34
0000
0000
0000
0000
0001
0000
0000
1000
0000
0000
0010
0000
0100
0000
0100
0000
,  // measure 35
0001
0000
0010
0000
0001
1000
0000
0100
0000
0000
0010
0000
0100
1000
0000
0010
,  // measure 36
0000
0000
0100
0000
0000
0010
0000
0000
1000
0000
0000
0001
0000
0000
0010
0000
,  // measure 37
0100
1000
0100
0000
1000
0010
1000
0000
,  // measure 38
0110
0101
0110
0101
,  // measure 39
0001
0010
0001
0000
0100
0001
0100
0000
,  // measure 40
0101
1001
1100
1001
,  // measure 41
0020
0000
0000
0000
0000
0030
1001
0000
,  // measure 42
1000
0100
0010
0100
1000
0001
0100
0000
,  // measure 43
0010
1000
0010
0100
0010
1000
0010
0100
,  // measure 44
0002
0000
0000
0000
,  // measure 45
0013
1000
0010
0001
,  // measure 46
1000
0000
0000
0010
0000
0000
1000
0000
0100
0000
0000
0010
0000
0000
0001
0000
,  // measure 47
0100
0000
0000
0001
0000
0000
0010
0000
0100
0000
0000
0010
0000
0000
0001
0000
,  // measure 48
1000
0000
0000
0100
0000
0000
0010
0000
0100
0000
0000
1000
0000
0000
0010
0000
,  // measure 49
0100
0001
0010
1000
,  // measure 50
1010
0011
0101
1001
,  // measure 51
1001
0001
0100
1000
,  // measure 52
1100
0000
0101
0000
0000
0011
0000
0001
,  // measure 53
1000
0100
1000
0010
0100
0001
0010
0100
,  // measure 54
1000
1000
0200
0000
1300
0010
1000
0001
,  // measure 55
0010
0010
0200
0000
0310
0010
0001
1000
,  // measure 56
0001
1000
0200
0000
0310
0010
0100
1000
,  // measure 57
0100
0010
0001
0010
0100
1000
0010
0100
,  // measure 58
0002
0000
0000
0000
,  // measure 59
1003
0100
0001
0010
,  // measure 60
1000
0000
0000
0000
0001
0100
0010
1000
,  // measure 61
0001
0100
1000
0010
,  // measure 62
0001
0000
0000
0000
1000
0010
0100
0001
,  // measure 63
1001
1100
0110
0011
,  // measure 64
1001
0000
0000
0000
1000
0100
0010
0001
,  // measure 65
0011
1001
1010
1100
,  // measure 66
1010
0000
0000
0000
0001
0010
0100
1000
,  // measure 67
0001
1000
0010
1000
0100
1000
0001
1000
,  // measure 68
0001
0100
0001
0100
0010
1000
1001
0000
,  // measure 69
1000
1000
0100
0100
0010
0010
0001
0001
,  // measure 70
0100
0000
0100
0000
0100
0000
0100
0000
0100
0010
0100
0010
0100
0010
0100
0010
,  // measure 71
0100
0001
0010
1000
,  // measure 72
0010
0001
0100
1000
,  // measure 73
0100
0001
0100
0010
,  // measure 74
1000
0000
0100
0020
0000
0000
0000
0000
,  // measure 75
0130
2000
3200
0320
,  // measure 76
0000
0130
1000
0010
0100
0001
1000
0000
,  // measure 77
0001
0100
0001
0000
0100
0010
0100
0000
,  // measure 78
0010
1000
0010
0100
0010
1000
0001
0000
,  // measure 79
1000
0100
0010
0000
0100
1000
0010
0000
,  // measure 80
0100
0001
0010
0000
0100
0010
0001
0000
,  // measure 81
1000
0001
0100
0010
,  // measure 82
1000
0100
0001
0100
2000
0000
0000
0000
,  // measure 83
0000
0000
0000
0000
,  // measure 84
3000
0000
0000
0000
;

//---------------dance-single - ----------------
#NOTES:
     dance-single:
     :
     Easy:
     9:
     0.397806,0.588235,0.230681,0.090624,0.000000,338.000000,310.000000,28.000000,11.000000,0.000000,0.000000,0.397806,0.588235,0.230681,0.090624,0.000000,338.000000,310.000000,28.000000,11.000000,0.000000,0.000000:
// measure 0
0000
0000
0000
0000
,  // measure 1
0000
0000
0000
0000
,  // measure 2
0000
0000
0000
0000
,  // measure 3
0000
0000
0000
0000
,  // measure 4
0000
0000
0000
0000
,  // measure 5
0001
0010
0001
0100
,  // measure 6
0010
1000
0100
0010
,  // measure 7
0100
1000
0001
0100
,  // measure 8
0001
0000
0010
0000
0100
0010
0000
0011
,  // measure 9
0000
0001
0100
0000
0001
0000
1000
0000
,  // measure 10
0100
0000
0010
0000
0100
0000
1000
0010
,  // measure 11
0100
0010
1000
0001
,  // measure 12
0010
0000
0100
0000
0010
0000
0001
0100
,  // measure 13
0000
0000
0010
0000
1000
0000
0001
0100
,  // measure 14
0000
0000
0001
0000
1000
0000
0001
0100
,  // measure 15
0000
0001
0100
0001
0000
0001
0100
0001
,  // measure 16
0100
0100
0100
0100
,  // measure 17
0020
0000
0000
0030
,  // measure 18
1000
0010
1000
0001
,  // measure 19
0010
0100
0010
0001
,  // measure 20
1000
0100
1000
0010
,  // measure 21
0100
0001
0010
0100
,  // measure 22
0010
0001
0100
0001
,  // measure 23
1000
0010
1000
0001
,  // measure 24
1000
0100
0010
0001
,  // measure 25
0100
0100
0100
0100
,  // measure 26
0110
1001
0110
1001
,  // measure 27
0010
0010
0010
0010
,  // measure 28
1001
0000
0110
0000
0000
1001
0000
0001
,  // measure 29
0100
0010
2000
3100
,  // measure 30
1000
0010
0200
0301
,  // measure 31
0010
1000
0010
0001
,  // measure 32
1000
0100
0010
0001
,  // measure 33
0200
0000
0000
0000
0000
0000
0300
1001
,  // measure 34
0000
1000
0010
0100
,  // measure 35
0001
0010
0100
0010
,  // measure 36
0002
0000
0000
0000
,  // measure 37
0103
0100
0100
0100
,  // measure 38
0110
1001
1010
1001
,  // measure 39
0001
0001
0001
0001
,  // measure 40
0011
1001
1100
1001
,  // measure 41
1000
1000
1000
1010
,  // measure 42
0001
0001
0001
0101
,  // measure 43
2000
3010
0002
0013
,  // measure 44
0200
0000
0000
0000
,  // measure 45
0300
0000
0000
0000
,  // measure 46
1000
0001
0010
0001
,  // measure 47
0100
0100
0010
0010
,  // measure 48
1000
0001
0010
0100
,  // measure 49
1000
0100
0010
0001
,  // measure 50
1100
0110
0011
1001
,  // measure 51
0001
0010
0100
1000
,  // measure 52
1001
0000
1010
0000
0000
1001
0000
0001
,  // measure 53
0100
0001
0010
0100
,  // measure 54
1000
0100
1000
0000
0100
0000
1000
0000
,  // measure 55
0010
1000
0010
0000
0100
0000
0001
0000
,  // measure 56
1000
0010
1000
0000
0010
0000
0100
0000
,  // measure 57
0001
0000
0010
0000
1000
0000
0010
0001
,  // measure 58
0200
0000
0000
0000
,  // measure 59
0301
0100
0010
1000
,  // measure 60
0001
0000
0000
0000
1000
0100
0010
0001
,  // measure 61
1000
0010
0100
0001
,  // measure 62
1000
0000
0000
0000
0001
0010
0100
1000
,  // measure 63
0001
0010
0100
1000
,  // measure 64
0100
0000
0000
0000
1000
0100
0010
0001
,  // measure 65
1000
0001
0100
0001
,  // measure 66
0010
0000
0000
0000
0100
0010
0001
1000
,  // measure 67
0010
0010
0100
0100
,  // measure 68
0001
0100
0010
1001
,  // measure 69
1000
0001
1000
0001
1000
0001
1000
0001
,  // measure 70
1000
0001
1000
0001
1000
0001
1000
0001
,  // measure 71
1000
0010
0100
0001
,  // measure 72
0000
0010
0100
1000
,  // measure 73
0100
0000
1000
0000
,  // measure 74
0010
0000
0100
0002
0000
0000
0000
0000
,  // measure 75
1003
0001
0010
0100
,  // measure 76
0000
0010
0001
0100
,  // measure 77
0010
1000
0001
0010
,  // measure 78
0001
1000
0100
0010
,  // measure 79
0110
0100
1000
0010
,  // measure 80
0100
0100
0010
0010
,  // measure 81
0100
0010
1000
0001
,  // measure 82
1000
0100
1000
0001
0200
0000
0000
0000
,  // measure 83
0000
0000
0000
0000
,  // measure 84
0300
0000
0000
0000
;

//---------------dance-single - ----------------
#NOTES:
     dance-single:
     :
     Beginner:
     5:
     0.157710,0.310492,0.090624,0.090624,0.000000,134.000000,123.000000,11.000000,11.000000,0.000000,0.000000,0.157710,0.310492,0.090624,0.090624,0.000000,134.000000,123.000000,11.000000,11.000000,0.000000,0.000000:
// measure 0
0000
0000
0000
0000
,  // measure 1
0000
0000
0000
0000
,  // measure 2
0000
0000
0000
0000
,  // measure 3
0000
0000
0000
0000
,  // measure 4
0000
0000
0000
0000
,  // measure 5
0001
0000
0000
0000
,  // measure 6
1000
0000
0000
0000
,  // measure 7
0010
0000
0000
0000
,  // measure 8
1000
0000
0000
0000
,  // measure 9
0100
0000
0000
0000
,  // measure 10
1000
0000
0000
0000
,  // measure 11
0010
0000
0000
0000
,  // measure 12
0100
0000
0000
0000
0000
0000
0000
0001
,  // measure 13
0000
0000
0000
0000
0000
0000
0000
0001
,  // measure 14
0000
0000
0000
0000
0000
0000
0000
0001
,  // measure 15
0000
0000
0000
0001
0000
0000
0000
0001
,  // measure 16
0000
0000
0000
0000
,  // measure 17
0020
0000
0000
0030
,  // measure 18
0100
0000
0000
0000
,  // measure 19
1000
0000
0000
0000
,  // measure 20
0010
0000
1000
0000
,  // measure 21
0001
0000
0000
0000
,  // measure 22
0010
0000
0000
0000
,  // measure 23
0001
0000
0000
0000
,  // measure 24
0100
0000
0010
0000
,  // measure 25
1000
0000
0000
0000
,  // measure 26
0001
0010
0001
0010
,  // measure 27
0001
0000
0000
0000
,  // measure 28
1000
0100
1000
0100
,  // measure 29
1000
0000
0000
0000
,  // measure 30
0010
0000
0000
0000
,  // measure 31
0100
0000
0010
0000
,  // measure 32
1000
0000
0000
0000
,  // measure 33
0002
0000
0000
0000
,  // measure 34
0003
0010
0000
0000
,  // measure 35
0001
0000
0000
0000
,  // measure 36
0100
0000
0000
0000
,  // measure 37
0010
0000
1000
0000
,  // measure 38
0200
0000
0000
0300
,  // measure 39
0010
0000
0100
0000
,  // measure 40
2000
0000
0000
3000
,  // measure 41
0002
0000
0000
0003
,  // measure 42
0100
0000
0010
0000
,  // measure 43
1000
0000
0010
0000
,  // measure 44
0200
0000
0000
0000
,  // measure 45
0300
0000
0000
0000
,  // measure 46
0001
0000
0010
0000
,  // measure 47
0001
0000
1000
0000
,  // measure 48
0100
0000
1000
0000
,  // measure 49
0010
0000
0000
0000
,  // measure 50
1000
0100
0010
0001
,  // measure 51
1000
0000
0000
0000
,  // measure 52
0001
0010
0100
1000
,  // measure 53
0001
0000
1000
0000
,  // measure 54
0010
0000
0000
0000
,  // measure 55
1000
0000
0100
0000
,  // measure 56
1000
0000
0001
0000
,  // measure 57
0100
0000
0010
0000
,  // measure 58
2000
0000
0000
0000
,  // measure 59
3000
0000
0000
0000
,  // measure 60
0000
0000
1001
1001
,  // measure 61
1001
0000
0000
0000
,  // measure 62
0000
0000
0110
0110
,  // measure 63
0110
0000
0010
0000
,  // measure 64
1000
0000
0001
0001
,  // measure 65
1000
0000
0001
0000
,  // measure 66
0010
0000
0100
0100
,  // measure 67
0010
0000
0000
0000
,  // measure 68
0000
0000
0000
1001
,  // measure 69
0020
0000
0000
0000
,  // measure 70
0000
0000
0000
0030
,  // measure 71
1000
0000
0010
0000
,  // measure 72
0100
0000
0001
0000
,  // measure 73
0010
0000
0100
0000
,  // measure 74
0020
0000
0000
0000
,  // measure 75
0030
0001
1000
0001
,  // measure 76
0000
1000
0000
0001
,  // measure 77
0100
0000
0001
0000
,  // measure 78
0010
0000
0001
0000
,  // measure 79
1001
0000
0001
0000
,  // measure 80
1000
0000
0010
0000
,  // measure 81
1000
0000
0100
0000
,  // measure 82
1001
0110
2002
0000
,  // measure 83
0000
0000
0000
3003
;
