#TITLE:Mind Mapping (PIYO Remix);
#SUBTITLE:;
#ARTIST:Ryu☆;
#TITLETRANSLIT:;
#SUBTITLETRANSLIT:;
#ARTISTTRANSLIT:;
#GENRE:EDM;
#CREDIT:;
#BANNER:Mind Mapping (PIYO Remix).png;
#BACKGROUND:Mind Mapping (PIYO Remix)-bg.png;
#LYRICSPATH:;
#CDTITLE:CDTitle.png;
#MUSIC:Mind Mapping (PIYO Remix).ogg;
#OFFSET:-0.013000;
#SAMPLESTART:98.816536;
#SAMPLELENGTH:15.882355;
#SELECTABLE:YES;
#BPMS:0.000000=136.000000
;
#STOPS:
;
#BGCHANGES:0.000=Mind Mapping (PIYO Remix).avi=1.000=0=0=1=====,
99999=-nosongbg-=1.000=0=0=0 // don't automatically add -songbackground-
;
#KEYSOUNDS:;
#ATTACKS:;

//---------------dance-single - ----------------
#NOTES:
     dance-single:
     :
     Hard:
     11:
     0.394551,0.491818,0.221540,0.450464,0.073847,374.000000,344.000000,30.000000,61.000000,0.000000,0.000000,0.394551,0.491818,0.221540,0.450464,0.073847,374.000000,344.000000,30.000000,61.000000,0.000000,0.000000:
// measure 0
0000
0000
0000
0000
,  // measure 1
0000
0000
0000
0000
,  // measure 2
0000
0000
0000
0000
,  // measure 3
0000
0000
0000
0000
,  // measure 4
0000
0000
0000
0000
,  // measure 5
0000
0000
0000
0000
,  // measure 6
0000
0000
0000
0000
,  // measure 7
0000
0000
0000
0000
,  // measure 8
1000
0010
0100
0001
,  // measure 9
0010
0100
2000
3002
,  // measure 10
1003
0010
0100
0001
,  // measure 11
1000
0000
0000
0001
1000
0000
0000
0000
,  // measure 12
0010
0100
0001
0010
,  // measure 13
0100
0010
0002
2003
,  // measure 14
3100
0000
1000
0000
0010
0000
0100
0001
,  // measure 15
0010
1000
0010
0001
0100
1000
0110
0000
,  // measure 16
1000
0001
0010
0100
0010
0000
0100
0010
,  // measure 17
0001
1000
0010
1000
1001
0000
0110
0000
,  // measure 18
1000
0010
1000
0001
0010
0000
0100
0010
,  // measure 19
0002
0000
0000
0103
0101
0000
0000
0000
,  // measure 20
0010
1000
0100
0010
0100
0000
0010
0001
,  // measure 21
0100
0010
1000
0001
1001
0000
0110
0000
,  // measure 22
0001
0010
0001
1000
0100
0000
0010
0100
,  // measure 23
1000
0100
0001
0100
1000
0010
0001
0010
,  // measure 24
1000
0000
0001
0020
0000
0230
0000
0320
,  // measure 25
0000
0032
0000
0203
0000
0320
0000
2030
,  // measure 26
0000
3001
1000
0200
0000
2300
0000
3020
,  // measure 27
0000
0230
0320
0230
0000
0300
0000
0000
,  // measure 28
0001
0000
0010
0200
0000
0320
0000
0031
,  // measure 29
0010
0100
1000
0002
0000
2003
0000
3010
,  // measure 30
0100
0001
0010
0001
0000
1001
0000
0110
,  // measure 31
0000
0000
1010
0000
0000
0000
0101
0000
0000
0001
0000
0000
0001
0000
0000
0000
,  // measure 32
1100
0000
0000
0000
0010
0001
0000
1000
0000
0010
0000
1000
0200
0000
0000
0000
,  // measure 33
0310
0100
1000
0010
0000
1010
0000
0011
,  // measure 34
0002
0000
0000
0000
0103
0010
0000
1000
0000
0100
0000
1000
0002
0000
0000
0000
,  // measure 35
0103
0000
0010
0000
0000
1000
0000
0000
0001
0000
0000
0010
0000
0000
0100
0000
,  // measure 36
1000
0000
0000
0100
0010
0001
0000
1000
0000
0010
0000
1000
0002
0000
0000
0000
,  // measure 37
1003
0100
1000
0100
0001
0100
1000
0010
,  // measure 38
0200
0000
0000
0302
0000
0000
0023
0000
0000
0230
0000
0000
2000
0000
0000
0000
,  // measure 39
0000
3300
1001
1001
,  // measure 40
0110
0100
0001
0010
,  // measure 41
0100
1000
0100
0100
,  // measure 42
1000
0001
0100
0001
,  // measure 43
0010
0000
0000
0100
1000
0000
0000
0000
,  // measure 44
0100
1000
0010
1000
,  // measure 45
0001
0010
0100
0100
,  // measure 46
0010
0000
0001
0000
1000
0000
0100
0010
,  // measure 47
0001
0000
0000
0000
,  // measure 48
2000
0000
3002
0000
0013
0000
0100
1000
,  // measure 49
0020
2030
3001
1001
,  // measure 50
1000
0000
0001
0000
0010
0000
0100
0010
,  // measure 51
0001
0000
0000
0001
1000
0000
0000
0000
,  // measure 52
0200
0000
2300
0000
3002
0000
0103
0001
,  // measure 53
0020
0230
1300
1001
,  // measure 54
1000
0100
0001
0100
0020
0000
0130
1000
,  // measure 55
0001
0100
1000
0100
0001
0010
1010
0000
,  // measure 56
0011
0010
0001
1000
0010
0000
0100
0001
,  // measure 57
0010
0100
0010
0001
1001
0000
0110
0000
,  // measure 58
1000
0010
1000
0001
0010
0000
0100
0010
,  // measure 59
0002
0000
0000
1003
1010
0000
0000
0000
,  // measure 60
0100
0010
0001
0010
0100
0000
0010
0001
,  // measure 61
1000
0100
0010
0100
1100
0000
0101
0000
,  // measure 62
0001
0100
0010
1000
0001
0000
0010
0100
,  // measure 63
1000
0100
0001
0100
1000
0010
0001
0010
,  // measure 64
1000
0000
0100
2000
0000
3020
0000
0230
,  // measure 65
0000
0302
0000
2003
0000
3200
0000
0320
,  // measure 66
0000
0130
1000
0020
0000
0230
0000
0302
,  // measure 67
0000
2003
3002
2003
0000
3000
0000
0000
,  // measure 68
0101
0000
0001
0020
0000
0230
0000
0310
,  // measure 69
0001
1000
0010
1000
0000
0002
0000
1003
,  // measure 70
0100
0010
0001
1000
0000
0020
0000
0230
,  // measure 71
0000
0000
0302
0000
0000
0000
1003
0000
0000
1000
0000
0000
0101
0000
0000
0000
,  // measure 72
1000
0100
0010
0001
0010
0000
0100
0010
,  // measure 73
0001
0000
0000
0001
0000
0000
0001
0000
1001
0000
0000
0000
0110
0000
0000
0000
,  // measure 74
1001
0000
0000
0000
;

//---------------dance-single - ----------------
#NOTES:
     dance-single:
     :
     Medium:
     8:
     0.297496,0.409848,0.206770,0.088616,0.000000,282.000000,254.000000,28.000000,12.000000,0.000000,0.000000,0.297496,0.409848,0.206770,0.088616,0.000000,282.000000,254.000000,28.000000,12.000000,0.000000,0.000000:
0000
0000
0000
0000
,
0000
0000
0000
0000
,
0000
0000
0000
0000
,
0000
0000
0000
0000
,
0000
0000
0000
0000
,
0000
0000
0000
0000
,
0000
0000
0000
0000
,
0000
0000
0000
0000
,
1000
0100
0010
0100
,
1000
0010
0100
0100
,
0000
0000
0000
0000
,
0000
0000
0000
0000
,
0010
1000
0001
0010
,
0001
0100
0010
0010
,
1000
0100
0010
0001
,
1000
0100
0010
0001
0010
0100
0010
0001
,
1000
0000
0001
0000
1000
0001
0100
0000
,
0010
0000
1000
0000
0100
1000
0010
0000
,
0100
0000
0001
0000
0010
0001
0100
0000
,
0101
0000
0000
1000
1001
0000
0000
0000
,
1000
0001
0010
0000
0100
0000
0010
0000
,
0100
1000
0010
0000
1010
0000
0011
0000
,
0001
0010
0100
0000
0010
0000
0001
0100
,
0010
0000
0000
0000
0000
0000
0000
0100
,
0010
0000
1000
0010
0000
1000
0000
0100
,
0000
1000
0000
0001
0000
0100
0000
0001
,
0000
0010
0100
1000
0000
0100
0000
0010
,
0000
0001
0001
0001
0000
0000
0000
0000
,
1001
0000
1000
0001
0000
0010
0000
0100
,
0010
0001
1000
0100
0000
1000
0000
0010
,
0100
0001
1000
0001
0000
1000
0000
0001
,
0000
0001
0000
2000
0000
0000
3000
0000
,
1001
0000
0001
0000
0100
0010
1000
0000
,
0010
0000
1000
0000
0100
1000
0000
1000
,
0001
0000
0101
0000
0001
0010
0100
0000
,
0010
0001
0100
0001
,
1000
0000
1001
0000
0001
1000
0010
0000
,
1000
0010
0100
0000
0100
0010
1000
0000
,
2002
0000
0000
0000
,
0000
0000
3000
0003
,
0110
0000
0000
0000
,
0000
0000
0000
0000
,
0000
0000
0000
0000
,
0000
0000
0000
0000
,
2000
0000
3020
0000
,
0230
0000
0320
0000
,
2030
0000
3002
0000
,
2000
0000
0000
3003
,
0001
1000
0010
1000
,
0100
0010
0011
1100
,
0100
0000
1000
0000
,
0010
0000
0100
0000
,
0010
0100
0001
1000
,
0100
0010
0011
1100
,
0001
1000
0010
0100
,
0010
0100
0010
1000
0001
0010
0100
0010
,
0001
0000
1001
0000
1000
0001
0100
0000
,
0010
1010
1100
1001
,
0001
0000
1100
0000
1000
0100
0010
0000
,
0110
0000
0000
1000
1100
0000
0000
0000
,
0100
1000
0010
0000
0100
0000
0101
0000
,
0001
0010
0100
0000
0110
0000
1001
0000
,
0001
0100
0010
1000
0100
0000
0010
0100
,
2000
0000
0000
3000
0000
0000
0000
0001
,
1000
0000
0100
1000
0000
0010
0000
0001
,
0000
0010
0000
1000
0000
0100
0000
0001
,
0000
0100
0010
0001
0000
0010
0000
0100
,
0000
1000
1000
1000
0000
0000
0000
0000
,
1100
0000
0100
1000
0000
0010
0000
0100
,
0010
1000
0001
0010
0000
0100
0000
0010
,
0001
0010
0100
1000
0000
0100
0000
1000
,
0000
0001
0000
0200
0000
0000
0300
0000
,
0010
0100
0001
1000
0100
0000
0100
1000
,
0010
0000
0110
0110
,
1001
0000
0000
0000
;

//---------------dance-single - ----------------
#NOTES:
     dance-single:
     :
     Easy:
     6:
     0.193056,0.300555,0.059077,0.059077,0.000000,183.000000,175.000000,8.000000,8.000000,0.000000,0.000000,0.193056,0.300555,0.059077,0.059077,0.000000,183.000000,175.000000,8.000000,8.000000,0.000000,0.000000:
0000
0000
0000
0000
,
0000
0000
0000
0000
,
0000
0000
0000
0000
,
0000
0000
0000
0000
,
0000
0000
0000
0000
,
0000
0000
0000
0000
,
0000
0000
0000
0000
,
0000
0000
0000
0000
,
1000
0000
1000
0000
,
0001
0000
0001
0000
,
0100
0000
0100
0000
,
0010
0000
0010
0000
,
1000
0010
1000
0000
,
0001
0100
0001
0000
,
1000
0100
0010
0001
,
2000
0000
0000
3000
,
0001
1000
0010
1000
,
0001
1000
0001
0001
,
1000
0001
0100
0001
,
0010
0000
0000
0100
1000
0000
0000
0000
,
0100
1000
0010
1000
,
0001
0100
0010
0100
,
0010
1000
0001
0010
,
0100
0000
0000
0000
,
0010
0001
0000
1000
,
0000
0100
0000
1000
,
0000
0010
0000
0100
,
0001
0020
0000
0030
,
0100
0010
0000
0100
,
0000
1000
0000
0001
,
0000
0100
0000
0010
,
1000
1000
2000
0000
,
3001
1000
0010
1000
,
0100
0000
0100
0000
,
0010
0001
0100
0001
,
1000
0000
1000
0000
,
0001
1000
0010
1000
,
0100
0000
0100
0000
,
0220
0000
0000
0000
,
0000
0000
0300
0030
,
1001
0000
0000
0000
,
0000
0000
0000
0000
,
0000
0000
0000
0000
,
0000
0000
0000
0000
,
1000
0000
0010
0000
,
1000
0000
0001
0000
,
0010
0000
0001
0000
,
1000
0000
0000
0000
,
0001
0000
1000
0000
,
0010
0000
1000
0001
,
0100
0000
0010
0000
,
1000
0000
0100
0000
,
1000
0000
0010
0000
,
0100
0000
0001
0000
,
0010
0000
0001
0000
,
1000
0100
0010
1001
,
0001
1000
0010
1000
,
0001
1000
0001
0001
,
0010
0001
1000
0100
,
0010
0000
0000
0100
1000
0000
0000
0000
,
0100
1000
0010
1000
,
0001
0010
0100
0100
,
0010
0001
1000
0010
,
0100
0000
0000
0000
,
0010
1010
1000
0001
,
0010
0100
1000
0100
,
0010
0011
0001
0100
,
0001
2000
0000
3000
,
0001
0110
0010
1000
,
0001
0010
0100
1000
,
0001
1010
1000
0001
,
0100
0100
0200
0000
,
0310
1000
0001
0100
,
0020
0000
0030
0000
,
1001
0000
0000
0000
;

//---------------dance-single - ----------------
#NOTES:
     dance-single:
     :
     Beginner:
     5:
     0.117099,0.191262,0.044308,0.029539,0.000000,111.000000,105.000000,6.000000,4.000000,0.000000,0.000000,0.117099,0.191262,0.044308,0.029539,0.000000,111.000000,105.000000,6.000000,4.000000,0.000000,0.000000:
0000
0000
0000
0000
,
0000
0000
0000
0000
,
0000
0000
0000
0000
,
0000
0000
0000
0000
,
0000
0000
0000
0000
,
0000
0000
0000
0000
,
0000
0000
0000
0000
,
0000
0000
0000
0000
,
0010
0000
0000
0000
,
0100
0000
0000
0000
,
0001
0000
0000
0000
,
1000
0000
0000
0000
,
0010
0000
0000
0000
,
1000
0000
0000
0000
,
0001
0000
0000
0000
,
0100
0000
0000
0110
,
0001
0000
1000
0000
,
0001
0000
0010
0010
,
0001
0000
0100
0000
,
0010
0000
1000
0000
,
0001
0000
1000
0000
,
0100
0000
1000
1000
,
0001
0000
1000
0000
,
0010
0000
0000
0000
,
0100
0000
0010
0000
,
1000
0000
0100
0000
,
1000
0000
0001
0000
,
0200
0000
0300
0000
,
0010
0000
1000
0000
,
0001
0000
0000
0000
,
0010
0000
0001
0000
,
0200
0000
0000
0300
,
0110
0000
0010
0000
,
1000
0000
0000
0000
,
0001
0000
0010
0000
,
0100
0000
0000
0000
,
0010
0000
0001
0000
,
1000
0000
0000
0000
,
1001
0000
0000
0000
,
0000
0000
0000
0000
,
1001
0000
0000
0000
,
0000
0000
0000
0000
,
0000
0000
0000
0000
,
0000
0000
0000
0000
,
1000
0000
0100
0000
,
0010
0000
0001
0000
,
0010
0000
0001
0000
,
1000
0000
0000
0000
,
0001
0000
0000
0000
,
0100
0000
0000
0000
,
0001
0000
0000
0000
,
1000
0000
0001
0000
,
1000
0000
0000
0000
,
0010
0000
0000
0000
,
1000
0000
0100
0000
,
0010
0000
0000
0110
,
1000
0000
0001
0000
,
0010
0000
0001
0001
,
1000
0000
0010
0000
,
0100
0000
0001
0000
,
0010
0000
0001
0000
,
1000
0000
0100
0100
,
1000
0000
0010
0000
,
0100
0000
0000
0000
,
0010
0000
1000
0000
,
0001
0000
0010
0000
,
0100
0000
1000
0000
,
0002
0000
0003
0000
,
1000
0000
0001
0000
,
0100
0000
0010
0000
,
1000
0000
0010
0000
,
0200
0000
0000
0300
,
0010
0000
0100
0000
,
0001
0000
1000
1000
,
1001
0000
0000
0000
;
