#VERSION:0.83;
#TITLE:Millennia;
#SUBTITLE:;
#ARTIST:Pixel Terror;
#TITLETRANSLIT:;
#SUBTITLETRANSLIT:;
#ARTISTTRANSLIT:;
#GENRE:ELECTRONIC;
#ORIGIN:;
#CREDIT:;
#BANNER:Millennia.png;
#BACKGROUND:Millennia-bg.png;
#PREVIEWVID:;
#JACKET:Millennia-jacket.png;
#CDIMAGE:;
#DISCIMAGE:;
#LYRICSPATH:;
#CDTITLE:CDTitle.png;
#MUSIC:Millennia.ogg;
#OFFSET:-0.932000;
#SAMPLESTART:38.431999;
#SAMPLELENGTH:19.200001;
#SELECTABLE:YES;
#BPMS:0.000=100.000;
#STOPS:;
#DELAYS:;
#WARPS:;
#TIMESIGNATURES:0.000=4=4;
#TICKCOUNTS:0.000=4;
#COMBOS:0.000=1;
#SPEEDS:0.000=1.000=0.000=0;
#SCROLLS:0.000=1.000;
#FAKES:;
#LABELS:0.000=Song Start;
#BGCHANGES:;
#KEYSOUNDS:;
#ATTACKS:
;

//---------------dance-single - ----------------
#NOTEDATA:;
#CHARTNAME:;
#STEPSTYPE:dance-single;
#DESCRIPTION:;
#CHARTSTYLE:;
#DIFFICULTY:Hard;
#METER:10;
#RADARVALUES:0.282879,0.367644,0.165013,0.196444,0.239661,252.000000,231.000000,21.000000,25.000000,0.000000,0.000000,0.000000,0.000000,0.000000,0.282879,0.367644,0.165013,0.196444,0.239661,252.000000,231.000000,21.000000,25.000000,0.000000,0.000000,0.000000,0.000000,0.000000;
#CREDIT:Pandemonium X;
#NOTES:
// measure 0
0000
0000
0000
0000
,  // measure 1
0000
0000
0000
0000
,  // measure 2
0000
0000
0000
0000
,  // measure 3
0000
0000
0000
0000
,  // measure 4
2000
0000
0010
0000
3010
0000
0010
0100
,  // measure 5
0002
0000
0010
0000
0010
0000
0013
0100
,  // measure 6
2000
0000
3100
0000
0002
0000
0103
0010
,  // measure 7
1000
0001
0100
0000
,  // measure 8
0010
0010
0010
1000
,  // measure 9
0001
0001
0001
0010
,  // measure 10
0100
0000
0100
0000
0100
0000
1000
0002
,  // measure 11
0000
0000
1003
0002
0000
0000
1003
0001
,  // measure 12
0100
0000
0100
0000
0100
0000
0010
1000
,  // measure 13
0001
0000
0001
0000
0001
0000
1000
0001
,  // measure 14
0010
0100
1000
0100
0010
0100
1000
0001
,  // measure 15
0100
0001
0000
0001
1000
0000
1000
0010
0000
0000
0000
0000
0000
0000
0000
0000
,  // measure 16
1001
0011
0010
1100
,  // measure 17
1001
0101
1000
0011
,  // measure 18
1001
1010
1000
0011
,  // measure 19
0020
0230
2300
3020
,  // measure 20
0130
0000
0101
0000
0001
1000
0100
0000
,  // measure 21
0010
0000
0110
0000
0100
1000
0010
0000
,  // measure 22
0200
0301
0010
0200
,  // measure 23
2300
0000
0000
0000
0010
0000
0000
0000
3001
0000
0000
0000
0100
0010
1000
0002
,  // measure 24
0000
0003
0000
0000
,  // measure 25
0010
0001
1000
0000
,  // measure 26
0010
0100
0001
1001
,  // measure 27
1000
0000
0001
0000
0010
0000
0001
1000
,  // measure 28
0100
0000
0000
0000
0100
0000
1000
0000
0001
0000
0000
0000
0100
0000
0001
0100
,  // measure 29
0001
0000
1000
0000
0001
0000
0010
0100
,  // measure 30
1000
0000
0100
0000
0010
0000
0100
1000
,  // measure 31
0001
0000
0100
0000
0010
0000
0100
0001
,  // measure 32
2000
0000
0000
0000
0000
0000
0000
0000
3000
0000
0000
0001
0100
0001
0000
1000
,  // measure 33
0000
1000
0000
0001
0000
1000
0000
0010
0000
0000
0000
0100
0010
0100
0000
0001
,  // measure 34
0000
0001
0000
0010
0000
0001
0000
1000
0000
0000
0000
0100
1000
0100
0000
1000
,  // measure 35
0000
1000
0000
0010
0000
0010
0000
0100
0000
0000
0000
0000
0001
0000
2000
0000
,  // measure 36
0000
0000
3000
0000
0001
0000
2000
0000
0000
0000
3000
0100
0010
0001
0000
0010
,  // measure 37
0000
0010
0000
0100
0000
1000
0000
0010
0000
0000
0010
0100
0001
1000
0000
0001
,  // measure 38
0000
0001
0000
1000
0000
0010
0000
0100
0000
0000
0010
1000
0010
0100
0000
0001
,  // measure 39
0000
0001
0000
0010
0000
0001
0000
1000
0000
0000
0000
0000
0001
0000
1000
0000
,  // measure 40
0100
0010
0000
0010
0001
0000
0001
1000
0000
0000
0000
0000
0000
0000
0000
0000
,  // measure 41
0110
0000
0000
0110
0000
0000
0110
0000
0000
0000
0000
0000
0000
0000
0000
0000
,  // measure 42
1001
0000
0000
1001
0000
0000
1001
0000
0000
0000
0000
0000
0000
0000
0000
0000
,  // measure 43
1010
0000
0000
0101
0000
0000
1010
0000
0000
0000
0000
0000
0000
0000
0000
0000
,  // measure 44
2000
3200
0320
0032
,  // measure 45
1003
0000
0000
0000
0000
0000
0000
0000
0000
0000
0001
0000
1000
0000
0010
0100
,  // measure 46
0000
0000
0001
0000
1000
0000
0010
0100
0001
0010
0000
0001
0000
1000
0000
0000
,  // measure 47
0200
1000
0310
0200
,  // measure 48
0320
0000
0000
0000
0031
0000
0000
0000
0100
0000
0010
0000
0100
0010
1000
0002
,  // measure 49
0000
0003
0000
0000
;

//---------------dance-single - ----------------
#NOTEDATA:;
#CHARTNAME:;
#STEPSTYPE:dance-single;
#DESCRIPTION:;
#CHARTSTYLE:;
#DIFFICULTY:Medium;
#METER:7;
#RADARVALUES:0.205424,0.328945,0.094293,0.196444,0.047146,183.000000,171.000000,12.000000,25.000000,0.000000,0.000000,0.000000,0.000000,0.000000,0.205424,0.328945,0.094293,0.196444,0.047146,183.000000,171.000000,12.000000,25.000000,0.000000,0.000000,0.000000,0.000000,0.000000;
#CREDIT:Pandemonium X;
#NOTES:
0000
0000
0000
0000
,
0000
0000
0000
0000
,
0000
0000
0000
0000
,
0000
0000
0000
0000
,
2000
0000
0000
3000
,
0002
0000
0000
0003
,
0200
0000
0000
0300
,
0020
0000
0030
0000
,
1000
0001
0010
0001
,
0100
0001
1000
0100
,
0010
0000
0100
0000
1000
0000
0010
0200
,
0000
0300
0000
0000
0010
0000
0200
0000
0000
0300
0000
0000
0010
0000
0000
0000
,
1000
0100
0011
0001
,
0100
0010
1010
1000
,
0001
0100
0001
0100
0010
1000
0010
1000
,
0001
1000
0000
1000
0001
0000
0001
1000
0000
0000
0000
0000
0000
0000
0000
0000
,
0001
0000
1010
0000
1000
0100
0010
0000
,
0100
0000
1100
0000
0100
0010
0001
0000
,
0010
0000
0011
0000
0010
0001
0100
0000
,
0002
2003
3020
0230
,
0301
0000
0101
0000
0001
1000
0100
0000
,
0010
0000
0110
0000
0100
1000
0010
0000
,
0110
0101
0001
1001
,
1100
0000
0000
0000
0100
0000
0000
0000
0110
0000
0000
0000
0100
0000
0000
2000
,
0000
3000
0000
0000
,
0002
0000
0000
0003
,
2000
0000
0000
0010
,
3100
0000
0010
0000
0001
0000
0010
0001
,
0100
0000
0010
1000
0100
0000
0010
0000
,
0100
0000
0010
0000
0001
0000
1000
0010
,
0100
0000
0010
0000
1000
0000
0001
1000
,
0100
0000
0010
0000
0100
0000
0010
0001
,
0100
0010
0100
0001
,
2000
0000
0000
3000
,
0002
0000
0000
0003
,
0020
0000
0000
0000
0000
0000
0130
2000
,
0000
3000
0100
2000
0000
3000
0100
0000
,
0010
0010
0100
0100
,
1000
1000
0001
0001
,
1000
0010
1000
0010
0100
0001
0100
0001
,
1000
0001
0000
0001
1000
0000
1000
0001
0000
0000
0000
0000
0000
0000
0000
0000
,
1000
0000
0000
1000
0000
0000
1000
0000
0000
0000
0000
0000
0000
0000
0000
0000
,
0001
0000
0000
0001
0000
0000
0001
0000
0000
0000
0000
0000
0000
0000
0000
0000
,
0100
0000
0000
0100
0000
0000
0100
0000
0000
0000
0000
0000
0000
0000
0000
0000
,
0020
0230
0302
2003
,
3001
0010
0001
0100
,
0001
1000
0100
1000
,
0010
0200
0300
0001
,
2000
0000
0000
0000
0000
0000
0000
0000
3000
0000
0000
0000
0001
0100
0010
2000
,
0000
3000
0000
0000
;

//---------------dance-single - ----------------
#NOTEDATA:;
#CHARTNAME:;
#STEPSTYPE:dance-single;
#DESCRIPTION:;
#CHARTSTYLE:;
#DIFFICULTY:Easy;
#METER:4;
#RADARVALUES:0.126846,0.174147,0.047146,0.212159,0.000000,113.000000,107.000000,6.000000,27.000000,0.000000,0.000000,0.000000,0.000000,0.000000,0.126846,0.174147,0.047146,0.212159,0.000000,113.000000,107.000000,6.000000,27.000000,0.000000,0.000000,0.000000,0.000000,0.000000;
#CREDIT:Pandemonium X;
#NOTES:
0000
0000
0000
0000
,
0000
0000
0000
0000
,
0000
0000
0000
0000
,
0000
0000
0000
0000
,
2000
0000
0000
3000
,
0002
0000
0000
0003
,
0200
0000
0000
0300
,
0020
0000
0030
0000
,
1000
0001
1000
0000
,
0010
0100
0010
0000
,
1000
0100
1000
0002
,
0003
0000
0000
0100
,
0001
0010
0001
0000
,
1000
0010
1000
0000
,
0001
1000
0010
0100
,
2002
0000
3003
0000
,
0001
0010
0001
1000
,
0100
0010
0100
1000
,
0010
0100
0010
1000
,
0002
0103
2000
3100
,
0010
0001
0010
0001
,
1000
0010
0100
0010
,
1000
1000
0001
0010
,
0010
0100
0010
0001
,
0200
0000
0300
0000
,
0020
0000
0000
0030
,
2000
0000
0000
3001
,
1000
0001
0100
0001
,
0010
0000
0000
0100
,
0010
0001
1000
0100
,
1000
0010
1000
0001
,
0100
0001
0010
0100
,
2000
0000
3000
0000
,
0020
0000
0030
0000
,
0200
0000
0300
0000
,
0002
0000
0003
2000
,
3000
0000
0000
0001
,
2000
0000
3000
0000
,
0020
0000
0030
0000
,
0200
0000
0300
0000
,
2002
0000
3003
0000
,
1010
0000
0000
0000
,
0011
0000
0000
0000
,
1100
0000
0000
0000
,
0101
0001
0010
0001
,
2000
0000
3000
0002
,
0000
0003
0100
0010
,
1000
2000
3000
0001
,
0002
0003
0000
0100
,
0020
0030
0000
0000
;

//---------------dance-single - ----------------
#NOTEDATA:;
#CHARTNAME:;
#STEPSTYPE:dance-single;
#DESCRIPTION:;
#CHARTSTYLE:;
#DIFFICULTY:Beginner;
#METER:2;
#RADARVALUES:0.092048,0.135448,0.039289,0.094293,0.000000,82.000000,77.000000,5.000000,12.000000,0.000000,0.000000,0.000000,0.000000,0.000000,0.092048,0.135448,0.039289,0.094293,0.000000,82.000000,77.000000,5.000000,12.000000,0.000000,0.000000,0.000000,0.000000,0.000000;
#CREDIT:Pandemonium X;
#NOTES:
0000
0000
0000
0000
,
0000
0000
0000
0000
,
0000
0000
0000
0000
,
0000
0000
0000
0000
,
1000
0000
0000
0000
,
0001
0000
0000
0000
,
0100
0000
0000
0000
,
0010
0000
0000
0000
,
1000
0000
0000
0001
,
0010
0000
0000
0100
,
0010
0000
0000
0001
,
0000
0000
0000
0010
,
0001
0000
0000
1000
,
0010
0000
0000
0100
,
0010
0000
0000
0100
,
0002
0000
0003
1000
,
0001
0000
0000
0010
,
0100
0000
0000
1000
,
0010
0000
0000
0100
,
0001
0010
0100
1000
,
0100
0000
0000
1000
,
0001
0000
0100
0001
,
0010
0010
0000
0100
,
0100
0000
0000
0010
,
0002
0003
0000
0000
,
1000
0000
0000
0000
,
0001
0000
0000
0110
,
0010
0000
1000
0000
,
0100
0000
0000
0000
,
0010
0000
0001
0000
,
1000
0000
0010
0000
,
1000
0000
0100
0000
,
0010
0000
0000
0001
,
2000
0000
3000
0000
,
0002
0000
0003
0000
,
0200
0000
0300
0010
,
0000
0000
0000
0100
,
0020
0000
0030
0000
,
0200
0000
0300
0000
,
0002
0000
0003
0000
,
0220
0000
0330
0000
,
1001
0000
0000
0000
,
1001
0000
0000
0000
,
1001
0000
0000
0000
,
1000
0100
0010
0001
,
0200
0300
0000
0000
,
0000
0000
0010
0000
,
1000
1000
0000
0001
,
0001
0000
0000
0000
,
0200
0300
0000
0000
;
