#TITLE:Lekka (Angel Ace Remix);
#SUBTITLE:;
#ARTIST:Bardalimov;
#TITLETRANSLIT:;
#SUBTITLETRANSLIT:;
#ARTISTTRANSLIT:;
#GENRE:UPLIFTING TRANCE;
#CREDIT:;
#BANNER:Lekka (Angel Ace Remix).png;
#BACKGROUND:Lekka (Angel Ace Remix)-bg.png;
#LYRICSPATH:;
#CDTITLE:CDTitle.png;
#MUSIC:Lekka (Angel Ace Remix).ogg;
#OFFSET:0.002000;
#SAMPLESTART:59.121399;
#SAMPLELENGTH:20.869568;
#SELECTABLE:YES;
#BPMS:0.000000=138.000000
,40.000000=69.000000
,56.000000=103.500000
,80.000000=138.000000
,240.000000=69.000000
;
#STOPS:
;
#BGCHANGES:;
#KEYSOUNDS:;
#ATTACKS:;

//---------------dance-single - ----------------
#NOTES:
     dance-single:
     :
     Hard:
     13:
     0.436379,0.743352,0.219350,0.048744,0.402141,376.000000,349.000000,27.000000,6.000000,0.000000,0.000000,0.436379,0.743352,0.219350,0.048744,0.402141,376.000000,349.000000,27.000000,6.000000,0.000000,0.000000:
0000
0000
0000
0000
,
0000
0000
0000
0000
,
1000
0100
0010
0001
1000
0000
0001
0010
,
0000
0001
0100
0000
0110
0000
1001
0000
,
1000
0001
1000
0100
0010
0000
0001
0010
,
0000
1000
0010
0000
0110
0000
1100
0000
,
0001
1000
0001
0010
0100
0000
0010
0001
,
0000
1000
0100
0000
0110
0000
1001
0000
,
0000
0001
0010
0000
0100
1000
0010
0100
,
0001
0010
0100
1000
0001
0001
1000
1000
,
1001
0000
0001
0000
0010
0000
0000
0000
0100
0000
1000
0000
0010
0100
0001
1000
,
0100
0000
0010
0000
0100
0000
0000
0000
0010
0000
0001
0000
0100
0010
1000
0100
,
0010
0000
0001
0000
0100
0000
0000
0000
0001
0000
0010
0000
0100
0010
0001
0100
,
0010
0000
1000
0000
0001
0000
0000
0000
1000
0000
0001
0000
0100
0010
1000
0001
,
0100
0000
0000
0001
0000
0000
0010
0000
0000
0001
0000
0000
1000
0000
0000
0100
,
0000
0000
0000
0000
0010
0000
0000
0000
0000
0000
0100
0000
0000
1000
0000
0000
0010
0000
0000
0000
0000
0000
0100
0000
0000
0000
0000
0000
0001
0000
0000
0000
,
0000
0000
0010
0000
0000
0000
0000
0000
0100
0000
0000
0000
0000
0000
0010
0000
0000
0000
0000
0000
0001
0000
0000
0000
0000
0000
1000
0000
0000
0001
0000
0000
,
0100
0000
0000
0001
0000
0000
0010
0000
0000
0001
0000
0000
1000
0000
0000
0010
,
0000
0000
0000
0000
0100
0000
0000
0000
0000
0000
0010
0000
0000
1000
0000
0000
0100
0000
0000
0000
0000
0000
0010
0000
0000
0000
0000
0000
0100
0000
0000
0000
,
0000
1000
0000
0000
0001
0000
0000
0100
0000
0000
0002
0000
0000
2003
0000
0000
,
3100
1000
0100
0000
1000
0001
0100
0000
,
0010
0100
0010
0000
0100
0001
1000
0000
,
0100
0010
0100
0000
0010
0001
0100
0000
,
0001
0010
0001
0000
0010
0001
1000
0000
,
0001
0100
0001
0000
0100
0010
1000
0000
,
0100
0010
0100
0000
0010
0001
0100
0000
,
0010
0100
0010
0100
0010
0100
0010
0100
0010
0100
0010
0100
0010
0100
0010
0100
,
0010
0100
0010
0100
0010
0100
0010
0100
0010
0100
0010
0100
0000
0000
0010
0000
,
1000
0001
0000
0000
0010
0000
0000
0001
0000
0000
1000
0000
0000
0001
0000
0001
,
0000
0100
0000
0000
0010
0000
0000
1000
0000
0000
0100
0000
0000
0010
0000
0010
,
0100
1000
0000
0000
0001
0000
0000
1000
0000
0000
0010
0000
0000
1000
0000
1000
,
0000
0001
0000
0000
0010
0000
0000
0001
0000
0000
0010
0000
0000
0100
0000
0100
,
1000
0001
0000
0000
0100
0000
0000
0001
0000
0000
0010
0000
0000
0100
0000
0100
,
0000
0010
0000
0000
0001
0000
0000
1000
0000
0000
0010
0000
0000
1000
0000
1000
,
0000
0001
0000
0000
1000
0000
0000
0100
0000
0000
0010
0000
0000
0100
0000
0100
,
0000
0010
0000
0000
0001
0000
0000
0100
0002
0000
0000
0000
2003
0000
0000
0000
,
3100
0010
0000
0000
0001
0000
0000
0100
0000
0000
0010
0000
0000
1000
0000
1000
,
0000
0001
0000
0000
0010
0000
0000
0100
0000
0000
0010
0000
0000
0001
0000
0001
,
0000
1000
0000
0000
0001
0000
0000
0100
0000
0000
0010
0000
0000
1000
0000
1000
,
0000
0100
0000
0000
0010
0000
0000
0100
0000
0000
1000
0000
0000
0001
0000
0001
,
0010
0100
0000
0000
0010
0000
0000
0001
0000
0000
0100
0000
0000
0010
0000
0010
,
0000
1000
0000
0000
0001
0000
0000
0010
0000
0000
0100
0000
0000
0010
0000
0010
,
0000
0100
0000
0000
1000
0000
0000
0001
0000
0000
0100
0000
0000
0010
0000
0010
,
1000
0000
1000
0000
0001
0001
1000
1000
,
1010
1000
0001
0010
,
0110
0100
1000
1100
,
0011
0001
0100
0010
,
1000
0000
0001
0000
1000
1001
0000
0001
,
0101
0001
0010
1000
,
0010
0001
0011
0010
,
1100
0100
1000
0010
,
0110
0000
0010
1000
1010
0000
0101
0000
,
1001
0001
0010
1000
,
0011
0001
0100
1100
,
0101
0001
0010
1000
,
0010
0000
0100
0000
1000
1100
0000
1000
,
1001
0001
0100
1000
,
0100
0001
0110
0010
,
1010
0000
0000
0000
,
0001
0000
0010
0100
1000
0000
0001
0000
,
0220
0000
0000
0000
,
0330
0000
0000
0000
;

//---------------dance-single - ----------------
#NOTES:
     dance-single:
     :
     Medium:
     10:
     0.376028,0.396455,0.211226,0.056868,0.288404,324.000000,298.000000,26.000000,7.000000,0.000000,0.000000,0.376028,0.396455,0.211226,0.056868,0.288404,324.000000,298.000000,26.000000,7.000000,0.000000,0.000000:
// measure 0
0000
0000
0000
0000
,  // measure 1
0000
0000
0000
0000
,  // measure 2
1000
0010
1000
0000
0010
0000
0100
0000
,  // measure 3
0001
0010
1000
0010
,  // measure 4
0001
0100
0001
0000
1000
0000
0001
0000
,  // measure 5
1000
0100
0001
0100
,  // measure 6
1000
0100
0010
0000
0100
0000
1000
0000
,  // measure 7
0010
0001
0010
1000
,  // measure 8
0001
0010
0100
0000
0010
0001
0000
0100
,  // measure 9
0000
0010
0100
0000
0001
0000
1000
0001
,  // measure 10
0100
0001
1000
0000
1000
0001
0010
0000
,  // measure 11
0100
0010
0001
0000
0010
0001
0100
0000
,  // measure 12
0010
1000
0100
0000
0010
0100
1000
0000
,  // measure 13
0001
1000
0010
0000
0100
0010
1000
0000
,  // measure 14
0001
0000
0000
1000
0000
0000
0010
0000
0000
1000
0000
0000
0100
0000
0000
1000
,  // measure 15
0000
0000
0010
0000
0000
0100
0000
0000
0010
0000
0000
1000
0000
0000
0001
0000
,  // measure 16
0000
0010
0000
0000
0100
0000
0000
0010
0000
0000
0001
0000
0000
1000
0000
0000
,  // measure 17
0001
0000
0000
0100
0000
0000
0001
0000
0000
0010
0000
0000
0100
0000
0000
0010
,  // measure 18
0000
0000
0001
0000
0000
1000
0000
0000
0010
0000
0000
0100
0000
0000
0010
0000
,  // measure 19
0000
1000
0000
0000
0001
0000
0000
0010
0000
0000
0200
0000
0000
2300
0000
0000
,  // measure 20
3010
1000
0001
0000
0010
0000
0110
0000
,  // measure 21
0100
1000
0001
0000
0100
0000
1010
0000
,  // measure 22
1000
0001
0010
0000
0100
0000
1100
0000
,  // measure 23
0100
0010
0001
0000
1000
0000
0101
0000
,  // measure 24
0001
1000
0010
0000
0100
0000
0110
0000
,  // measure 25
0010
1000
0001
0000
0010
0000
1100
0000
,  // measure 26
1000
0100
0010
0001
1000
0100
0010
0001
,  // measure 27
1000
0010
0100
0001
0010
0100
0000
0100
,  // measure 28
1000
0000
0000
0000
0100
0000
0000
1000
0000
0000
0010
0000
0000
0100
0000
0100
,  // measure 29
0000
0010
0000
0000
1000
0000
0000
0001
0000
0000
0010
0000
0000
0100
0000
0100
,  // measure 30
0000
0010
0000
0000
0001
0000
0000
1000
0000
0000
0010
0000
0000
1000
0000
1000
,  // measure 31
0000
0001
0000
0000
1000
0000
0000
0100
0000
0000
1000
0000
0000
0010
0000
0100
,  // measure 32
0000
0010
0000
0000
1000
0000
0000
0001
0000
0000
0010
0000
0000
0100
0000
0100
,  // measure 33
0000
1000
0000
0000
0100
0000
0000
0010
0000
0000
0001
0000
0000
1000
0000
1000
,  // measure 34
0000
0001
0000
0000
0010
0000
0000
0100
0000
0000
0010
0000
0000
0001
0000
0001
,  // measure 35
0000
1000
0000
0000
0010
0000
0100
0000
0020
0000
0000
0000
2030
0000
0000
0000
,  // measure 36
3001
0000
0000
0000
1000
0000
0000
0100
0000
0000
0001
0000
0000
0100
0000
0100
,  // measure 37
0000
0010
0000
0000
0001
0000
0000
0010
0000
0000
1000
0000
0000
0010
0000
0010
,  // measure 38
0000
0100
0000
0000
0010
0000
0000
0001
0000
0000
0010
0000
0000
0100
0000
0100
,  // measure 39
0000
0010
0000
0000
0001
0000
0000
1000
0000
0000
0010
0000
0000
0100
0000
0010
,  // measure 40
0000
1000
0000
0000
0001
0000
0000
0010
0000
0000
0001
0000
0000
0010
0000
0010
,  // measure 41
0000
0100
0000
0000
0010
0000
0000
0100
0000
0000
1000
0000
0000
0010
0000
0010
,  // measure 42
0000
0100
0000
0000
0010
0000
0000
0100
0000
0000
0010
0000
0000
1000
0000
1000
,  // measure 43
0001
0000
0001
0000
0001
0001
1000
1000
,  // measure 44
1001
0001
0100
1000
,  // measure 45
1100
0100
0001
0101
,  // measure 46
0011
0001
1000
0100
,  // measure 47
0001
0000
0100
0000
0000
1100
0000
1000
,  // measure 48
0010
0100
0010
1000
,  // measure 49
0001
1000
0110
1000
,  // measure 50
0101
0001
0010
0100
,  // measure 51
0110
0000
0100
1000
1010
0000
0101
0000
,  // measure 52
1001
0001
0010
0001
,  // measure 53
0101
0100
0010
1010
,  // measure 54
1100
0100
0010
0001
,  // measure 55
0010
0000
1000
0000
0000
0011
0000
0001
,  // measure 56
0100
0010
1000
0001
,  // measure 57
0100
0010
1010
0010
,  // measure 58
0012
0000
0000
0000
,  // measure 59
0103
0000
0010
0100
0101
0000
1010
0000
,  // measure 60
2002
0000
0000
0000
,  // measure 61
3003
0000
0000
0000
;

//---------------dance-single - ----------------
#NOTES:
     dance-single:
     :
     Easy:
     6:
     0.280861,0.341211,0.170605,0.032496,0.004062,242.000000,221.000000,21.000000,4.000000,0.000000,0.000000,0.280861,0.341211,0.170605,0.032496,0.004062,242.000000,221.000000,21.000000,4.000000,0.000000,0.000000:
0000
0000
0000
0000
,
0000
0000
0000
0000
,
1001
0001
0010
0001
,
0010
0001
0010
0010
,
0100
1000
0100
1000
,
0100
1000
0100
0100
,
1000
0001
1000
0001
,
1000
0001
1000
1000
,
0010
0000
0100
0000
,
0001
0010
1100
1010
,
0001
1000
0010
1000
,
0100
0010
0001
0010
,
0001
1000
0010
1000
,
0100
1000
0010
0100
,
0001
0000
0000
1000
0000
0000
0010
0000
,
0000
1000
0000
0000
0100
0000
0000
1000
,
0000
0000
0010
0000
0000
0100
0000
0000
,
0001
0000
0000
0010
0000
0000
0100
0000
,
0000
0010
0000
0000
0001
0000
0000
1000
,
0000
0000
0000
0000
0001
0000
0000
0000
0000
0000
1000
0000
0000
0001
0000
0000
,
0100
0010
1000
0010
,
0100
0001
0100
0001
,
1000
0001
1000
0001
,
0010
0100
0010
0100
,
1000
0100
0010
0001
,
0010
0100
1000
0010
,
0100
0100
0010
0010
,
1000
0000
1000
0000
0001
0000
0000
1000
,
0001
0010
0001
0100
,
0010
1000
0100
0010
,
0100
1000
0010
0100
,
0001
1000
0100
1000
,
0010
0100
0010
0001
,
1000
0001
0010
0001
,
0010
0100
0010
0001
,
0100
0010
2000
3002
,
0013
0001
0100
0010
,
1000
0100
1000
0010
,
0100
0010
1000
0001
,
0010
0100
0010
0001
,
1000
0100
1000
0010
,
0100
0001
0010
0100
,
0010
0000
0100
0000
,
1000
0001
0100
0010
,
1001
0001
1000
0010
,
1001
0001
1000
1001
,
0110
0100
0010
1000
,
0001
0000
1000
0000
0000
1001
0000
0010
,
1000
0001
1000
0010
,
0110
0100
0110
0010
,
1001
1000
0001
0100
,
1001
0000
0001
1000
0001
0000
0110
0000
,
1001
0001
1000
0010
,
0110
0010
1000
1001
,
0110
1000
0001
0010
,
0100
0000
1000
0000
0000
1001
0000
1000
,
0001
0010
0001
0100
,
0010
1000
0110
0010
,
2002
0000
0000
3003
,
0001
0000
1000
0010
0100
0000
0001
0000
,
1001
0000
0000
0000
;

//---------------dance-single - ----------------
#NOTES:
     dance-single:
     :
     Beginner:
     3:
     0.099810,0.170605,0.040620,0.008124,0.000000,86.000000,81.000000,5.000000,1.000000,0.000000,0.000000,0.099810,0.170605,0.040620,0.008124,0.000000,86.000000,81.000000,5.000000,1.000000,0.000000,0.000000:
0000
0000
0000
0000
,
0000
0000
0000
0000
,
1000
0000
0001
0000
,
1000
0000
0000
0000
,
0010
0000
0100
0000
,
0010
0000
0000
0000
,
1000
0000
0010
0000
,
1000
0000
0000
0000
,
0001
0000
0000
0000
,
1000
0000
0000
0000
,
0110
0000
0000
0010
,
1000
0000
0000
0001
,
0010
0000
0000
0100
,
1000
0000
0001
1000
,
0010
0000
0000
1000
,
0000
0000
0100
0000
,
0000
0010
0000
0000
,
0100
0000
0000
1000
,
0000
0000
0010
0000
,
0000
0100
0000
0000
,
0010
0000
0000
0000
,
1000
0000
0000
0001
,
1000
0000
0000
0000
,
0100
0000
0000
0010
,
0001
0000
0000
0000
,
0100
0000
0000
0010
,
2000
0000
0000
0000
,
0000
0000
3000
0000
,
1001
0000
0000
0000
,
0001
0000
0000
0000
,
1000
0000
0000
0000
,
0100
0000
0000
0000
,
1000
0000
0000
0000
,
0010
0000
0000
0000
,
0100
0000
0000
0000
,
0001
0000
1000
0000
,
0010
0000
0000
0000
,
1000
0000
0000
0000
,
0100
0000
0000
0000
,
1000
0000
0000
0000
,
0010
0000
0000
0000
,
0100
0000
0000
0000
,
0001
0000
0000
0000
,
1000
0000
0001
0000
,
0110
0000
0000
0000
,
0010
0000
0000
1000
,
0001
0000
0000
0000
,
0000
0000
0000
0000
0000
0010
0000
0000
,
0001
0000
0000
0000
,
0000
0000
1000
0000
,
0010
0000
0000
0000
,
0100
0010
1000
0001
,
1001
0000
0000
0000
,
1000
0000
0000
0001
,
0100
0000
0000
0000
,
0000
0000
0000
0000
0000
0010
0000
0000
,
1000
0000
0000
0000
,
0000
0000
0001
0000
,
1000
0000
0000
0000
,
0100
1000
0001
0100
,
1001
0000
0000
0000
;
