#TITLE:Krater;
#SUBTITLE:;
#ARTIST:Ephexis;
#TITLETRANSLIT:;
#SUBTITLETRANSLIT:;
#ARTISTTRANSLIT:;
#GENRE:FREEFORM NRG;
#CREDIT:;
#BANNER:Krater.png;
#BACKGROUND:Krater-bg.png;
#LYRICSPATH:;
#CDTITLE:;
#MUSIC:Krater.ogg;
#OFFSET:-0.001000;
#SAMPLESTART:23.292282;
#SAMPLELENGTH:15.085712;
#SELECTABLE:YES;
#DISPLAYBPM:*;
#BPMS:0.000000=175.000000
,64.000000=350.000000
,72.000000=175.000000
,168.000000=350.000000
,172.000000=175.000000
;
#STOPS:168.000000=0.086000,
168.500000=0.086000,
169.000000=0.086000,
169.500000=0.086000,
170.000000=0.086000,
170.500000=0.086000,
171.000000=0.043000,
171.250000=0.043000,
171.500000=0.043000,
171.750000=0.043000
;
#BGCHANGES:;
#KEYSOUNDS:;
#ATTACKS:;

//---------------dance-single - ----------------
#NOTES:
     dance-single:
     :
     Hard:
     17:
     0.871115,1.214247,0.194352,0.396803,0.749067,753.000000,729.000000,24.000000,49.000000,0.000000,0.000000,0.871115,1.214247,0.194352,0.396803,0.749067,753.000000,729.000000,24.000000,49.000000,0.000000,0.000000:
// measure 0
0000
0000
0000
0000
,  // measure 1
0000
0000
0000
0000
,  // measure 2
0000
0000
0000
0000
,  // measure 3
0000
0000
0000
0000
,  // measure 4
0000
0000
0000
0000
,  // measure 5
0000
0000
0000
0000
,  // measure 6
0000
0000
0000
0000
,  // measure 7
0000
0000
0000
0000
,  // measure 8
1001
1000
0001
0100
0001
0010
0100
1000
,  // measure 9
0001
1000
0001
0100
0001
0010
0100
1000
,  // measure 10
1001
0001
1000
0010
1000
0100
0010
0001
,  // measure 11
1000
0001
1000
0010
1000
0100
0010
0001
,  // measure 12
1001
1000
0001
0100
0001
0010
0100
1000
,  // measure 13
1001
1000
0001
0100
0001
0010
0100
1000
,  // measure 14
0001
0000
0100
0001
0100
0000
0010
1000
0010
0000
0100
0010
0100
0000
0001
1000
,  // measure 15
0001
0000
0010
0100
1000
0100
1000
0001
0100
0001
0010
0001
1000
0100
0010
0001
,  // measure 16
2000
0000
0000
0000
,  // measure 17
0000
0000
0000
0000
,  // measure 18
3001
1000
0001
0010
0100
1000
0100
0001
,  // measure 19
0100
0010
0100
1000
0001
0100
1000
0100
,  // measure 20
0001
0100
0001
1000
0001
0100
1000
0100
,  // measure 21
0001
0010
0001
1000
0100
0001
0100
1000
,  // measure 22
0001
0010
0100
1000
0001
0100
1000
0100
,  // measure 23
0001
1000
0010
1000
0001
0010
1000
0010
,  // measure 24
0001
0010
0001
1000
0001
0010
1000
0010
,  // measure 25
0001
0001
0100
1000
0100
0100
0010
1000
,  // measure 26
0001
0100
0001
0010
0110
0000
1100
0000
,  // measure 27
1000
0100
1000
0001
0101
0000
0011
0000
,  // measure 28
0100
0010
0001
1000
1010
0000
0011
0000
,  // measure 29
0010
0001
1000
0100
1100
0000
0101
0000
,  // measure 30
1000
0001
0100
0001
0011
0000
1100
0000
,  // measure 31
0100
0010
0001
1000
1010
0000
0101
0000
,  // measure 32
0001
0010
0001
1000
1100
0000
0110
0000
,  // measure 33
0100
0010
0001
0100
0110
0000
1001
0000
,  // measure 34
0001
1000
0100
1000
0002
0203
2300
3200
,  // measure 35
0310
1000
0001
0010
0002
0023
2030
3020
,  // measure 36
0031
0010
0100
1000
0002
0203
2300
3200
,  // measure 37
0310
1000
0001
0010
0002
0023
2030
3020
,  // measure 38
0031
0010
0100
1000
0201
0000
0010
0000
,  // measure 39
0301
0010
0100
1000
0201
0000
0310
0000
,  // measure 40
0100
0010
0100
0010
0100
0010
0100
0010
0100
0010
0100
0010
0100
0010
0100
0010
,  // measure 41
0100
0001
1000
0010
1000
0001
0010
0100
0010
0001
0100
0010
1000
0001
0010
0100
,  // measure 42
1000
0000
1000
0000
0001
0000
0001
0000
0100
0000
0100
0000
0010
0100
0010
0100
,  // measure 43
0010
0000
0000
0010
0000
1000
0001
0000
0010
0000
0000
0100
0000
0010
0001
0000
,  // measure 44
1000
0000
0000
0001
0000
0100
0010
0000
1000
0000
0000
0001
0000
0010
0100
0000
,  // measure 45
0010
0000
0000
0001
0000
1000
0100
0000
0010
0000
0000
0100
0000
1000
0010
0000
,  // measure 46
0100
0000
0000
0001
0000
0010
0100
0000
0010
0000
0000
0001
0000
1000
0010
0000
,  // measure 47
1000
0000
0000
0001
0000
0010
0100
0000
0010
0000
0000
0001
0000
0100
0001
0000
,  // measure 48
1000
0000
0000
0100
0000
0010
0100
0000
1000
0000
0000
0010
0000
0100
0001
0000
,  // measure 49
1000
0000
0000
0100
0000
0010
0001
0000
0010
0000
0000
0100
0000
1000
0100
0000
,  // measure 50
0010
0000
0000
0001
0000
0100
0010
0000
2000
0000
0000
0000
0000
0000
3000
0000
,  // measure 51
0012
0000
0000
0013
0000
0100
1000
0000
0200
0000
0000
1300
0000
0010
0100
0000
,  // measure 52
0002
0000
0000
0013
0000
0100
0010
0000
0002
0000
0000
0103
0000
0010
1000
0000
,  // measure 53
0200
0000
0000
0310
0000
0100
1000
0000
0002
0000
0000
0103
0000
0010
1000
0000
,  // measure 54
0200
0000
0000
1300
0000
0100
0010
0000
0200
0000
0000
1300
0000
0100
0010
0000
,  // measure 55
0200
0000
0000
1000
0000
0310
0001
0000
0200
0000
0000
0010
0000
0301
1000
0000
,  // measure 56
0100
0010
0001
0100
0010
1000
0001
0010
,  // measure 57
0100
1000
0100
1000
0100
1000
0100
1000
0100
1000
0100
1000
0100
1000
0100
1000
,  // measure 58
0001
0000
0000
1000
0000
0000
0100
0000
0000
1000
0000
0000
0001
0000
0000
0100
0000
0000
0010
0000
0000
1000
0000
0000
0001
0000
0000
0010
0000
0000
0100
0000
0000
1000
0000
0000
0001
0000
1000
0000
0001
0000
0000
0000
0000
0000
0000
0000
,  // measure 59
1001
0000
1000
0100
0000
0100
0010
0000
0001
0000
0001
0010
0000
0010
0100
0000
,  // measure 60
0010
0000
0001
0100
0000
0100
0001
0000
1000
0000
0001
0100
0000
0010
1000
0000
,  // measure 61
0100
0000
0010
0100
0000
0100
1000
0000
0100
0000
1000
0010
0000
0010
0100
0000
,  // measure 62
0010
0000
0100
0001
0000
0001
1000
0000
0001
0000
0010
0001
0000
1000
0100
0010
,  // measure 63
0100
0000
1000
0001
0000
0100
0010
0000
1000
0000
0001
0010
0000
0100
0010
0000
,  // measure 64
0100
0000
1000
0010
0000
0100
0001
0000
1000
0000
0001
1000
0000
1000
0001
0000
,  // measure 65
0100
0000
0010
1000
0000
0100
0010
0000
0100
0000
1000
0001
0000
0100
0001
0000
,  // measure 66
0010
0000
0100
0010
0000
0100
1000
0000
0001
0000
1000
0100
0000
0100
0010
0001
,  // measure 67
2000
0000
3001
1000
0000
0001
0010
0000
0100
0000
0010
0100
0010
0100
0010
0001
,  // measure 68
2000
0000
3100
0010
0000
0100
1000
0000
0001
0000
1000
0010
1000
0010
1000
0010
,  // measure 69
0200
0000
0310
1000
0000
0100
0010
0000
0001
0000
1000
0100
1000
0100
1000
0100
,  // measure 70
0020
0000
0031
1000
0000
1000
0100
0000
0020
0000
0130
1000
0100
0010
0100
1000
,  // measure 71
0001
0000
0100
0010
0000
1000
0100
0000
0020
0000
0031
0100
0001
0100
0001
0100
,  // measure 72
0010
0000
0100
0001
0000
0010
0100
0000
2000
0000
3001
0010
0001
0010
0001
0010
,  // measure 73
0100
1000
0100
0010
0100
0010
0001
0010
0001
0100
0001
0100
0010
0100
0010
1000
,  // measure 74
0002
0000
0103
0010
2000
0000
3100
0010
0002
0000
0013
0100
1000
0100
1000
0100
,  // measure 75
1000
0000
0001
0000
1000
0000
0001
0000
0100
0010
0100
0000
0001
0000
0010
0000
,  // measure 76
0001
0000
1000
0000
0001
0000
1000
0000
0100
0010
0100
0000
1000
0000
0010
0000
,  // measure 77
1000
0000
0001
0000
1000
0000
0001
0000
0100
0010
0100
0000
0001
0000
1000
0000
,  // measure 78
0200
0320
0032
0203
,  // measure 79
0310
2000
3200
0000
0320
0000
0130
1000
,  // measure 80
0001
0000
1000
0000
0001
0000
1000
0000
0010
0100
0010
0000
1000
0000
0100
0000
,  // measure 81
1000
0000
0001
0000
1000
0000
0001
0000
0010
0100
0010
0000
0001
0000
0100
0000
,  // measure 82
0010
0000
0100
0000
0001
0000
1000
0000
0001
0010
0100
0000
0010
0000
0001
0000
,  // measure 83
1000
0020
0000
0230
0000
0000
0301
0010
,  // measure 84
0100
0000
0010
0000
0001
0000
1000
0000
0010
1000
0010
0000
0100
0000
0001
0000
,  // measure 85
1000
0000
0100
0000
0010
0000
0100
0000
1000
0001
1000
0000
0001
0000
0010
0000
,  // measure 86
0100
0000
0010
0000
0001
0000
1000
0000
0010
0100
0010
0000
0100
0000
0001
0000
,  // measure 87
0010
0000
0100
0000
0010
0000
0001
0000
1000
0001
1000
0000
0001
0000
0100
0000
,  // measure 88
0001
0000
0010
0000
0001
0000
1000
0000
0100
0010
0100
0000
0010
0000
0001
0000
,  // measure 89
0100
0000
0010
0000
1000
0000
0010
0000
0100
0001
0100
0000
0001
0000
1000
0000
,  // measure 90
0100
0000
0100
0000
0010
0000
0010
0000
0100
0010
0100
0000
0010
0000
0001
0000
;

//---------------dance-single - ----------------
#NOTES:
     dance-single:
     :
     Medium:
     14:
     0.622391,0.809498,0.202450,0.137666,0.323921,538.000000,513.000000,25.000000,17.000000,0.000000,0.000000,0.622391,0.809498,0.202450,0.137666,0.323921,538.000000,513.000000,25.000000,17.000000,0.000000,0.000000:
0000
0000
0000
0000
,
0000
0000
0000
0000
,
0000
0000
0000
0000
,
0000
0000
0000
0000
,
0000
0000
0000
0000
,
0000
0000
0000
0000
,
0000
0000
0000
0000
,
0000
0000
0000
0000
,
1001
0001
0010
1000
,
0010
0001
0100
0001
,
1001
1000
0100
0001
,
0100
1000
0010
0100
,
1001
0010
0100
0010
,
1001
0100
0010
0100
,
1001
0010
1001
0100
,
0001
0100
0010
1000
0100
0001
0100
1000
,
0000
0000
0000
0000
,
0000
0000
0000
0000
,
0001
0000
1000
0000
0010
1000
0100
0000
,
0010
0000
0001
0000
0010
0001
0100
0000
,
0001
0000
1000
0000
0100
1000
0010
0000
,
0100
0000
0010
0000
0100
0001
0010
0100
,
1000
0000
0100
0000
1000
0010
0100
0000
,
0010
0000
1000
0000
0001
0010
0100
0000
,
0010
0000
0001
0000
0100
0001
1000
0000
,
0100
0000
0000
0010
0001
0000
0000
0010
0100
0000
0000
0010
0001
0000
0000
0001
,
1000
0100
0010
0000
0100
1000
0001
0000
,
0100
0010
1000
0001
0010
0100
1000
0000
,
0100
1000
0010
0000
0100
0001
1000
0000
,
0010
0100
0010
1000
0001
0010
0100
0000
,
1000
0100
0010
0000
0100
1000
0010
0000
,
0100
0001
1000
0100
0010
0000
0011
0000
,
0100
1000
0001
0000
0100
0010
1000
0000
,
0001
1000
0100
0010
0001
0010
0100
1000
,
0001
0100
0010
1000
1100
0000
0110
0000
,
0100
1000
0001
0100
0110
0000
0101
0000
,
0001
0010
0100
0010
0011
0000
1100
0000
,
1000
0100
0010
0100
1000
0000
0011
0000
,
0001
0010
0001
1000
1100
0000
0101
0000
,
0001
1000
0010
1000
1010
0000
0011
0000
,
0010
0001
0100
0001
1001
0000
0110
0000
,
1000
0001
0100
0010
1010
0000
0101
0000
,
0001
0000
1000
0000
0001
0000
1000
0000
0001
0000
1000
0000
0001
1000
0001
1000
,
0001
0000
0000
1000
0000
0000
0010
0000
1000
0000
0000
0001
0000
0000
0010
0000
,
0100
0000
0000
1000
0000
0000
0100
0000
1000
0000
0000
0100
0000
0000
0010
0000
,
0001
0000
0000
0010
0000
0000
0001
0000
0100
0000
0000
0010
0000
0000
1000
0000
,
0001
0000
0000
0010
0000
0000
0001
0000
1000
0000
0000
0100
0000
0000
0001
0000
,
0100
0000
0000
1000
0000
0000
0100
0000
0010
0000
0000
0001
0000
0000
0010
0000
,
0100
0000
0000
0010
0000
0000
0001
0000
1000
0000
0000
0010
0000
0000
1000
0000
,
0100
0000
0000
1000
0000
0000
0001
0000
0100
0000
0000
0010
0000
0000
0100
0000
,
0001
0000
0000
1000
0000
0000
0001
0000
0200
0000
0000
0000
0000
0000
0300
0000
,
1001
0000
0000
1000
0000
0000
0100
0000
1000
0000
0000
0010
0000
0000
0100
0000
,
0001
0000
0000
0010
0000
0000
0001
0000
1000
0000
0000
0010
0000
0000
0001
0000
,
0010
0000
0000
1000
0000
0000
0001
0000
0010
0000
0000
0001
0000
0000
1000
0000
,
0100
0000
0000
0010
0000
0000
0100
0000
1000
0000
0000
0100
0000
0000
0001
0000
,
0200
0000
0000
1000
0000
0000
1300
0000
0020
0000
0000
0100
0000
0000
0130
0000
,
0002
0000
0000
1000
0000
0000
1003
0000
0020
0000
0000
0100
0000
0000
0130
0000
,
0001
0000
0000
1000
0010
0000
0000
0010
0100
0000
0000
0100
0001
0000
0000
0001
,
1000
0000
0100
0000
0010
0000
0001
0000
1000
0001
1000
0001
1000
0001
0000
0000
,
1000
0000
0000
0100
0000
0010
0001
0000
0100
0000
0000
0010
0000
0100
0001
0000
,
1000
0000
0000
0001
0000
0010
0100
0000
0010
0000
0000
0001
0000
0100
0010
0000
,
1000
0000
0000
0100
0000
1000
0010
0000
0100
0000
0000
0010
0000
1000
0001
0000
,
0021
0000
0000
0130
0000
0000
1000
0000
1020
0000
0000
0130
0000
0000
0001
0000
,
1000
0000
0000
0001
0000
0010
0001
0000
0100
0000
0000
0010
0000
1000
0001
0000
,
0010
0000
0000
0100
0000
1000
0010
0000
0100
0000
0000
0001
0000
0010
0100
0000
,
1000
0000
0000
0100
0000
1000
0010
0000
0100
0000
0000
0001
0000
0010
0100
0000
,
1000
0000
0000
1000
0100
0000
0000
0100
0010
0000
0000
0010
0001
0000
0000
0001
,
0100
0001
0010
0100
1000
0001
1000
0001
,
1000
0100
0010
0001
0100
0001
1000
0001
,
0010
0100
0010
0001
1000
0010
0100
0010
,
1000
0001
0010
0100
1000
0010
0100
0010
,
1000
0100
0010
0100
2000
3010
0100
0001
,
0010
0100
0010
0001
0200
0310
1000
0010
,
0100
0000
0000
0001
0100
0000
0000
0010
1000
0000
0000
0100
1000
0000
0000
0100
,
0010
0000
0100
1000
0010
0000
0100
0001
0010
0000
0100
1000
0010
0100
0010
0100
,
0001
0000
1000
0000
0100
1000
0010
0100
,
0001
0000
0010
0000
0100
0010
0001
1000
,
0010
0000
0100
0000
0010
1000
0100
1000
,
0002
2003
3020
0230
,
0301
0010
0200
0000
2300
0000
0010
0000
,
3001
0000
0100
0000
0010
1000
0100
1000
,
0001
0000
0010
0000
0100
0010
0001
1000
,
0010
0000
0100
0000
0001
0000
1000
0001
,
1000
0020
0000
0200
0030
0000
0000
0300
,
0001
0000
0010
0000
0100
1000
0100
0010
,
0001
0000
0100
0000
0010
1000
0001
0010
,
0100
0000
0010
0000
0001
0010
0001
1000
,
0100
0000
0010
0000
0100
1000
0010
0100
,
0001
0000
0010
0000
0100
0010
0001
1000
,
0010
0000
0100
0000
0001
1000
0010
0100
,
0001
0000
1000
0000
0001
0000
1000
0000
0001
1000
0001
0000
0100
0000
0010
0000
;

//---------------dance-single - ----------------
#NOTES:
     dance-single:
     :
     Easy:
     9:
     0.474313,0.625521,0.445391,0.340117,0.000000,410.000000,355.000000,55.000000,42.000000,0.000000,0.000000,0.474313,0.625521,0.445391,0.340117,0.000000,410.000000,355.000000,55.000000,42.000000,0.000000,0.000000:
0000
0000
0000
0000
,
0000
0000
0000
0000
,
0000
0000
0000
0000
,
0000
0000
0000
0000
,
0000
0000
0000
0000
,
0000
0000
0000
0000
,
0000
0000
0000
0000
,
0000
0000
0000
0000
,
1001
1000
0010
1000
,
0001
0010
0001
0010
,
1001
0001
0100
0001
,
1000
0100
1000
0100
,
1001
0010
0100
0001
,
1001
1000
0100
0010
,
1001
0010
1001
0100
,
0101
1100
0011
1010
,
0020
0000
0000
0000
,
0000
0000
0000
0000
,
0130
0001
1100
0011
,
0001
0100
0101
1100
,
0100
1000
1010
0011
,
0001
0010
0110
1100
,
0100
1000
1010
0101
,
0001
0010
0110
0011
,
0010
0100
0110
0011
,
0001
0100
0010
1000
,
0001
1000
1010
0011
,
0010
0100
1000
0000
0100
0000
1100
0000
,
0100
1000
0010
0000
0100
0000
0101
0000
,
0001
0010
0100
0000
0010
0000
0011
0000
,
0001
0100
0010
0000
1000
0000
1001
0000
,
1000
0001
0100
0000
0001
0000
0101
0000
,
0001
0100
0010
0000
1000
0000
1010
0000
,
1001
1010
1001
0011
,
0001
1000
0100
0010
0001
0000
1001
0000
,
0001
0010
0100
1000
0001
0000
1001
0000
,
1000
0100
0010
0001
1000
0000
1001
0000
,
0001
0010
0100
1000
0001
0000
1001
0000
,
0001
0100
0010
1000
0001
0000
1001
0000
,
1000
0010
0100
0001
1000
0000
1001
0000
,
0001
0100
0010
1000
0001
0000
1001
0000
,
0001
0100
0010
1000
0001
0000
1001
0000
,
0020
0000
0000
0000
,
0130
0001
0100
0010
,
0100
0001
0100
0010
,
0100
0010
0100
0001
,
0100
0010
0100
0001
,
1000
0100
1000
0001
,
1000
0010
1000
0001
,
1000
0100
1000
0010
,
1000
0001
0200
0300
,
0010
1000
0010
0100
,
0010
1000
0001
0010
,
0100
0010
0001
0100
,
0010
1000
0001
0100
,
0102
0103
2100
3100
,
0102
0103
2100
3100
,
0001
1000
0010
0000
0100
0010
1000
0000
,
0001
0100
0010
1000
0001
0100
0010
0000
,
2000
3100
2000
3010
,
0200
0301
0020
0130
,
2000
3001
0200
0310
,
2000
3010
0200
0301
,
0020
0130
2000
3010
,
0200
0301
0020
0130
,
2000
3001
0200
0310
,
2010
3100
0021
0130
,
2000
3100
0020
0031
,
0200
0310
2000
3001
,
0020
0130
2000
3010
,
0200
0301
0200
0310
,
2000
3010
0200
0301
,
0020
0130
2000
3100
,
1100
0011
1100
0011
,
1000
0001
1000
0001
1000
0001
1000
1000
,
0001
0100
0010
0010
,
0100
0001
1000
1000
,
0100
1000
0010
0010
,
2000
3020
0230
0302
,
1003
0001
0200
0000
0020
0000
0000
0330
,
0010
0100
0010
0010
,
0100
0001
1000
1000
,
0001
0010
0100
0100
,
0100
0010
0000
0210
0000
0000
0000
0000
,
1300
0001
0100
0100
,
0001
1000
0010
0010
,
1000
0100
0010
0001
,
1000
0001
0100
0100
,
0001
1000
0010
0010
,
1000
0001
0100
0100
,
0001
1000
0001
1000
0001
0001
1000
0001
;

//---------------dance-single - ----------------
#NOTES:
     dance-single:
     :
     Beginner:
     6:
     0.204764,0.441544,0.097176,0.040490,0.000000,177.000000,165.000000,12.000000,5.000000,0.000000,0.000000,0.204764,0.441544,0.097176,0.040490,0.000000,177.000000,165.000000,12.000000,5.000000,0.000000,0.000000:
0000
0000
0000
0000
,
0000
0000
0000
0000
,
0000
0000
0000
0000
,
0000
0000
0000
0000
,
0000
0000
0000
0000
,
0000
0000
0000
0000
,
0000
0000
0000
0000
,
0000
0000
0000
0000
,
1001
0000
0000
0000
,
0010
0000
0000
0000
,
1001
0000
0000
0000
,
0100
0000
0000
0000
,
1001
0000
0010
0000
,
1001
0000
0100
0000
,
1001
0000
0110
0000
,
1001
0110
1001
0110
,
0000
0000
0000
0000
,
0000
0000
0000
0000
,
1000
0000
0001
0000
,
0010
0000
0001
0000
,
0100
0000
0010
0000
,
1000
0000
0010
0000
,
1000
0000
0001
0000
,
0010
0000
0001
0000
,
1000
0000
0100
0000
,
1000
0000
0001
0000
,
1001
0000
1000
0001
,
0000
0000
0100
0010
,
0000
0000
1000
0100
,
0000
0000
0010
0100
,
0000
0000
1000
0010
,
0000
0000
0100
0001
,
0000
0000
0010
0001
,
0000
0000
1000
0001
,
0100
0001
0010
0000
,
0100
1000
0010
0000
,
0100
0001
1000
0000
,
0001
1000
0010
0000
,
1000
0100
0010
0100
,
0010
0001
0010
0100
,
0010
0001
0100
0010
,
1000
0001
0010
0100
,
1000
0000
0000
0000
,
0001
0000
1000
0000
,
0001
0000
1000
0000
,
0001
0000
1000
0000
,
0001
0000
0010
0000
,
0001
0000
1000
0000
,
0001
0000
1000
0000
,
0001
0000
1000
0000
,
0001
0000
2000
3000
,
0010
0000
0100
0000
,
0010
0000
0100
0000
,
0010
0000
0100
0000
,
0010
0000
1000
0000
,
0010
0000
0010
0000
,
0010
0000
0010
0000
,
0010
0010
0010
0010
,
0100
0010
1000
0000
,
0001
0000
1000
0000
,
0010
0000
0100
0000
,
0001
0000
0010
0000
,
0100
0000
0010
0000
,
0001
0000
1000
0000
,
0010
0000
1000
0000
,
0100
0000
1000
0000
,
0001
1000
0010
0100
,
0001
0000
0100
0000
,
0010
0000
1000
0000
,
0100
0000
1000
0000
,
0010
0000
0100
0000
,
0001
0000
1000
0000
,
0010
0000
1000
0000
,
0100
0100
0100
0100
,
0010
0001
1000
0010
,
1001
0000
0000
0000
,
1000
0000
0000
0000
,
0010
0000
0000
0000
,
0200
0000
0000
0300
,
0020
0000
0000
0030
,
0100
0000
0000
0000
,
0001
0000
0000
0000
,
0010
0000
0000
0000
,
0200
0000
0300
0000
,
1000
0000
0000
0000
,
0001
0000
0000
0000
,
0100
0000
0000
0000
,
0010
0000
0000
0000
,
1000
0000
0000
0000
,
0001
0000
0000
0000
,
0020
0000
0000
0000
0000
0000
0000
0030
;
