#TITLE:High & Low;
#SUBTITLE:;
#ARTIST:Shouya Namai;
#TITLETRANSLIT:;
#SUBTITLETRANSLIT:;
#ARTISTTRANSLIT:;
#GENRE:;
#CREDIT:;
#BANNER:High & Low.png;
#BACKGROUND:High & Low-bg.png;
#LYRICSPATH:;
#CDTITLE:;
#MUSIC:High & Low.ogg;
#OFFSET:-0.417000;
#SAMPLESTART:36.974422;
#SAMPLELENGTH:13.714287;
#SELECTABLE:YES;
#BPMS:0.000000=105.000000
,56.000000=210.000000
,68.000000=105.000000
,70.000000=210.000000
,134.000000=105.000000
,150.000000=210.000000
,210.000000=105.000000
,212.000000=210.000000
,240.000000=105.000000
,242.000000=210.000000
,302.000000=105.000000
,304.000000=210.000000
;
#STOPS:
;
#BGCHANGES:;
#KEYSOUNDS:;
#ATTACKS:;

//---------------dance-single - ----------------
#NOTES:
     dance-single:
     :
     Hard:
     17:
     0.772537,1.033956,0.648274,0.426712,0.480051,659.000000,580.000000,79.000000,52.000000,0.000000,0.000000,0.772537,1.033956,0.648274,0.426712,0.480051,659.000000,580.000000,79.000000,52.000000,0.000000,0.000000:
0000
0000
0000
0000
,
0000
0000
0000
0000
,
0000
0000
0000
0000
,
0000
0000
0000
0000
,
1000
0001
0000
0100
0010
0000
1000
0100
0000
0010
0001
0000
0100
0001
0010
0001
,
1000
0010
0000
0100
0001
0000
0010
0100
0000
0010
0001
0000
1000
0010
0100
0010
,
1000
0100
0000
0010
0001
0000
0010
0100
0000
0010
0001
0000
0010
0001
0100
0001
,
0010
0100
0000
0010
0001
0000
1000
0100
0000
0010
0100
0000
0100
0010
1001
0000
,
0101
0000
0000
0011
0000
0000
0000
0000
0000
0000
0000
0000
0000
0000
0000
0000
,
1001
0000
0000
1100
0000
0000
0000
0000
0000
0000
0000
0000
0000
0000
0000
0000
,
1010
0000
0000
1001
0000
0000
0000
0000
0000
0000
0000
0000
0000
0000
0000
0000
,
0011
0000
0000
1001
0000
0000
0000
0000
0000
0000
0000
0000
0000
0000
0000
0000
,
1100
0000
0100
0000
0110
0000
0010
0000
0011
0010
0100
0010
0210
0000
0300
0000
,
1001
0000
0001
0000
0101
0000
0100
0000
0110
0010
1000
0001
0021
0000
0030
0000
,
0110
0011
0101
1010
,
1100
0000
0101
0000
1100
0000
1001
1000
,
0001
0000
0100
0000
0010
0000
1000
0000
0001
1000
0001
1000
0001
1000
0001
1000
,
0001
0000
1000
0100
1000
0000
0100
0000
0020
0000
0000
0000
0031
0000
0000
0000
1000
0000
0000
0000
0010
0000
0000
0000
0010
0000
0000
0000
1000
0000
0000
0000
,
0200
0000
0000
0000
0310
0000
0100
0000
1000
0000
0001
0100
0010
0000
1000
0000
,
0002
0000
0000
0003
0010
0100
0100
0010
,
0002
0000
0000
0000
0013
0000
0001
0000
0100
0000
0010
1000
0100
0000
0010
0000
,
0200
0000
0000
0300
0110
0100
0100
1000
,
0020
0000
0000
0000
0130
0000
0001
0000
1000
0000
0001
0010
0100
0000
0010
0000
,
0002
0000
0000
0003
1000
0100
0100
0010
,
0200
0000
0000
0000
0310
0000
0100
0000
1000
0000
0010
0100
0001
0000
1000
0000
,
0020
0000
0130
0000
0001
1000
1001
0000
,
1000
0001
1001
0000
0010
0100
0110
0000
,
0100
0010
0110
0000
0001
0100
0101
0000
,
1000
0000
0010
0000
1010
0000
0000
0000
0001
0000
0100
0010
1000
0000
0100
0000
,
0020
0000
0001
0000
0130
1000
1100
0000
,
1000
0010
1010
0000
0010
0100
0110
0000
,
0100
0001
0101
0000
0001
0010
0011
0000
,
0100
0000
1000
0000
1100
0000
0000
0000
1000
0000
1000
0100
0010
0000
0100
0000
,
2000
0000
0000
0000
3100
0000
0000
0000
0011
0000
0000
0101
0000
0000
0000
0000
,
0000
0000
0000
0000
1000
1000
1000
1000
1010
0000
0000
0101
0002
0000
0023
0000
,
0230
0000
2300
0000
3020
0000
0030
0000
1001
0000
0000
0110
2000
0000
3001
0001
,
0010
0000
0100
0100
2000
0000
3001
1000
1010
0000
0000
1100
0200
0000
0000
0000
,
0310
0000
0001
1000
0001
0000
1000
0000
1010
0000
0000
0000
0011
0000
0000
0000
1001
0000
0000
0000
0000
0000
0000
0000
1000
0000
0000
0000
0000
0000
0000
0000
,
0010
0001
0010
1000
,
0100
0000
0000
0000
0010
0001
0100
0010
,
1000
0001
0010
0100
0010
0001
1000
0010
,
0100
0000
0001
0000
0100
0000
0000
0000
0001
1000
0001
1000
0001
1000
0001
1000
,
0001
1000
0001
1000
0001
1000
0001
1000
0001
1000
0001
1000
0001
1000
0001
1000
,
0001
1000
0001
1000
0001
0000
0000
0000
1000
0001
1000
0001
1000
0010
1000
0010
,
1000
0100
1000
0100
0010
0001
0010
0001
1000
0000
0000
0000
0001
0000
0100
0000
,
0010
0100
0110
0000
0101
0001
0010
0001
,
0100
0010
1000
0100
0001
0100
1000
0010
,
1000
0001
0010
0000
0110
0000
1100
0000
,
0110
0000
0000
0000
0011
0000
0000
0000
0001
0000
0100
0001
0010
0000
0100
1000
,
0010
1001
0102
0013
,
2100
0000
0000
0000
3010
0000
0000
0000
0100
0000
0010
0100
0010
0000
0010
0100
,
0010
0000
0100
0001
2000
0000
0000
0000
3200
0000
0000
0000
2300
0000
0000
0000
,
3020
0000
0000
0000
0030
0000
0000
0000
0020
0000
0000
0000
0030
0000
0000
0000
0100
0000
0100
0000
0010
0000
1000
0000
0001
1000
0001
1000
0001
0000
0000
0000
,
1100
0101
1100
0101
,
0001
1000
0100
0010
0001
0010
0001
0000
,
0210
0300
0200
0300
0200
0320
0230
0320
,
0130
0010
0100
0010
0200
0000
0000
0000
0310
0000
0000
0000
1001
0000
0000
0000
,
1000
0000
1000
0000
1000
0100
0001
0000
,
0100
0000
0010
0000
0001
0000
0100
0000
0010
0100
0010
0100
0010
0000
0000
0000
,
1010
0000
1010
0000
1000
0001
0010
0100
,
1000
0000
0100
0010
0001
0000
0100
0000
0010
0000
0000
0000
1001
0000
0000
0000
1010
0000
0000
0000
0010
0000
0000
0000
0010
0000
0000
0000
1000
0000
0000
0000
,
0002
0000
0000
0000
0013
0000
1000
0000
0010
0000
0100
0010
0001
0000
1000
0000
,
0020
0000
0000
0030
0100
1000
1000
0100
,
0020
0000
0000
0000
0130
0000
0001
0000
0010
0000
0100
0010
0001
0000
1000
0000
,
0020
0000
0000
0030
0100
0010
0010
1000
,
0002
0000
0000
0000
0013
0000
0001
0000
1000
0000
0100
0010
0001
0000
0010
0000
,
0200
0000
0000
0300
0010
0001
0001
1000
,
0020
0000
0000
0000
0130
0000
0001
0000
0010
0000
0100
0010
0001
0000
1000
0000
,
0200
0000
0310
0000
0001
1000
1010
0000
,
1000
0001
0011
0000
0010
0100
1100
0000
,
0100
0010
0011
0000
0001
0100
0110
0000
,
0010
0000
1000
0000
1010
0000
0000
0000
0100
0000
0001
0010
0100
0000
0010
0000
,
0002
0000
0003
0000
1000
0010
0010
0100
,
0020
0000
0000
0000
1030
0000
0100
0000
0001
0000
0100
0010
0001
0000
1000
0000
,
0002
0000
0003
0000
1000
0010
0001
0010
,
0200
0000
0000
0000
0000
0000
0000
0000
0310
0000
0000
0000
1000
0000
0000
0000
0001
0000
1000
0100
0010
0000
0001
0000
1000
0001
1000
0001
1000
0000
0000
0000
,
0010
1000
1000
0010
0200
0000
0310
1000
,
0100
0000
0010
0001
1000
0000
0001
0000
2000
0000
0000
0000
0000
0000
3000
0000
,
0001
0010
0010
0001
0200
0000
0310
1000
,
0001
0000
0010
0100
1000
0000
0100
0000
0020
0000
0000
0000
0030
0000
0000
0000
,
1001
1010
1001
0011
,
1000
0100
0010
0001
1000
0100
0010
0001
,
1000
0010
1000
0010
0100
0001
0100
0001
0010
0001
0010
0001
1000
0100
1000
0100
,
0020
0000
0000
0130
,
1001
0000
0000
0000
;

//---------------dance-single - ----------------
#NOTES:
     dance-single:
     :
     Medium:
     13:
     0.531046,0.620374,0.443124,0.237974,0.098472,453.000000,399.000000,54.000000,29.000000,0.000000,0.000000,0.531046,0.620374,0.443124,0.237974,0.098472,453.000000,399.000000,54.000000,29.000000,0.000000,0.000000:
0000
0000
0000
0000
,
0000
0000
0000
0000
,
0000
0000
0000
0000
,
0000
0000
0000
0000
,
1000
0000
0000
0100
0000
0000
1000
0000
0000
0001
0000
0000
0100
0000
0100
0000
,
0010
0000
0000
1000
0000
0000
0010
0000
0000
0100
0000
0000
0001
0000
0010
0000
,
0100
0000
0000
0010
0000
0000
0001
0000
0000
0010
0000
0000
0100
0000
0100
0000
,
0010
0000
0000
0100
0000
0000
1000
0000
0000
0010
0000
0000
0100
0000
0110
0000
,
1010
0000
0000
0101
0000
0000
0000
0000
0000
0000
0000
0000
0000
0000
0000
0000
,
0011
0000
0000
1100
0000
0000
0000
0000
0000
0000
0000
0000
0000
0000
0000
0000
,
1001
0000
0000
1010
0000
0000
0000
0000
0000
0000
0000
0000
0000
0000
0000
0000
,
1001
0000
0000
0101
0000
0000
0000
0000
0000
0000
0000
0000
0000
0000
0000
0000
,
0001
0000
1000
0000
0010
1000
0200
0000
,
0310
0000
0100
0000
0010
0001
0200
0000
,
0310
1000
0010
0001
,
0010
0100
0001
0010
,
0100
1000
0100
1000
0001
0100
0001
0100
,
0010
1000
0100
0010
0001
0000
0000
0000
1001
0000
0000
0000
1000
0000
0000
0000
,
0010
0000
1000
0000
0100
1000
0010
0100
,
0002
0000
0000
0003
0010
0000
0100
0000
,
1000
0000
0100
0000
0010
0100
1000
0010
,
0200
0000
0000
0300
0010
0000
1000
0000
,
0001
0000
0010
0000
0100
0010
0001
1000
,
0020
0000
0000
0030
0100
0000
0010
0000
,
1000
0000
0001
0000
0010
0100
1000
0100
,
0020
0130
0010
1001
,
0100
1001
0010
1001
,
0100
1001
1000
0011
,
1000
0101
1000
0011
,
1000
0101
0001
1010
,
0001
1100
0001
1010
,
0001
1010
1000
0011
,
0100
0000
1010
0000
0100
0010
1000
0001
,
0020
0000
0000
0000
0130
0000
0000
0000
1001
0000
0000
0011
0000
0000
0000
0000
,
0000
0000
0000
0000
0000
0000
0000
0000
1001
0000
0000
1100
0000
0000
0000
0000
,
0000
0000
0000
0000
0000
0000
0000
0000
1010
0000
0000
0101
0000
0000
0000
0000
,
0000
0000
0000
0000
0000
0000
0000
0000
1001
0000
0000
1010
0000
0000
0000
0000
,
1000
0000
0001
1000
,
0010
1000
0100
0010
,
0001
0000
0000
0000
0010
0001
0010
0000
,
0100
1000
0100
0000
1000
0010
1000
0000
,
0010
0100
0001
0000
0010
0100
0010
0100
,
0010
0100
0010
0100
0010
0100
0010
0100
,
0010
0100
0000
0000
0010
0001
0100
0010
,
1000
0001
0010
0001
2000
0000
3100
0000
,
0002
0103
0110
0010
,
1000
0001
0010
0001
,
1000
0001
0101
0011
,
0101
0000
0011
0000
0001
1000
0010
1000
,
1001
0110
2001
3010
,
1002
0000
0013
0000
0100
0010
0001
0010
,
0200
1300
0200
0310
,
1001
0000
0000
0000
0110
0000
0000
0000
0001
0100
0010
1000
0200
0000
0310
0000
,
1000
0100
0010
0000
0100
1000
0010
0000
,
0100
0001
0010
0000
0100
0010
0001
0000
,
1000
0001
0100
0000
0010
1000
0100
0000
,
0010
0100
1000
0000
0011
0000
0011
0000
,
0001
0100
0010
0000
0100
0001
1000
0000
,
0100
0010
0001
0000
0010
0001
0100
0000
,
0010
1000
0100
0000
0010
0001
0100
0000
,
0010
0100
0010
1000
0001
0000
1100
0000
0001
0000
0000
0000
0010
0000
0000
0000
,
0200
0000
0310
0000
0001
1000
0010
1000
,
0200
0000
0000
0300
0010
0000
0100
0000
,
2000
0000
3010
0000
0100
0001
0010
0001
,
2000
0000
0000
3000
0001
0000
0010
0000
,
0002
0000
0103
0000
0010
1000
0100
1000
,
0020
0000
0000
0030
0100
0000
0010
0000
,
1000
0000
0001
0000
0010
0001
1000
0100
,
2000
3010
0100
0101
,
0001
0010
0100
0000
0010
0000
0011
0000
,
0010
0001
1000
0000
0010
0000
0110
0000
,
0010
1000
0100
0000
0010
0000
0011
0000
,
2000
3000
0001
0101
,
0100
0010
1000
0000
0001
0000
0110
0000
,
0100
0010
0001
0000
1000
0000
1100
0000
,
1000
0000
0010
0000
0100
0000
0000
0000
0001
0100
0010
1000
0200
0000
0310
0000
,
0001
0010
0100
0010
0002
0000
0103
0001
,
1000
0100
0001
0100
2000
0000
0000
0000
,
3001
0100
0100
0001
2000
0000
3001
0010
,
0100
1000
0100
0001
0200
0000
0000
0000
,
0310
0001
0001
0010
0200
0000
0310
0001
,
0100
1000
0100
0001
0100
0010
1000
0001
,
1000
0100
0010
0001
0010
0100
0010
0001
,
2000
0000
0000
3010
,
0101
0000
0000
0000
;

//---------------dance-single - ----------------
#NOTES:
     dance-single:
     :
     Easy:
     9:
     0.344652,0.413583,0.114884,0.180532,0.000000,294.000000,280.000000,14.000000,22.000000,0.000000,0.000000,0.344652,0.413583,0.114884,0.180532,0.000000,294.000000,280.000000,14.000000,22.000000,0.000000,0.000000:
// measure 0
0000
0000
0000
0000
,  // measure 1
0000
0000
0000
0000
,  // measure 2
0000
0000
0000
0000
,  // measure 3
0000
0000
0000
0000
,  // measure 4
1000
0000
0010
0000
1000
0000
0100
0010
,  // measure 5
0001
0000
0010
0000
0001
0000
0100
0001
,  // measure 6
0010
0000
0001
0000
1000
0000
0100
0010
,  // measure 7
0100
0000
0010
0000
0001
0000
1000
0001
,  // measure 8
0101
0000
0000
0000
,  // measure 9
1100
0000
0000
0000
,  // measure 10
0011
0000
0000
0000
,  // measure 11
1010
0000
0000
0000
,  // measure 12
1000
0100
1000
0010
,  // measure 13
0100
0001
0010
0100
,  // measure 14
0010
0001
0100
0010
,  // measure 15
1000
0100
0010
0001
,  // measure 16
1000
0001
0100
0010
,  // measure 17
1000
0100
0020
0030
0100
0000
1000
0000
,  // measure 18
0010
0100
0001
0001
,  // measure 19
0002
0003
0010
0001
,  // measure 20
0100
0010
1000
1000
,  // measure 21
2000
3000
0001
0100
,  // measure 22
0001
0010
0100
0100
,  // measure 23
0200
0300
0010
0001
,  // measure 24
0100
0010
1000
1000
,  // measure 25
2000
3000
0001
1000
,  // measure 26
0010
1000
0001
0010
,  // measure 27
0001
1000
0010
1000
,  // measure 28
0001
0010
0100
0100
,  // measure 29
0200
0300
1000
0100
,  // measure 30
1000
0001
0100
0001
,  // measure 31
1000
0100
1000
0001
,  // measure 32
0100
0001
1000
1000
,  // measure 33
2000
3000
0101
0000
,  // measure 34
0000
0000
0011
0000
,  // measure 35
0000
0000
1100
0000
,  // measure 36
0000
0000
1010
0000
,  // measure 37
0000
0000
1000
1000
,  // measure 38
0001
0001
0100
0100
,  // measure 39
0100
0000
0010
0010
,  // measure 40
1000
1000
0001
0001
,  // measure 41
0001
0000
1000
0100
,  // measure 42
0010
0001
1000
0100
,  // measure 43
0010
0001
0220
0000
,  // measure 44
0000
0000
0330
0000
,  // measure 45
0000
0000
1000
0010
,  // measure 46
1000
0001
0010
0100
,  // measure 47
0010
0001
1000
1000
,  // measure 48
1000
1000
0001
1000
,  // measure 49
1001
1001
0001
0100
,  // measure 50
0001
0010
0001
1000
,  // measure 51
0100
0010
0100
1000
,  // measure 52
0010
0000
0010
0000
0100
0010
2000
3000
,  // measure 53
0001
0010
0001
0100
,  // measure 54
0001
1000
0100
0010
,  // measure 55
0100
1000
0010
0100
,  // measure 56
0001
0010
0011
0011
,  // measure 57
0001
1000
0010
0100
,  // measure 58
0001
0010
0100
0010
,  // measure 59
0001
0100
0010
1000
,  // measure 60
0001
1000
0020
0030
1000
0000
0010
0000
,  // measure 61
1000
0100
0010
0010
,  // measure 62
0020
0030
0100
1000
,  // measure 63
0010
0100
0001
0001
,  // measure 64
0002
0003
1000
0001
,  // measure 65
0100
0001
0010
0010
,  // measure 66
0020
0030
0100
0010
,  // measure 67
0001
1000
0100
0100
,  // measure 68
0200
0300
0010
0100
,  // measure 69
1000
0010
0100
0001
,  // measure 70
0010
0100
0010
0001
,  // measure 71
0100
0010
1000
1000
,  // measure 72
2000
3000
0001
1000
,  // measure 73
0010
1000
0100
0010
,  // measure 74
0100
1000
0010
0100
,  // measure 75
0001
0000
0010
0000
0100
1000
0020
0030
,  // measure 76
1000
0100
1000
0010
,  // measure 77
0100
0100
0200
0300
,  // measure 78
0010
1000
0001
0010
,  // measure 79
0100
0100
0020
0030
,  // measure 80
0100
0010
0001
0100
,  // measure 81
0010
1000
0001
0100
,  // measure 82
0002
0103
2000
3100
,  // measure 83
0020
0000
0000
0030
,  // measure 84
1001
0000
0000
0000
;

//---------------dance-single - ----------------
#NOTES:
     dance-single:
     :
     Beginner:
     5:
     0.182877,0.235512,0.082060,0.032824,0.000000,156.000000,146.000000,10.000000,4.000000,0.000000,0.000000,0.182877,0.235512,0.082060,0.032824,0.000000,156.000000,146.000000,10.000000,4.000000,0.000000,0.000000:
0000
0000
0000
0000
,
0000
0000
0000
0000
,
0000
0000
0000
0000
,
0000
0000
0000
0000
,
1000
0000
0000
0000
,
0001
0000
0000
0000
,
0100
0000
0000
0000
,
0010
0000
0000
0000
,
1001
0000
0000
0000
,
0110
0000
0000
0000
,
1001
0000
0000
0000
,
0110
0000
0000
0000
,
1000
1000
1000
0000
,
0001
0001
0001
0000
,
0100
0000
0010
0000
,
0100
0000
0010
0000
,
1000
0000
0100
0000
,
0020
0030
0100
0000
,
1000
0000
0001
0001
,
0001
0000
1000
0000
,
0001
0000
0100
0100
,
0100
0000
0010
0000
,
1000
0000
0100
0100
,
0100
0000
0010
0000
,
0001
0000
1000
1000
,
1000
0000
0000
0001
,
0000
0001
0000
0001
,
0000
0001
0000
1000
,
0000
1000
0000
1000
,
0000
1000
0000
0010
,
0000
0010
0000
0010
,
0000
0010
0000
0100
,
0000
0100
0000
0100
,
0000
0100
1001
0000
,
0000
0000
0110
0000
,
0000
0000
1001
0000
,
0000
0000
0110
0000
,
0000
0000
1000
0000
,
1000
0000
0001
0000
,
1000
0000
0001
0000
,
0001
0000
1000
0000
,
0001
0000
0100
0000
,
0010
0000
1000
0000
,
0001
0000
0220
0000
,
0000
0000
0330
0000
,
0000
0000
1000
0000
,
1000
0000
1000
0000
,
1000
0000
0001
0000
,
0001
0000
0001
0000
,
0001
0000
0100
0000
,
0100
0000
0100
0000
,
0100
0000
0010
0000
,
0010
0000
0100
0000
,
0010
0000
1000
0000
,
0010
0000
0000
0000
,
0100
0000
0001
0000
,
0100
0000
0000
0000
,
0001
0000
1000
0000
,
0001
0000
0000
0000
,
0010
0000
0001
0000
,
0100
0000
0010
0000
,
1000
0000
0100
0100
,
0100
0000
1000
0000
,
0001
0000
0100
0100
,
0100
0000
0010
0000
,
1000
0000
0001
0001
,
0001
0000
0010
0000
,
0001
0000
1000
1000
,
1000
0000
0000
0001
,
0000
0001
0000
0001
,
0000
0001
0000
1000
,
0000
1000
0000
1000
,
0000
0000
0000
0100
,
0000
0100
0000
0100
,
0000
0100
0000
0010
,
0000
0010
0000
0000
,
0001
0000
1000
0000
,
0010
0000
1000
0000
,
0100
0000
1000
0000
,
0010
0000
0100
0000
,
0001
0000
0010
0000
,
0200
0000
0000
0300
,
1001
0000
0000
0000
;
