#TITLE:閠槞彁の願い;
#ARTIST:DJ TECHNORCH & RoughSketch;
#TITLETRANSLIT:Gyokurouka no negai;
#BANNER:Gyokurouka no negai.png;
#BACKGROUND:Gyokurouka no negai-bg.png;
#JACKET:Gyokurouka no negai-jacket.png;
#CDTITLE:./CDTITLES/BEATMANIA IIDX.PNG;
#MUSIC:Gyokurouka no negai.ogg;
#SAMPLESTART:74.667;
#SAMPLELENGTH:15;
#BPMS:0=90,36=180,48=90,50=180,146=90,150=180,156=90,157=180,163=90,164=180,180=90,184=180,211=90,214=180,240=90,242=180,306=90;
#STOPS:184=0.16666666666666666666666666666667,191.5=0.16666666666666666666666666666667;
#BGCHANGES:2=Gyokurouka no negai.avi=1=0=0=0;

//---------------dance-single - t7r----------------
#NOTES:
     dance-single:
     t7r:
     Beginner:
     5:
     :
0000
0000
0000
0000
,
0000
0000
0000
0000
,
0000
0000
0000
0000
,
0000
0000
0000
0000
,
0000
0000
0000
0000
,
0001
0000
0000
0000
,
1000
0000
0000
0000
,
0010
0010
0010
0000
,
0100
0100
0100
0000
,
1001
0000
0000
0000
,
0000
0000
0000
0000
,
0000
0000
0000
0000
,
1000
0000
0001
0000
,
0001
0000
0010
0000
,
0010
0000
0100
0000
,
0100
0000
1000
0000
,
1000
0000
0001
0000
,
0001
0000
0100
0000
,
0100
0000
0010
0000
,
0010
0000
1000
1000
,
1000
0000
1000
0000
,
1000
0000
1000
1000
,
1000
0000
0001
0000
,
0001
0000
0001
0001
,
0001
0000
0100
0000
,
0100
0000
0100
0100
,
0100
0000
0010
0000
,
0010
0000
0010
0010
,
0010
0000
1001
0000
,
0000
0000
0000
0000
,
0000
0000
0100
0000
,
0000
0000
0000
0000
,
0000
0000
0010
0000
,
0000
0000
0000
0000
,
0000
0000
1000
0000
,
0000
0000
0001
0000
,
0010
0000
0001
0000
,
0000
0000
1000
0000
,
0000
1000
1000
0000
,
1000
0001
0000
0000
,
0001
0001
0000
0001
,
0100
0000
0100
0000
,
0100
0100
0100
0000
,
0010
0010
0010
0000
,
1000
1000
1000
0000
,
0001
0000
0000
0000
,
0000
0010
0000
0000
0000
0000
0000
0010
,
0000
0000
0000
0000
,
0100
0000
0000
0100
,
0000
0000
0000
0000
,
0001
0000
0000
0001
,
0000
0001
0000
0000
,
1000
0000
1000
1000
,
0000
0000
0010
0000
,
0000
0000
0000
0000
,
0000
0000
0000
0000
,
0100
0000
0000
0000
,
0001
0000
0000
0000
,
0001
0000
0000
0000
,
1000
0000
1000
0000
,
1000
0000
0010
0000
,
0010
0000
0010
0010
,
0010
0000
0100
0000
,
0100
0100
0100
0000
,
0100
0000
0001
0000
,
0001
0001
0001
0000
,
0001
0000
1000
1000
,
1000
0000
1000
0000
,
1000
0000
0010
0010
,
0010
0000
1000
1000
,
1000
0000
0001
0001
,
0001
0000
0100
0100
,
0100
0000
0001
0001
,
0001
0000
0010
0010
,
0010
0000
1000
1000
,
1000
0000
0100
0100
,
0100
0000
1001
0000
;

//---------------dance-single - Pandemonium X----------------
#NOTES:
     dance-single:
     Pandemonium X:
     Easy:
     9:
     :
0000
0000
0000
0000
,
0000
0000
0000
0000
,
0000
0000
0000
0000
,
0000
0000
0000
0000
,
0000
0000
0000
0000
,
2000
0000
0010
0000
,
3002
0000
0010
0000
,
1003
0001
0100
0010
,
1000
0001
0100
0010
2000
0000
0000
3000
,
1001
0000
0000
0000
,
0010
0000
0000
0000
,
0010
0000
0000
0000
,
0100
0000
0010
1000
,
0010
0100
0010
1000
,
0001
0010
0100
0010
,
0001
1000
0010
0100
,
0001
0010
0100
1000
0000
0001
0000
0000
,
1000
0000
0000
0001
0000
0100
0000
0000
,
0001
0000
0000
0010
0000
0100
0000
0000
,
0010
0000
0000
0001
2000
0000
3010
0000
,
0200
0301
1001
1000
,
0001
0100
0001
0000
0100
0000
0001
0000
,
1000
0100
0010
0010
,
0100
1000
0100
0000
1000
0000
0001
0000
,
1000
0010
0100
0001
0010
0000
0100
0000
,
1000
1000
0100
0000
0010
0000
0100
0000
,
1000
0001
0100
0001
1001
0000
0001
0000
,
1001
0000
1000
0000
1001
1000
0001
0010
,
0002
0000
0203
0000
,
0000
0000
0000
0000
,
0000
0300
0020
0000
,
0000
0000
0000
0000
,
0000
0030
2000
0000
,
0000
0000
0000
0000
,
0000
3000
0002
0000
,
0000
0003
2000
0000
,
0002
3003
0220
0000
,
0000
0000
0330
0000
0010
0010
0010
0000
,
0000
0100
0010
0000
1000
0000
0000
1001
,
0000
0000
0001
0001
0001
0000
0000
0010
,
0001
0000
0100
0000
0000
1010
0000
0000
,
1000
0000
0010
1000
0010
0000
0100
0000
,
0001
0000
0100
0001
0010
0000
0100
0000
,
0010
0001
0010
0001
0010
0001
0010
0001
,
0010
0010
0001
0001
1000
0001
0100
0010
,
1000
0000
0000
0000
,
0000
0001
0000
0001
0000
0001
0000
1000
,
0000
0001
0000
0100
0010
1000
0100
0000
,
0010
0010
0010
0100
,
0100
0000
0010
0001
0100
0010
0000
0000
,
0100
0100
0100
0010
,
0010
0000
0100
0010
1000
0001
0000
0000
,
1000
0100
0010
0010
0100
0000
2000
0000
,
0000
0000
0000
0000
3000
0010
0000
0000
1001
0000
0000
0000
0000
0000
1000
0000
,
0000
0010
0000
0000
1000
0000
0000
0100
,
0000
0010
0000
0000
0100
0000
0000
1000
,
0000
0001
0000
0000
0100
0000
0000
0000
,
0001
0010
0001
0100
,
0010
1000
0010
0100
,
0001
1000
0100
0010
,
0001
0000
1000
0001
,
0010
0001
0010
0000
0001
0100
0000
0100
,
0001
1000
0001
0001
,
1000
0000
1000
0000
0010
1000
0000
1000
,
0010
0100
0001
0010
0100
0000
0010
0000
,
0001
0010
0001
0000
0010
0001
0000
0001
,
1000
0001
0100
0010
,
1000
0010
1000
0000
0020
0000
1030
0000
,
0020
0130
0010
1001
,
0001
1001
1000
1100
,
1000
0100
0010
0000
0010
0000
0011
0000
,
0001
0101
0100
0110
,
0100
0010
1000
0001
0010
0000
1100
0000
,
0010
0101
0010
1001
,
0001
1000
0010
0000
1000
0000
0001
0000
,
0010
0100
0010
0001
,
1010
0101
2002
0003
,
0000
0000
3000
0000
;

//---------------dance-single - t7r----------------
#NOTES:
     dance-single:
     t7r:
     Medium:
     14:
     :
0000
0000
0000
0000
,
0000
0000
0000
0000
,
0000
0000
0000
0000
,
0000
0000
0000
0000
,
0000
0000
0000
0000
,
0010
0100
0110
0010
1000
0100
0001
0000
,
0100
0010
0110
0010
0001
0100
1000
0000
,
0100
0010
0100
0010
1000
0100
1000
0100
0010
0001
0010
0001
1000
0010
1000
0010
,
1000
1000
0100
0100
0010
0010
0001
0001
1000
0001
0000
0100
0010
1000
0001
0000
,
2002
0000
0000
0000
,
0000
0000
0000
0000
,
3003
0000
0000
0000
,
0000
0010
0000
0000
0100
0001
0000
1000
0001
0000
0020
0000
0000
0000
0000
0000
,
0031
0100
0000
0001
1000
0020
0000
0000
,
1030
0100
0000
1000
0001
0200
0000
0000
,
0310
1000
0000
0001
0010
0200
0000
0000
,
0310
0001
0000
1000
0010
0000
0110
0000
,
0100
0001
1000
0000
0001
0020
0000
0031
,
0100
0000
0010
0000
0000
0000
1000
0000
0100
0000
0000
1100
0000
0000
0100
0000
,
1000
0001
0100
0000
0010
0010
0100
0001
,
1000
0100
0010
0100
1100
0000
0101
0000
,
1100
0100
0100
0000
1100
0100
1000
0001
,
0100
0000
0001
0000
0011
0000
0000
0000
0101
0000
0000
0100
0000
0000
0100
0000
,
0010
0000
0010
0000
1000
0000
0001
1000
0001
0000
0001
0000
0000
0000
0100
0000
,
0010
0100
0010
0000
1000
0000
1000
0000
1010
0000
0000
0000
0011
0000
0000
0000
,
1010
0010
0010
0001
0010
0010
0100
0001
,
1000
0000
0100
0000
0100
0000
0010
0000
0011
0000
0000
1001
0000
0000
0100
0000
,
1100
0100
0001
0100
1000
1000
0010
0010
,
0200
0300
0002
0010
,
0000
0100
0000
1000
,
0000
0103
0020
1000
,
0000
0001
0000
0100
,
0000
0100
0000
0130
0010
1000
0001
0000
,
0020
0000
0030
0000
0001
1000
0010
0000
,
0200
0000
0000
0000
0300
0000
0000
0000
0010
0000
1000
0000
0100
0000
0000
0020
,
0000
0000
0031
0000
1000
0000
0000
0000
0001
0000
0100
0000
0010
0000
0000
0200
,
0000
0301
1000
0001
2002
0000
0000
0000
,
0000
0000
3003
0000
0100
0100
0100
0000
,
0000
0010
0010
0010
1000
0002
0000
1003
,
0100
0000
0010
0010
0010
0000
0000
0001
,
0001
0001
1000
0020
0000
0130
0010
0000
,
1000
0000
1000
0000
1000
0000
1000
0000
0001
0000
0100
0000
0001
0010
0001
0000
,
1000
0000
0100
0000
0010
0000
0001
0000
1000
0000
0010
0000
1000
0100
1000
0000
,
0001
0100
0000
0000
0010
1000
0000
0000
0001
0010
0000
0000
0100
1000
0000
0000
,
0100
0000
0100
0000
0001
0000
0100
0000
1000
0000
1000
0000
0010
0100
0010
0000
,
2000
0000
0000
0000
0000
0000
0000
0000
0000
3001
0000
0000
0100
0010
1000
0000
,
0001
0010
0010
1000
1000
0010
0010
0001
,
0100
1000
0100
0001
0010
0100
0010
0001
,
1000
1000
0100
0100
0001
0100
0010
1000
,
0010
0000
0001
0000
0100
0000
0010
0000
0100
0000
0001
0000
1000
0100
0000
0100
,
1000
0000
0000
0001
0010
0000
0000
1000
0010
0000
0000
0001
0100
0000
0010
0000
,
0010
0000
0100
0001
0100
1000
0100
0000
,
2010
0000
0000
0000
3001
0000
0010
0000
2000
0000
0000
0000
3001
0100
0010
0000
,
0002
0000
2003
0000
3010
0100
0101
0000
1001
0000
0020
0000
0000
0000
0031
0000
,
0100
2000
0000
3100
0010
0002
0000
0013
,
1000
0200
0000
0301
0100
0020
0000
1030
,
0010
0200
0000
1300
0001
0200
0000
0310
,
0001
0000
0010
0000
1000
0000
0001
0010
0000
0010
0100
0000
1000
0000
0000
0000
,
0001
0000
0100
0000
1000
0000
0001
0010
0000
0010
0100
0000
0001
0000
0000
0000
,
1000
0000
0100
0000
0001
0000
0100
0000
1000
0010
1000
0000
0001
0100
0001
0000
,
2000
0000
0000
0000
3001
0010
0100
1000
0001
0000
0000
0000
0101
0000
0000
0000
,
0010
0010
0200
0000
1300
0100
0010
0100
,
0100
0000
0100
0000
1000
0000
0100
0000
0001
0000
0000
0101
0000
0000
1000
0000
,
0100
0100
1100
0000
0001
0100
0001
0010
,
0001
1000
0001
0000
1000
0010
1000
0000
0001
0000
0010
0000
0100
0000
0001
0200
,
0000
0000
0000
0000
0310
0000
0001
0000
1000
0000
0010
0000
0100
0000
1000
0200
,
0000
0000
0000
0000
0310
0000
1000
0000
0001
0000
0000
0011
0000
0000
1000
0000
,
0010
0000
0001
0000
0010
0000
0100
0000
1000
0000
0100
0000
0001
0010
0000
0000
,
1100
0000
0000
0000
0002
0000
0000
0000
1003
0000
0010
0000
0100
0000
0010
1000
,
0000
0010
1000
0000
0001
0000
1000
0000
0001
0000
0010
0000
0100
0000
0010
0001
,
0000
0010
0001
0000
1000
0000
0001
0000
1000
0000
0000
0101
0000
0000
0100
0000
,
0010
0010
0001
1000
0001
0100
0010
0000
,
1000
0100
1000
0000
0001
0010
0001
0000
1000
0000
0010
0000
0001
0000
0010
0000
,
0100
0100
0110
0000
0001
0100
0010
0001
,
0010
0000
0100
0010
2000
0000
0000
0000
3001
0000
0010
0000
0001
0100
0000
0001
,
0100
0000
0010
1000
0000
0010
1000
0000
0001
0000
0000
0000
1100
0000
0000
0000
,
0010
0001
1000
0001
0100
0010
2000
0000
0000
0000
0000
0000
,
0000
0000
3000
0000
;

//---------------dance-single - Pandemonium X----------------
#NOTES:
     dance-single:
     Pandemonium X:
     Hard:
     16:
     :
0000
0000
0000
0000
,
0000
0000
0000
0000
,
0000
0000
0000
0000
,
0000
0000
0000
0000
,
0000
0000
0000
0000
,
1000
0001
0100
0000
0001
1000
0010
0000
,
1000
0100
0010
0000
0100
0010
0001
0000
,
1000
0010
1000
0010
0100
0001
0100
0001
0010
0001
0010
0001
1000
0100
1000
0100
,
1000
0001
1000
0001
1000
0001
1000
0001
1000
0001
1000
0001
1000
0001
1000
0001
0010
0100
0010
0001
0100
0010
1000
0100
0010
0100
1000
0010
0100
0000
0000
0000
,
0110
0100
0010
1000
0001
0010
0100
1000
,
0000
0010
0100
0001
1000
0100
0010
0001
,
0000
0100
0010
1000
0001
0010
0100
1000
,
0000
0001
0000
0000
0010
0010
0000
1100
1000
0000
0000
0000
0011
0000
0000
0000
,
0001
0100
0110
0000
0100
0101
0000
0001
,
1001
0000
1000
0000
0100
0000
0010
0000
0110
0000
0000
0100
0000
0000
0100
0000
,
0110
0010
0001
0000
1000
0001
0100
1000
,
0100
0010
0100
0010
1000
0001
1000
0001
0100
0000
0000
0000
1010
0000
0000
0000
,
0001
0010
0110
0000
0100
1000
0000
0001
,
0101
0000
0010
1000
0010
1000
0010
1000
0010
0000
0000
0010
0000
0000
0010
0000
,
0110
0000
0100
0000
0001
0000
0000
0000
1001
0000
0000
0010
0100
0000
0000
0001
,
1000
0000
0000
0100
0010
0000
0001
0000
1000
0000
0000
0000
0011
0000
0000
0000
,
0100
0100
0100
0000
0001
0001
0000
0010
,
0010
0000
0100
0000
0100
0000
1000
0000
0001
0000
0000
1000
0000
0000
0010
0000
,
0100
0000
0100
0010
1000
0000
1000
0010
0100
0000
0101
0000
0000
0000
0001
0000
,
0010
0100
0010
0100
1000
0100
1000
0100
0010
0000
0000
0000
0110
0000
0000
0000
,
0100
0000
0100
0000
0100
0000
0100
0010
0001
0000
0100
0000
0000
0000
0100
0000
,
0100
0000
0000
0000
0000
0000
0010
0000
0000
0000
0000
0000
1000
0000
0000
0000
0001
0000
0000
0000
1000
0000
0000
0000
0001
0000
0000
0000
0000
0000
0000
0000
0000
0010
0000
0000
0000
0000
0000
0000
0000
0000
0100
0000
0000
0000
0000
0000
,
1000
0000
0100
0000
0010
0001
1000
0000
0010
0100
0010
1000
0010
0100
0001
0010
,
0100
0000
0000
0010
0001
1000
0200
0000
0000
1000
0000
0000
,
0000
1000
0000
1000
,
0000
1300
0020
0100
,
0000
0100
0000
0100
,
0000
0130
0010
0100
,
0001
1000
0100
0010
,
0100
1000
0001
0010
,
0100
0010
0001
0100
,
0010
1000
2002
0000
,
0000
0000
0000
0000
3003
0000
0000
0000
0001
0100
0001
0100
0001
0000
0000
0000
,
0000
0000
0100
0000
0001
0100
0001
0000
0100
0000
0001
0000
0000
0000
0101
0000
,
0000
0000
0000
0000
1000
0010
1000
0010
1000
0000
0000
0000
0000
0000
1000
0000
,
0010
1000
0010
0000
1000
0000
0010
0000
0000
0000
1010
0000
0000
0000
0000
0000
,
1000
0000
0100
0000
0010
0001
0010
0001
0010
0000
0100
1000
0010
0000
0100
0000
,
0010
0000
1000
0010
1000
0010
1000
0001
0010
0000
0100
0010
0001
0000
0010
0100
,
1000
0001
1000
0001
1000
0001
1000
0001
1000
0001
1000
0001
1000
0001
1000
0001
,
1000
0000
1000
0000
0001
0000
0001
0000
0100
0010
1000
0001
0100
0010
1000
0001
,
0200
0000
0000
0000
0000
0000
0300
0000
0000
0010
0000
0000
0100
0100
0100
0000
,
0000
0001
0001
0001
0001
0001
0001
1000
,
0010
0001
0010
1000
0100
0010
0001
0000
,
1000
1000
1000
1000
1000
1000
0001
1000
,
0001
0010
1000
0010
0001
0100
0000
0000
,
0010
0010
0010
0010
0010
0010
0100
1000
,
0100
0001
0010
0100
1000
0001
0000
0000
,
1000
0100
0001
0100
1000
0000
2002
0000
,
0000
0000
0000
0000
3003
0010
0000
0000
1001
0000
1000
0000
0100
0000
0010
0000
,
0000
0200
0000
0300
0010
0001
0100
0010
,
0000
0200
0000
0300
0010
1000
0100
0010
,
0000
0002
0000
0003
0010
0100
1000
0001
,
0100
0010
0000
0100
0001
0010
0000
0100
,
1000
0010
0000
0100
0001
0010
0000
0100
,
1000
0100
0010
0001
1000
0010
0100
0001
,
1000
0000
0000
0000
0010
0010
1000
0001
0101
0000
0000
0000
0011
0000
0000
0000
,
0010
0100
1100
0000
1000
1001
0000
0001
,
1001
0000
1000
0000
0001
0000
0010
0000
0110
0000
0000
1000
0000
0000
0001
0000
,
1001
1000
0001
0000
0100
0110
0000
0010
,
0100
0001
0100
0001
0010
0001
0010
0001
1000
0000
0000
0000
1100
0000
0000
0000
,
0100
0010
0011
0000
0001
1001
0000
1000
,
1001
0000
0001
0000
0010
0000
0100
0000
1100
0000
0000
0100
0000
0000
0010
0000
,
0001
1000
1001
0000
0001
0100
1000
0010
,
0001
1000
0010
1000
0001
0010
0100
0010
,
0001
0001
0001
0000
1000
0001
0100
0010
,
1000
0000
1000
0000
0010
0000
0010
0000
0100
0000
0000
0100
0000
0000
0100
0000
,
0010
0010
0010
1000
0100
0001
0100
1000
,
0001
0100
0010
1000
0001
0100
0010
1000
0001
0000
1000
0000
0100
0000
0010
0000
,
0100
0100
0100
0000
0010
0001
0100
0001
,
1000
0000
1000
0000
0002
0000
0000
0000
1003
0010
0000
0001
0010
0000
1000
0010
,
0000
0001
0010
0000
1000
0000
0000
0000
0001
0100
0010
1000
0100
0010
0001
0100
,
0010
0000
0000
0000
0100
0000
0000
0000
0001
0000
0000
0000
0010
0000
0000
0000
0100
0000
0000
0000
1000
0000
0000
0000
0001
0000
0000
0000
0000
0000
0000
0000
0000
0000
0000
0000
1000
0000
0000
1000
0000
0000
0000
0000
0000
0100
0000
0000
;

//---------------dance-single - CG13 VS XQ04----------------
#NOTES:
     dance-single:
     CG13 VS XQ04:
     Challenge:
     18:
     :
0000
0000
0000
0000
,
0000
0000
0000
0000
,
0000
0000
0000
0000
,
0000
0000
0000
0000
,
0000
0000
0000
0000
,
0001
0100
1010
1000
0100
0110
0011
0000
,
1000
0010
0101
0001
0010
0110
1100
0000
,
0001
0001
0100
0100
0010
0010
0001
0001
1000
1000
0100
0100
0010
0010
1000
1000
,
0001
0010
0001
0010
0001
0010
0001
0010
0100
1000
0100
1000
0100
1000
0100
1000
0002
0000
2003
0000
3020
0000
0230
0000
0301
0000
0010
0000
1001
0000
0000
0000
,
1000
0000
0010
0000
0001
0000
0010
0100
0010
0000
0100
0000
0001
0010
0001
0000
,
1000
0100
1000
0000
0001
0000
0100
1000
0100
0000
0010
0000
1000
0100
1000
0000
,
0001
0010
0001
0010
0001
0010
0001
0010
0100
1000
0100
1000
0100
1000
0001
1000
,
0000
0010
0000
0000
0100
0001
0000
1000
1100
0000
0010
0000
1001
0000
0000
0000
,
0101
0001
0011
0000
0101
0101
0010
0001
,
0010
0000
1000
0000
1010
0000
0100
0000
1001
0000
0000
0011
0000
0000
0100
0000
,
1100
0100
0101
0000
1100
0110
0000
0101
,
0100
0001
0100
1000
0100
0001
0100
0010
0100
0000
0000
0000
1010
0000
0000
0000
,
0101
0010
1001
0000
0011
0011
0100
0001
,
0100
0000
1000
0000
1010
0000
0010
0000
0011
0000
0000
0110
0000
0000
1010
0000
,
1001
0000
0010
0000
0110
0000
0001
0000
1010
0000
1000
0100
0001
0000
1000
0010
,
0100
0000
1000
0001
1000
0000
0001
0000
1001
0000
0000
0001
0100
0000
0000
1000
,
0100
0000
0110
0000
0101
0000
0000
0001
0010
0000
0110
0000
0100
0000
0010
0001
,
1000
0000
0001
1000
0100
0000
1000
0000
1100
0000
0000
0011
0000
0000
0101
0000
,
0101
0000
0110
0000
1010
0000
1000
0001
0100
0000
0101
0000
0001
0000
0010
0100
,
1000
0100
0001
0100
1000
0010
0001
0010
1000
0000
0000
0001
0010
0000
0000
1000
,
0010
0000
0110
0000
0011
0000
0001
0100
0010
0000
0110
0000
0001
0000
1000
0100
,
0010
0000
0100
0000
1100
0000
1000
0001
0100
0000
0000
0101
0000
0000
0010
0000
,
1010
0000
0010
0000
0100
0001
0100
1000
0100
0000
0010
0000
1010
0000
1000
0000
,
1100
0000
0100
0010
0001
0100
0020
0000
0000
1000
0000
0000
,
0000
0100
0000
0001
,
0000
1030
0002
0010
,
0000
1000
0000
0100
,
0000
0000
0010
0000
0000
0000
0013
0001
1000
0000
0100
0000
0010
0001
1000
0020
,
0000
0000
0130
0000
0001
0000
1000
0000
0001
0000
0010
0000
0100
1000
0001
0020
,
0000
0000
0031
0000
1000
0000
0010
0100
0010
0000
1000
0000
0010
0001
0010
0200
,
0000
0000
0301
0000
0010
0000
0100
0000
1000
0000
0100
0000
0001
0100
0010
0200
,
0000
0000
0310
0000
0001
0100
0010
1000
0002
0000
0000
0000
0000
0000
0000
0000
,
0000
0000
0000
0000
0003
0000
0000
0000
1000
0100
0001
0100
2000
0000
0000
0000
,
0000
0000
3001
0000
0001
0100
1000
0000
0100
0000
0210
0000
0000
0000
0310
0000
,
1000
0000
1000
0000
0000
1000
0001
0000
1000
0000
0100
0000
0010
0000
1000
0000
0020
0000
0000
0000
0000
0000
0000
0000
0000
0000
0000
0000
0130
0000
0000
0000
,
0100
0001
0100
0000
0010
0000
0012
0000
0000
0000
1003
0000
0001
0100
0010
1000
,
0001
0000
0000
0000
0000
0000
1000
0000
0000
0001
0000
0000
0100
0000
0000
0010
0000
0000
1000
0000
0000
0100
0000
0000
0010
0000
0000
0000
0000
0000
0100
0000
1000
0000
0100
0000
1000
0000
0000
0100
0000
0000
1000
0000
0000
0001
0000
0000
,
0100
0000
0000
0000
0000
0000
0010
0000
0100
0000
0010
0000
0100
0000
0000
0010
0000
0000
1000
0000
0000
0001
0000
0000
1000
0000
0001
0000
1000
0000
0001
0000
0000
1000
0000
0000
0001
0000
1000
0000
0001
0000
1000
0000
0000
0001
0000
0000
,
1000
0100
0010
0001
1000
0100
0010
0001
1000
0100
0010
0001
1000
0100
0010
0001
,
1000
0000
0000
0010
0000
0000
1000
0000
0000
0010
0000
0000
1000
0000
0000
0100
0000
0000
1000
0000
0000
0100
0000
0000
1000
0000
0001
0000
1000
0000
0001
0000
1000
0000
0001
0000
1000
0000
0001
0000
1000
0000
0001
0000
1000
0000
0001
0000
,
1000
0100
0010
0100
1000
0001
0100
0010
2000
0000
0000
0000
0000
0000
0000
0000
3000
0000
0200
0300
0000
0000
0000
0000
0020
0030
0200
0300
2000
3000
0000
0000
,
0000
0101
0101
0101
0101
0101
0101
1010
,
1000
0001
0010
0000
0010
0001
1000
0000
0100
0000
0010
0000
0100
0000
0000
0000
,
1100
0000
1100
0000
1100
0000
1100
0000
1100
0000
1100
0000
0011
0000
1000
0100
,
0010
0000
0010
0100
1000
0000
0001
0000
0100
0000
0010
0000
0000
0000
0000
0000
,
1000
0000
1000
0000
0001
0000
0001
0000
1000
0000
1000
0000
0001
0000
1000
0001
,
0010
0000
0010
0001
0100
0000
0010
0000
1000
0000
0100
0000
0000
0000
0000
0000
,
0010
0000
0000
0000
0000
0000
0100
0000
0000
1000
0000
0000
0001
0000
0000
0000
0000
0000
1000
0000
0000
0000
0000
0000
0001
0000
0000
0000
0000
0000
0000
0000
0000
0000
0000
0000
1000
0000
0010
0000
0100
0000
0001
0000
0010
0000
0100
0000
,
0020
0000
0000
0000
0031
0000
0010
0000
0100
0000
1000
0000
0000
0000
0000
0020
0000
0000
0030
0000
0000
0000
0000
0000
1001
0000
0000
0000
0000
0000
1000
0000
0000
0000
0000
0000
0001
0000
0000
0000
0000
0000
0010
0000
0000
0000
0000
0000
,
0000
0200
0000
0000
0310
0001
1000
0010
,
0000
0200
0000
0000
0310
1000
0001
0010
,
0000
0200
0000
0000
0310
0001
1000
0010
,
0100
0020
0000
1030
0001
0020
0000
0130
,
1000
0002
0000
0103
0010
2000
0000
3100
,
0010
0002
0000
0013
0100
2000
0000
3100
,
0010
0001
0100
0010
1000
0001
0010
0100
2000
3000
0200
0300
0002
0003
0200
0300
1000
0000
0000
0000
0010
0000
0000
0000
0100
0000
0000
0000
0010
0000
1000
0000
,
0001
0000
0010
0000
0100
0000
1000
0100
0010
0000
0100
0000
1000
0000
0001
1000
,
0010
0000
0100
0000
0001
0010
0001
0010
0001
0000
1000
0000
0100
0000
0010
0100
,
1000
0000
0001
0000
0100
0000
0010
1000
0100
0000
0010
0000
0100
0000
1000
0001
,
0100
0010
1000
0001
0010
0100
0010
0001
1000
0010
1000
0000
0001
0000
0010
0000
,
0100
1000
0010
0000
0100
0000
0001
0000
1000
0001
0010
0000
0100
0000
0010
0000
,
0001
1000
0100
0000
0010
0000
0100
0000
1000
0001
0100
0000
0010
0000
1000
0000
,
0001
0010
0100
0000
0010
0000
0001
0000
2000
3000
0020
0030
0002
0003
0020
0030
,
0200
0300
1000
0000
0100
0000
0001
0000
1000
0000
0010
1000
0000
0010
0100
0001
,
0010
0000
0100
0010
0000
0100
1000
0001
0100
0000
0010
1000
0000
0010
0100
0001
,
0010
0000
0100
0010
0000
0100
1000
0001
0100
0000
0001
0010
0000
0001
0010
0001
,
1000
0000
0010
1000
0000
0010
0100
0001
0010
0000
0100
0010
0000
0001
0010
0100
,
1000
0100
1000
0100
1000
0100
1000
0100
1000
0001
0100
0000
0010
1000
0001
0000
,
0010
0100
1000
0000
0100
0010
0001
0000
0100
0010
1000
0000
0001
0010
0100
0000
,
0010
0001
0100
0010
2000
0000
0000
0000
3001
1000
0010
0000
1000
0001
0000
0010
,
0001
0000
0000
0000
0000
0000
1000
0000
0000
0010
0000
0000
0000
0000
0000
0100
0000
0000
0010
0000
0000
0000
0000
0000
1000
0000
0000
0100
0000
0000
0010
0000
0100
0000
0010
0000
0100
0000
0000
0010
0000
0000
0001
0000
0000
1000
0000
0000
,
0010
0000
0000
0000
0000
0000
0000
0000
0001
0000
0000
0000
0000
0000
0000
0000
0010
0000
0000
0000
0000
0000
0000
0000
1000
0000
0000
0000
0000
0000
0000
0000
0100
0000
0000
0000
0000
0000
0000
0000
0010
0000
0000
0000
0000
0000
0000
0000
0002
0000
0000
0000
0000
0000
0000
0000
0000
0000
0000
0000
0003
0000
0000
0000
0000
0000
0000
0000
0000
0000
0000
0000
2000
0000
0000
3000
0000
0000
0002
0000
0000
0003
0000
0000
0000
0000
0000
0000
0000
0000
0200
0000
0000
0300
0000
0000
;
