#TITLE:Green Hill (Euro Club 95' Mix);
#SUBTITLE:;
#ARTIST:Rayza;
#TITLETRANSLIT:;
#SUBTITLETRANSLIT:;
#ARTISTTRANSLIT:;
#GENRE:;
#CREDIT:;
#BANNER:Green Hill (Euro Club '95 mix).png;
#BACKGROUND:Green Hill (Euro Club '95 mix)-bg.png;
#LYRICSPATH:;
#CDTITLE:cdtitle.png;
#MUSIC:Green Hill (Euro Club '95 mix).ogg;
#OFFSET:-0.076000;
#SAMPLESTART:14.840003;
#SAMPLELENGTH:11.980000;
#SELECTABLE:YES;
#BPMS:0.000000=138.000000
,256.000000=119.000000
;
#STOPS:
;
#BGCHANGES:;
#KEYSOUNDS:;
#ATTACKS:;

//---------------dance-single - ----------------
#NOTES:
     dance-single:
     :
     Hard:
     14:
     0.640257,0.768037,0.295968,0.059194,0.524286,530.000000,495.000000,35.000000,7.000000,0.000000,0.000000,0.640257,0.768037,0.295968,0.059194,0.524286,530.000000,495.000000,35.000000,7.000000,0.000000,0.000000:
0000
0000
0000
0000
,
0000
0000
0000
0000
,
0000
0000
0000
0000
,
0000
0000
0000
0000
,
1001
0000
1000
0000
0001
0100
0000
0001
0010
0000
0001
1000
0000
1000
0001
0000
,
0000
0000
1000
0000
0001
0010
0000
0100
0000
0000
0010
0001
0000
1000
0100
0000
,
1000
0000
0001
0000
1000
0010
0000
1000
0001
0000
1000
0100
0000
1000
0001
0000
,
0110
0000
1000
0001
1000
0000
0001
1000
0001
0000
0001
1000
0010
0100
0010
0100
,
0010
0000
0000
1000
0010
0000
0100
0000
0001
0000
0010
0000
0000
0000
0100
0000
,
0010
0000
0001
0100
0000
0110
0000
0100
,
0001
0000
0000
1000
0010
0000
1000
0000
0100
0000
0010
0000
0000
0000
0100
0000
,
1000
0000
0001
0100
0000
0110
0000
0010
,
1000
0000
0000
0001
0010
0000
0001
0000
1000
0000
0100
0000
0000
0000
0001
0000
,
0100
0000
0010
0001
0000
0110
0000
0001
,
1000
0000
0000
0001
0100
0000
0001
0000
1000
0000
0100
0000
0000
0000
0010
0000
,
0210
0000
1300
0020
0000
2030
0000
0000
,
3001
0000
1010
0000
1000
0001
0010
0000
,
0100
0010
0001
0100
1000
0100
0010
1000
,
0001
0000
1100
0000
0100
1000
0010
0100
,
0001
0000
1000
0001
0000
1001
0000
0110
,
0000
0000
1000
0010
1000
0000
0000
0000
0010
1000
0010
0000
0000
0000
1000
0000
,
0000
0000
0001
0100
0010
0000
0000
0000
0110
0000
0000
0000
0100
0001
1000
0000
,
0000
1100
0000
0101
0000
0001
0010
0100
,
1000
0000
0000
0000
0000
0000
1000
0000
0000
0000
0000
0000
0001
0000
0000
0000
0000
0000
0001
0000
0000
0000
0000
0000
0100
0000
0000
0010
0000
0000
0100
0000
0000
0010
0000
0000
0100
0000
0000
0010
0000
0000
0100
0000
0010
0000
0100
0000
,
0010
0000
1000
0001
1000
0000
0001
0000
0100
0000
0010
1000
0010
0000
0100
0000
,
0001
0000
1000
0010
0100
0000
0010
0000
1000
0000
0001
0010
0000
0010
0100
0000
,
1000
0000
0001
0010
0100
0000
0010
0000
0001
1000
0010
0000
0100
0000
0001
0000
,
1000
0001
0010
0000
0100
0000
0010
0000
0001
0000
0010
0100
0000
0100
1000
0000
,
0001
1000
0001
0000
0100
0010
0100
0000
0001
1000
0001
0000
0010
0000
0100
1000
,
0100
0000
0010
0100
0010
0000
1000
0001
1000
0000
0010
0100
0010
0000
1000
0000
,
1000
0000
0101
0000
1000
0001
0010
0100
1000
0000
0101
0000
1000
0001
0010
0100
,
1000
0000
0101
0000
0001
0010
0100
1000
0001
0000
0110
0000
1001
0000
0000
0000
,
1001
0000
0001
0000
0001
0100
0000
0100
0001
0000
0001
0010
0000
0010
0100
0000
,
0010
0000
0100
1000
0010
0000
0100
0000
,
0001
0000
1000
0000
0001
0100
0000
0100
0010
0000
0010
1000
0000
1000
0100
0000
,
0010
0000
0100
1000
0010
0000
0110
0100
,
0110
1000
1010
0000
0100
0001
0101
0000
,
0011
0000
0010
0100
1000
0000
0100
0010
,
0001
0000
0000
1000
0000
0000
1010
0000
0000
0000
0000
0000
1000
0000
0000
0001
0000
0000
0011
0000
0000
0001
1000
0001
,
1000
0000
0100
0010
0001
0010
0001
1000
0010
0000
0100
0001
1000
0000
0000
0000
,
0001
0100
0001
0000
0100
0010
0100
0000
0010
1000
0010
0000
1000
0001
1000
0000
,
0010
1000
0100
0000
0010
0001
0100
0000
0010
1000
0001
0000
0010
0100
1000
0000
,
0001
0010
0001
0000
0010
0100
0010
0000
0100
1000
0100
0000
1000
0010
1000
0000
,
0010
0100
0001
0000
0010
0100
1000
0000
0100
1000
0010
0000
0100
0001
0010
0000
,
0100
1000
0100
0000
0010
0100
0010
0000
0100
1000
0100
0000
1000
0010
1000
0000
,
0010
0100
0001
0000
0001
0100
0010
0000
0010
1000
0100
0000
0010
0100
1000
0000
,
0001
1000
0001
0000
1000
0010
1000
0000
0010
0100
0010
0000
0100
0001
0100
0000
,
1001
0000
0001
0000
0100
0010
0000
1000
0001
0000
0010
0100
0000
1000
0010
0000
,
2001
0000
0001
0000
3010
0000
1000
0010
,
0001
0010
1000
0010
0100
0000
0010
0000
,
1002
0000
1000
0000
0013
0000
0001
0100
,
1000
0100
0010
1000
0001
0010
1000
0010
,
0021
0000
0100
0000
0031
0000
0100
0010
,
0001
0100
1000
0100
0010
1000
0001
0010
,
0210
0000
1000
0000
0310
0000
0100
0010
,
0001
0100
1000
0100
0001
0100
0010
1000
,
1001
0000
0001
0000
1000
0010
0000
0100
0001
0000
0010
0100
0000
0010
0001
0000
,
4000
0004
0000
0000
0000
0000
0000
0000
0000
0000
0000
0000
3003
0000
0000
0000
,
0110
0000
1000
0000
0010
0100
0000
0001
0010
0000
0100
0010
0000
0001
1000
0000
,
0000
0000
0001
0000
1000
0100
0000
1000
0010
0000
0100
0001
0000
0010
0100
0000
,
1100
0000
0100
0000
0000
0010
0000
0000
0100
0000
0000
1000
0000
0000
0010
0000
,
0000
0000
0100
0000
0000
0010
0000
1000
0000
0000
0001
1000
0000
1000
0001
0000
,
0000
0000
0010
0000
0000
0001
0000
0000
0100
0000
0000
0001
0000
0000
1000
0000
,
0000
0000
0100
0000
0000
0010
0000
0000
0100
0000
0000
1000
0000
0000
0010
0000
,
1001
0000
1000
0000
0000
0100
0000
0000
0010
0000
0000
0001
0000
0000
1000
0000
;

//---------------dance-single - ----------------
#NOTES:
     dance-single:
     :
     Medium:
     11:
     0.421604,0.493738,0.431268,0.211406,0.131072,349.000000,298.000000,51.000000,25.000000,0.000000,0.000000,0.421604,0.493738,0.431268,0.211406,0.131072,349.000000,298.000000,51.000000,25.000000,0.000000,0.000000:
0000
0000
0000
0000
,
0000
0000
0000
0000
,
0000
0000
0000
0000
,
0000
0000
0000
1010
,
0011
0000
0010
0000
0000
0001
0000
0000
0100
0000
0000
0010
0000
0000
1000
0000
,
0000
0000
0001
0000
0000
1000
0000
0100
0000
0000
0000
0010
0000
0000
0100
0000
,
0000
0000
0010
0000
0000
0001
0000
0000
0100
0000
0000
0010
0000
0000
1000
0000
,
1010
0000
0000
0001
0010
0000
0000
0010
0100
0000
0000
0100
1000
0000
0001
0000
,
1000
0000
0010
0000
0100
0001
0000
0010
,
0100
0000
0100
0010
0000
0011
0000
0000
,
0000
0000
0000
0100
0001
1000
0000
0100
,
1000
0000
0100
0010
0000
0110
0000
0000
,
0000
0000
0000
0000
0100
1000
0000
0010
,
0100
0000
0100
0010
0000
1010
0000
0000
,
0000
0000
0000
1000
0001
0001
0000
1000
,
1200
0000
0310
0012
0000
0200
0000
0303
,
0001
0000
1010
0000
0001
0010
0000
0100
,
1000
0000
0100
0010
0000
0100
0000
1000
,
0001
0000
1100
0100
1000
0010
0000
0100
,
0010
0000
0010
0100
0000
0110
0000
1001
,
0000
0001
0100
0000
0001
0100
0000
0010
,
0000
0100
0010
0000
1000
0000
0010
1000
,
0000
0001
0000
0010
0000
0100
0010
0001
,
1000
0100
0001
0100
1000
0010
0100
0001
,
0010
0000
0000
0100
0000
1100
0000
1000
,
0100
0000
0000
0000
1000
0000
0000
0000
0010
0000
0000
0010
0000
0000
0010
0000
,
0100
0000
0000
0110
0000
1010
0000
1000
,
0001
0000
0000
0000
0001
0000
0000
0000
0010
0000
0000
0100
0000
0000
0010
0000
,
0011
0000
1100
0000
0001
0101
0000
1010
,
0000
0110
0000
1001
0000
1100
0000
1001
,
1000
0010
0200
0000
0310
1000
0200
0000
,
0310
0001
0100
0010
0110
0100
0110
0000
,
0001
1010
0001
1010
,
1100
0000
1000
0100
0010
0000
0110
0000
,
1000
0011
1000
0011
,
1001
0000
0001
0100
1000
0000
1000
0100
,
0001
0011
0010
0110
,
1100
0000
0100
1000
0010
0000
0100
0010
,
1000
0000
0101
0000
1000
0000
0001
0100
,
1000
0100
0001
1000
0010
1000
0001
0000
,
2000
3200
0320
0032
,
0023
0000
0130
1000
0020
0000
0130
0000
,
0020
2030
3200
0302
,
0203
0000
0310
0100
1000
0000
1000
0100
,
0020
0230
2300
3020
,
0230
0000
0310
1000
0001
0000
0010
0100
,
0020
0230
2300
3020
,
0130
0000
0001
0000
0000
0010
0000
0000
0100
0000
0000
1000
0000
0000
0001
0000
,
1001
0000
0000
0000
0000
0000
1000
0010
,
0001
0010
0100
0001
1000
0000
0100
0000
,
0110
0000
0000
0000
0000
0000
0010
0100
,
1100
1100
0101
1010
,
1001
0000
0000
0000
0000
0000
1000
0001
,
0010
0100
0010
0001
1000
0000
0001
0000
,
0101
0000
0000
0000
0000
0000
0001
0100
,
0110
1010
1100
0110
,
0011
0000
0000
0000
,
1000
0000
0001
0000
0100
0010
0000
0100
0010
0000
0100
0000
1001
0000
0000
0000
,
0000
0000
1000
0000
0000
0100
0000
0000
1000
0000
0000
0010
0000
0000
0100
0000
,
0000
0000
0010
0000
0000
0100
0000
0000
0010
0000
0000
1000
0000
0000
0001
0000
,
1001
0000
1000
0000
0000
0001
0000
0000
1000
0000
0000
0100
0000
0000
0010
0000
,
0000
0000
0100
0000
0000
0010
0000
0001
0000
0000
0000
0010
0000
0000
0001
0000
,
0000
0000
0100
0000
0000
0010
0000
0000
0100
0000
0000
0001
0000
0000
1000
0000
,
0000
0000
0100
0000
0000
1000
0000
0000
0001
0000
0000
0010
0000
0000
0100
0000
,
0000
0000
0010
0000
0000
0001
0000
0000
0100
0000
0000
0010
0000
0000
1000
0000
;

//---------------dance-single - ----------------
#NOTES:
     dance-single:
     :
     Easy:
     7:
     0.273015,0.384759,0.109931,0.093019,0.000000,226.000000,213.000000,13.000000,11.000000,0.000000,0.000000,0.273015,0.384759,0.109931,0.093019,0.000000,226.000000,213.000000,13.000000,11.000000,0.000000,0.000000:
0000
0000
0000
0000
,
0000
0000
0000
0000
,
0000
0000
0000
0000
,
0000
0000
0000
0000
,
1000
0001
0000
0010
,
0000
0001
0000
0100
,
0000
0010
0000
1000
,
1001
0110
1001
0110
,
1001
0000
0000
0000
1000
0001
0000
0001
,
1000
0000
1000
0001
0000
0100
0000
0000
,
0000
0000
0000
0010
0100
0010
0000
0100
,
0010
0000
0010
1000
0000
0001
0000
0000
,
0000
0000
0000
0000
0010
0001
0000
0001
,
0010
0000
0010
0001
0000
1000
0000
0000
,
0000
0000
0000
0100
1000
0100
0000
1000
,
0010
0000
0100
0010
0000
1000
0000
0000
,
0001
0000
1000
0000
0010
1000
0000
0010
,
0100
0000
0010
1000
0000
0001
0000
0000
,
0000
0000
0000
0010
0001
0100
0000
0010
,
1000
0000
0001
0010
0000
0100
0000
0010
,
0000
0001
1000
0000
0001
1000
0000
0010
,
0000
1000
0001
0000
0010
0000
0001
1000
,
0000
0001
0000
0100
0000
0010
1000
0100
,
0020
0000
0000
0000
,
0130
0000
0000
0010
0000
0001
0000
1000
,
0001
0100
0010
0010
,
1000
0000
0000
0001
0000
0010
0000
0001
,
0100
0100
0010
1000
,
0001
0000
0001
0000
0001
1000
0000
0001
,
0000
1000
0000
0001
0000
0001
0000
1000
,
0002
0103
0002
0103
,
0002
0203
0320
2030
,
3000
0100
0000
0100
,
0100
0000
0100
0010
0100
0000
1000
0000
,
0000
0001
0000
0001
,
1000
0000
0001
0100
0010
0000
0100
0010
,
1000
0001
0000
0001
,
0010
0000
0001
0100
0010
0000
0100
0010
,
1000
0001
0000
1000
,
1001
0101
1001
1100
,
1000
0100
1000
0010
,
0100
0001
0010
0100
,
0010
0001
0100
0010
,
1000
0001
0010
0001
,
1000
0100
1000
0010
,
0100
0001
0010
0100
,
1000
0100
0010
0001
,
2002
0000
0000
3003
,
0110
0000
0000
0000
0000
0000
0010
1000
,
0010
1000
0100
0010
,
0001
0000
0000
0000
0000
0000
0010
0001
,
0010
0010
0001
0001
,
1000
0000
0000
0000
0000
0000
0010
0100
,
0010
0010
0100
0100
,
0001
0000
0000
0000
0000
0000
1000
0100
,
1000
1000
0001
0001
,
1001
0000
0000
0000
,
0020
0000
0000
0030
,
0100
0000
0001
0000
,
1000
0000
0010
1000
,
1001
0000
0001
0000
,
0010
0000
0001
0000
,
1000
0000
0100
0000
,
0010
0000
0100
0000
,
2000
0000
0000
0000
,
3000
0000
0000
0000
;

//---------------dance-single - ----------------
#NOTES:
     dance-single:
     :
     Beginner:
     3:
     0.096643,0.192379,0.033825,0.016912,0.000000,80.000000,76.000000,4.000000,2.000000,0.000000,0.000000,0.096643,0.192379,0.033825,0.016912,0.000000,80.000000,76.000000,4.000000,2.000000,0.000000,0.000000:
// measure 0
0000
0000
0000
0000
,  // measure 1
0000
0000
0000
0000
,  // measure 2
0000
0000
0000
0000
,  // measure 3
0000
0000
0000
0000
,  // measure 4
0010
0000
0000
0000
,  // measure 5
1000
0000
0001
0000
,  // measure 6
1000
0000
0000
0000
,  // measure 7
0010
0010
0100
0100
,  // measure 8
1001
0000
1000
0000
,  // measure 9
0000
0000
0000
0000
,  // measure 10
0000
0000
0001
0000
,  // measure 11
0000
0000
0000
0000
,  // measure 12
0000
0000
0010
0000
,  // measure 13
0000
0000
0000
0000
,  // measure 14
0000
0000
0100
0000
,  // measure 15
1000
0000
0000
0000
,  // measure 16
0001
0000
0000
0000
,  // measure 17
1000
0000
0000
0000
,  // measure 18
0010
0000
0000
0000
,  // measure 19
0100
0000
0000
0000
,  // measure 20
0001
0000
0000
0000
,  // measure 21
1000
0000
0000
0000
,  // measure 22
0001
0000
0000
0000
,  // measure 23
0010
0000
0001
0000
,  // measure 24
1001
0000
0000
0000
,  // measure 25
1000
0000
0001
0000
,  // measure 26
0010
0000
0000
0000
,  // measure 27
0100
0100
0100
0000
,  // measure 28
1000
0000
0000
0000
,  // measure 29
0001
0000
0000
0000
,  // measure 30
0100
0000
0010
0000
,  // measure 31
0100
0000
0000
0000
,  // measure 32
1000
0000
0000
0000
,  // measure 33
0010
0000
0000
0000
,  // measure 34
0100
0000
0000
0000
,  // measure 35
0001
0000
0000
0000
,  // measure 36
0010
0000
0000
0000
,  // measure 37
0001
0000
0000
0000
,  // measure 38
1000
0000
0000
0000
,  // measure 39
0001
0000
1000
0000
,  // measure 40
0001
0000
0000
0000
,  // measure 41
0010
0000
0001
0000
,  // measure 42
0100
0000
0000
0000
,  // measure 43
0010
0000
1000
0000
,  // measure 44
0001
0000
0000
0000
,  // measure 45
0010
0000
0100
0000
,  // measure 46
1000
0000
0000
0000
,  // measure 47
1001
0000
0000
0000
,  // measure 48
0110
0000
0000
0000
,  // measure 49
0010
0000
1000
0000
,  // measure 50
0100
0000
0000
0000
,  // measure 51
0010
0000
0001
0000
,  // measure 52
0100
0000
0000
0000
,  // measure 53
0010
0000
1000
0000
,  // measure 54
0001
0000
0000
0000
,  // measure 55
1000
0000
0001
0000
,  // measure 56
0100
0000
0000
0000
,  // measure 57
0020
0000
0000
0030
,  // measure 58
0100
0000
0000
0000
,  // measure 59
0010
0000
0000
0000
,  // measure 60
1000
0000
0000
0000
,  // measure 61
0001
0000
0000
0000
,  // measure 62
0010
0000
0000
0000
,  // measure 63
0100
0000
0000
0000
,  // measure 64
0020
0000
0000
0000
,  // measure 65
0030
0000
0000
0000
;
