#VERSION:0.83;
#TITLE:Garden Of Magic;
#SUBTITLE:;
#ARTIST:Psyko Punkz & Zac Aynsley;
#TITLETRANSLIT:;
#SUBTITLETRANSLIT:;
#ARTISTTRANSLIT:;
#GENRE:HARDSTYLE;
#ORIGIN:;
#CREDIT:;
#BANNER:Garden Of Magic.png;
#BACKGROUND:Garden Of Magic-bg.png;
#PREVIEWVID:;
#JACKET:Garden Of Magic-jacket.png;
#CDIMAGE:;
#DISCIMAGE:;
#LYRICSPATH:;
#CDTITLE:;
#MUSIC:Garden Of Magic.ogg;
#OFFSET:4.110001;
#SAMPLESTART:100.158913;
#SAMPLELENGTH:24.770996;
#SELECTABLE:YES;
#BPMS:0.000=50.500,
20.000=77.500,
27.000=155.020;
#STOPS:26.000=0.774;
#DELAYS:;
#WARPS:;
#TIMESIGNATURES:0.000=4=4;
#TICKCOUNTS:0.000=4;
#COMBOS:0.000=1;
#SPEEDS:0.000=1.000=0.000=0;
#SCROLLS:0.000=1.000;
#FAKES:;
#LABELS:0.000=Song Start;
#BGCHANGES:3.833=Garden of Magic.avi=1.000=1=0=1===CrossFade==,
99999=-nosongbg-=1.000=0=0=0 // don't automatically add -songbackground-
;
#KEYSOUNDS:;
#ATTACKS:
;

//---------------dance-single - ----------------
#NOTEDATA:;
#CHARTNAME:;
#STEPSTYPE:dance-single;
#DESCRIPTION:;
#CHARTSTYLE:;
#DIFFICULTY:Hard;
#METER:12;
#RADARVALUES:0.421620,0.605560,0.405236,0.137627,0.080283,386.000000,333.000000,53.000000,18.000000,0.000000,0.000000,0.000000,0.000000,0.000000,0.421620,0.605560,0.405236,0.137627,0.080283,386.000000,333.000000,53.000000,18.000000,0.000000,0.000000,0.000000,0.000000,0.000000;
#CREDIT:Pandemonium X;
#NOTES:
// measure 0
0000
0000
0000
0000
,  // measure 1
0000
0000
0000
0000
,  // measure 2
0000
0000
0000
0000
,  // measure 3
1000
0000
0100
0000
0010
0000
0001
0000
0100
0000
0010
0000
1000
0000
0000
0001
0010
0000
0200
0000
0000
0300
0000
0000
,  // measure 4
0010
0000
0000
0001
0100
0000
0010
0000
0000
0100
0010
0000
2000
0000
0000
0000
0000
0000
0002
0000
0000
3003
0000
0000
,  // measure 5
0220
0000
0000
0000
,  // measure 6
0000
0000
0000
0000
0300
0000
0000
0030
0000
0000
0000
0000
1001
0000
0000
0000
,  // measure 7
0001
0000
0100
0000
0001
0020
0000
0000
,  // measure 8
0000
0000
0030
0100
1000
0010
0200
0000
,  // measure 9
0000
0000
0301
0000
1000
0002
0000
0000
,  // measure 10
0000
0003
0000
0010
0001
1000
0000
0000
,  // measure 11
0010
0000
1000
0000
0100
0020
0000
0000
,  // measure 12
0000
0030
0000
0100
1000
0010
0100
0000
,  // measure 13
0100
0000
0001
0000
1000
0020
0000
0000
,  // measure 14
0000
0000
0000
0130
0001
1000
0000
0000
,  // measure 15
1001
1000
1001
0010
,  // measure 16
0110
0100
0110
0001
,  // measure 17
1010
0001
1010
1000
,  // measure 18
0011
1000
0011
0100
,  // measure 19
0110
0010
0110
1000
,  // measure 20
1001
0001
1001
0100
,  // measure 21
1100
0000
0100
0000
1000
0200
0000
0000
,  // measure 22
0000
0000
0300
0000
0000
0000
0010
0001
,  // measure 23
0010
0000
0100
1000
0100
0000
1000
0010
,  // measure 24
1000
0000
0001
0100
0001
0000
1000
0001
,  // measure 25
0010
0000
0100
1000
0010
0000
0100
0010
,  // measure 26
1000
0000
0100
0010
0001
0000
0010
0100
,  // measure 27
1000
0000
0100
0010
0001
0000
1000
0100
,  // measure 28
0001
0000
0100
1000
0010
0000
0001
0010
,  // measure 29
1000
0000
0010
0100
0001
0000
2000
0000
,  // measure 30
0000
3001
0010
0010
0100
1000
0001
0010
,  // measure 31
0001
0100
0010
1000
0100
0010
0001
0010
,  // measure 32
0100
0010
0000
0000
0000
0100
0010
0001
,  // measure 33
0100
0001
1000
0100
0010
0100
1000
0000
,  // measure 34
1000
0001
0000
0000
0000
0100
0001
0010
,  // measure 35
0100
0010
0001
0000
0000
1000
0010
0100
,  // measure 36
0110
0000
1010
0000
0110
0100
0010
1000
,  // measure 37
0002
0000
0013
0000
0100
1000
1001
0000
,  // measure 38
0010
1001
0000
0110
0000
0000
1000
0000
,  // measure 39
0100
1000
0010
0100
,  // measure 40
0001
0000
0000
0000
0010
0000
0000
0100
0010
0000
0001
0000
1000
0000
0000
0000
,  // measure 41
0001
0100
0001
0010
,  // measure 42
0100
0000
0010
0001
0100
0001
1000
0000
,  // measure 43
0100
1000
0010
0100
,  // measure 44
0001
0000
1000
0001
1000
0000
0001
0000
0010
0000
0001
0010
0100
0000
0000
0000
,  // measure 45
0010
0001
1000
0010
,  // measure 46
0100
0000
0000
0000
0001
0000
1000
0000
0001
1000
0001
1000
0001
0000
0000
0000
,  // measure 47
1000
0100
1000
0010
,  // measure 48
0100
0000
0000
0000
0001
0000
0010
0001
0010
0000
0001
0000
0100
0000
0000
0000
,  // measure 49
0001
0010
0001
1000
,  // measure 50
0100
0000
0010
0000
0100
1000
0010
0000
,  // measure 51
0100
0001
0010
0001
,  // measure 52
1000
0000
0000
0000
0001
1000
0001
1000
0001
0000
0001
0000
0200
0000
0000
0000
,  // measure 53
0000
0000
0300
1001
,  // measure 54
0100
1001
0000
0110
0000
0000
0001
0000
,  // measure 55
0011
0001
0110
0010
,  // measure 56
1100
0000
0000
0000
0100
0000
0000
0010
0100
0000
1000
0000
0001
0000
0000
0000
,  // measure 57
1010
0010
1100
0100
,  // measure 58
0110
0000
0100
0000
0011
0001
1000
0000
,  // measure 59
1010
0001
0110
0010
,  // measure 60
1010
0000
1000
0000
1001
0001
0010
0000
,  // measure 61
0110
0100
0011
0002
,  // measure 62
0000
0000
0003
1000
0100
0010
0100
0000
,  // measure 63
0011
0001
1010
0010
,  // measure 64
0110
0000
0000
0000
0001
0000
1000
0001
1000
0000
0001
0000
1000
0000
0000
0000
,  // measure 65
1100
1000
1010
0010
,  // measure 66
0110
0000
0100
0000
0101
0001
0010
0000
,  // measure 67
0110
0010
0011
0001
,  // measure 68
1001
0000
0000
0000
0001
0100
0001
0100
0001
0000
0001
0000
1001
0000
0000
0000
,  // measure 69
1010
0000
1000
0010
0100
0000
0000
0101
0000
0000
0011
0000
2001
0000
0000
0000
,  // measure 70
0001
0000
3001
0220
,  // measure 71
0000
0000
0000
0000
,  // measure 72
0330
0000
0000
0000
;

//---------------dance-single - ----------------
#NOTEDATA:;
#CHARTNAME:;
#STEPSTYPE:dance-single;
#DESCRIPTION:;
#CHARTSTYLE:;
#DIFFICULTY:Medium;
#METER:9;
#RADARVALUES:0.337515,0.405714,0.328776,0.145273,0.003823,309.000000,266.000000,43.000000,19.000000,0.000000,0.000000,0.000000,0.000000,0.000000,0.337515,0.405714,0.328776,0.145273,0.003823,309.000000,266.000000,43.000000,19.000000,0.000000,0.000000,0.000000,0.000000,0.000000;
#CREDIT:Pandemonium X;
#NOTES:
0000
0000
0000
0000
,
0000
0000
0000
0000
,
0000
0000
0000
0000
,
1000
0000
0010
0000
0100
0000
0002
0003
,
0010
0001
1000
0010
,
1001
0000
0000
0000
,
0000
0000
0000
0000
,
0001
0000
1000
0000
0001
0020
0000
0000
,
0000
0030
0000
0100
0010
0001
2000
0000
,
0000
0000
3001
0000
0100
0002
0000
0000
,
0000
0000
0003
0100
0001
0010
0000
0000
,
0100
0000
0010
0000
0100
2000
0000
0000
,
0000
3000
0000
0100
0010
0100
1000
0000
,
0010
0000
1000
0000
0010
0200
0000
0000
,
0000
0300
0000
0010
1000
0001
0000
0000
,
1000
0000
0001
0000
0010
0002
0000
0000
,
0000
0003
0000
0010
0001
0100
0020
0000
,
0000
0000
1030
0000
0100
2000
0000
0000
,
0000
3000
0000
0100
0010
0100
0000
0000
,
0010
0000
0001
0000
1000
0020
0000
0000
,
0000
0030
0000
0100
0010
1000
0001
0000
,
0001
0000
1000
0000
0001
2000
0000
0000
,
0000
3000
0000
1001
,
0001
0010
0001
1001
,
1000
0000
0010
0000
1000
0010
0110
0000
,
0100
0010
1000
1001
,
1000
0000
0001
0000
1000
0100
0110
0000
,
0010
0001
0010
0110
,
0100
0000
1000
0000
0100
0010
0110
0000
,
0010
0002
0003
2000
,
0000
3001
1000
0001
1000
0001
0100
0000
,
0001
0000
0010
0000
0100
0000
0010
0001
,
1000
0010
0000
0000
0000
0000
0100
0000
,
0010
0000
1000
0000
0001
1000
0100
0000
,
1000
0010
0000
0000
0000
0100
0010
0000
,
1000
0001
0000
0000
0000
0010
0100
0000
,
0010
0011
0011
0001
,
1020
0000
0130
0000
0010
1000
1001
0000
,
1000
1001
0000
0110
0000
0000
0001
0000
,
0010
0001
1000
0010
,
1000
0000
0100
0000
0010
0100
1000
0000
,
0100
0010
0001
0100
,
0010
0000
1000
0001
1000
0001
0100
0000
,
0001
0010
0001
1000
,
0100
0010
0001
0010
0100
0010
0001
0000
,
1000
0000
0010
0000
1000
0200
0000
0000
,
0000
0000
0000
1300
0100
0010
0100
0000
,
0010
0001
0100
0001
,
1000
0000
0010
0000
0100
0001
0010
0000
,
0100
0010
0001
1000
,
0010
0000
0100
0000
0010
1000
0001
0000
,
1000
0001
0010
0001
,
0100
0000
0001
0010
0100
0000
0020
0000
,
0000
0000
0030
1001
,
0001
1001
0000
0110
0000
0000
1000
0000
,
1010
0010
0110
0100
,
0101
0001
0011
0010
,
0110
0100
1100
1000
,
1001
0001
0101
0001
,
1001
1000
1100
0100
,
0110
0010
0011
0001
,
0101
0000
0100
0000
0110
0200
0000
0000
,
0000
0000
0000
0310
1000
0001
1000
0000
,
1001
0001
0011
0001
,
1001
1000
1010
1000
,
1001
0001
0101
0001
,
1001
1000
1100
1000
,
1001
1000
1010
0010
,
0110
0100
0101
0001
,
0010
0000
0000
0000
0100
0000
0000
0010
0000
0000
0002
0000
2000
0000
0000
0000
,
0000
0000
0000
3003
;

//---------------dance-single - ----------------
#NOTEDATA:;
#CHARTNAME:;
#STEPSTYPE:dance-single;
#DESCRIPTION:;
#CHARTSTYLE:;
#DIFFICULTY:Easy;
#METER:6;
#RADARVALUES:0.245763,0.297523,0.275255,0.091752,0.000000,225.000000,189.000000,36.000000,12.000000,0.000000,0.000000,0.000000,0.000000,0.000000,0.245763,0.297523,0.275255,0.091752,0.000000,225.000000,189.000000,36.000000,12.000000,0.000000,0.000000,0.000000,0.000000,0.000000;
#CREDIT:Pandemonium X;
#NOTES:
0000
0000
0000
0000
,
0000
0000
0000
0000
,
0000
0000
0000
0000
,
1000
0001
1000
0001
,
0100
0010
1000
0001
,
1001
0000
0000
0000
,
0000
0000
0000
0000
,
0010
1000
0200
0000
,
0000
0300
0010
0002
,
0000
1003
0001
0200
,
0000
0300
0001
0000
,
0010
0001
2000
0000
,
0000
3000
0010
1000
,
1000
1000
0002
0000
,
0000
0003
1000
0000
,
0100
0000
1000
0000
,
0010
0000
0100
0000
,
0001
0000
0010
0000
,
0100
0000
0010
0000
,
0001
0000
1000
0000
,
0001
0000
0100
0000
,
0010
0000
1000
0000
,
0001
0000
1000
0001
,
0010
0001
0100
0001
,
0010
0001
1000
0100
,
0010
0100
1000
0010
,
0100
0010
1000
0001
,
0010
0001
1000
0100
,
0010
0100
1000
0001
,
0100
0020
0000
0200
,
0000
0000
0330
1001
,
0001
1000
0010
1000
,
1000
1000
0000
0001
,
1000
0100
0010
0100
,
0100
0100
0000
0010
,
0001
1000
0000
0100
,
1000
0010
1000
0001
,
0020
0130
0010
1001
,
0000
0110
0000
1001
0000
0000
0001
0000
,
1000
0010
1000
0001
,
0010
0100
0010
0001
,
0100
0001
1000
0100
,
0010
0100
1000
0010
,
0100
0010
1000
0001
,
0010
0001
1000
0100
,
0010
0100
1000
0001
,
0100
0001
0010
0100
,
0010
0001
0100
0010
,
1000
0100
0001
0100
,
1000
0010
1000
0001
,
0010
0001
0010
1000
,
0010
0100
0010
0001
,
0100
0001
1000
0200
,
0000
0000
0000
0310
,
0000
1001
0000
0110
0000
0000
0000
0000
,
1010
0000
1010
0000
,
1100
0000
1100
0000
,
0011
0000
0011
0000
,
1001
0000
1001
0000
,
0101
0000
0101
0000
,
1100
0000
1100
0000
,
1001
0000
1001
0220
,
0000
0000
0330
0000
,
1001
0000
1010
0000
,
1001
0000
0011
0000
,
1001
0000
1100
0000
,
1001
0000
0101
0000
,
1001
0000
1010
0000
,
0011
0000
0110
0000
,
1100
0000
0011
0002
,
0000
0000
0000
0003
;

//---------------dance-single - ----------------
#NOTEDATA:;
#CHARTNAME:;
#STEPSTYPE:dance-single;
#DESCRIPTION:;
#CHARTSTYLE:;
#DIFFICULTY:Beginner;
#METER:4;
#RADARVALUES:0.128889,0.216381,0.022938,0.045876,0.000000,118.000000,115.000000,3.000000,6.000000,0.000000,0.000000,0.000000,0.000000,0.000000,0.128889,0.216381,0.022938,0.045876,0.000000,118.000000,115.000000,3.000000,6.000000,0.000000,0.000000,0.000000,0.000000,0.000000;
#CREDIT:Pandemonium X;
#NOTES:
0000
0000
0000
0000
,
0000
0000
0000
0000
,
0000
0000
0000
0000
,
0010
0000
0010
0000
,
0100
0000
0100
0000
,
0000
0000
0000
0000
,
0000
0000
0000
0000
,
1000
0000
0000
0001
,
0000
0000
0000
0010
,
0000
0000
0000
0001
,
0000
0000
0000
0100
,
0000
0000
0000
0010
,
0000
0000
0000
1000
,
0000
0000
0000
0100
,
0000
0000
0000
1000
,
0000
0000
0000
0001
,
0000
0000
0000
0100
,
0000
0000
0000
0001
,
0000
0000
0000
0010
,
0000
0000
0000
0100
,
0000
0000
0000
0010
,
0000
0000
0000
0001
,
0000
0000
0000
1000
,
0001
1000
0000
0010
,
0100
0010
0000
1000
,
0001
1000
0000
0100
,
0010
0100
0000
0010
,
0010
0001
0000
1000
,
1000
0100
0000
2002
,
0000
0000
3003
0000
,
0000
0000
0000
0010
,
0000
1000
0000
0001
,
1000
0001
0000
1000
,
0000
0100
0000
1000
,
0010
1000
0000
0010
,
0000
0100
0000
0001
,
0001
1000
0000
0001
,
0000
1000
0000
0110
,
0000
0000
0000
1000
,
0000
1000
0000
1000
,
0000
1000
0000
0001
,
0000
0001
0000
0001
,
0000
0001
0000
0100
,
0000
0100
0000
0100
,
0000
0100
0000
0010
,
0000
0010
0000
0010
,
0000
0000
0000
1000
,
0000
0001
0000
1000
,
0000
0001
0000
0100
,
0000
0010
0000
0100
,
0000
0010
0000
1000
,
0000
0001
0000
1000
,
0000
0001
0000
0200
,
0000
0000
0000
0300
,
0000
0000
0000
0000
,
0010
0000
0010
0000
,
0100
0000
0100
0000
,
0001
0000
0001
0000
,
0010
0000
0010
0000
,
0001
0000
0001
0000
,
1000
0000
1000
0000
,
0010
0000
0010
0200
,
0000
0000
0300
0000
,
0010
0000
0010
0000
,
0100
0000
0100
0000
,
0001
0000
0001
0000
,
1000
0000
1000
0000
,
0010
0000
0010
0000
,
0100
0000
0100
0001
,
0000
1000
0000
0220
,
0000
0000
0000
0330
;
