#VERSION:0.83;
#TITLE:GOODFORTUNE;
#SUBTITLE:;
#ARTIST:EBIMAYO;
#TITLETRANSLIT:;
#SUBTITLETRANSLIT:;
#ARTISTTRANSLIT:;
#GENRE:;
#ORIGIN:;
#CREDIT:;
#BANNER:GOODFOATUNE.png;
#BACKGROUND:GOODFOATUNE-bg.png;
#PREVIEWVID:;
#JACKET:GOODFOATUNE-jacket.png;
#CDIMAGE:;
#DISCIMAGE:;
#LYRICSPATH:;
#CDTITLE:CDTitle.png;
#MUSIC:GOODFORTUNE.ogg;
#OFFSET:0.000000;
#SAMPLESTART:101.635071;
#SAMPLELENGTH:15.529411;
#SELECTABLE:YES;
#BPMS:0.000=170.000;
#STOPS:;
#DELAYS:;
#WARPS:;
#TIMESIGNATURES:0.000=4=4;
#TICKCOUNTS:0.000=4;
#COMBOS:0.000=1;
#SPEEDS:0.000=1.000=0.000=0;
#SCROLLS:0.000=1.000;
#FAKES:;
#LABELS:0.000=Song Start;
#BGCHANGES:;
#KEYSOUNDS:;
#ATTACKS:
;

//---------------dance-single - ----------------
#NOTEDATA:;
#CHARTNAME:;
#STEPSTYPE:dance-single;
#DESCRIPTION:;
#CHARTSTYLE:;
#DIFFICULTY:Hard;
#METER:14;
#RADARVALUES:0.698810,0.934685,0.481641,0.519269,0.368757,650.000000,586.000000,64.000000,69.000000,0.000000,0.000000,0.000000,0.000000,0.000000,0.698810,0.934685,0.481641,0.519269,0.368757,650.000000,586.000000,64.000000,69.000000,0.000000,0.000000,0.000000,0.000000,0.000000;
#CREDIT:Pandemonium X;
#NOTES:
// measure 0
0000
0000
0000
0000
,  // measure 1
0000
0000
0000
0000
,  // measure 2
0000
0000
0000
0000
,  // measure 3
0000
0000
0000
0000
,  // measure 4
0000
0000
0000
0000
,  // measure 5
0000
0000
0000
0000
,  // measure 6
0000
0000
0000
0000
,  // measure 7
0000
0000
0000
0000
,  // measure 8
0001
0100
0010
1000
0001
0100
0010
0100
,  // measure 9
0001
1000
0100
1000
0001
0010
0001
1000
,  // measure 10
0001
0010
0100
1000
0001
0010
0001
1000
,  // measure 11
0010
0100
0001
1000
0010
0010
0010
0010
,  // measure 12
0100
0001
0100
0010
1000
0001
0010
0100
,  // measure 13
0010
0001
1000
0010
1000
0100
0010
0001
,  // measure 14
0010
0000
0001
0000
0100
0000
0001
0000
1000
0010
1030
3010
0130
0001
0100
0001
,  // measure 15
0010
0000
0100
0010
0000
0001
0100
0010
1000
0001
0010
0001
1000
0000
0100
0000
,  // measure 16
0010
0100
1000
0100
0020
0000
0130
0000
,  // measure 17
0010
0001
0100
0010
2000
0000
3010
0000
,  // measure 18
1000
0010
0100
0010
2000
0000
3100
0000
,  // measure 19
1000
0000
0000
0000
0000
0000
1000
0000
0000
0000
0001
0000
0010
0100
0010
0001
,  // measure 20
1000
0010
0100
0010
2000
0000
3100
0000
,  // measure 21
0010
0001
0100
0010
0200
0000
0301
0000
,  // measure 22
0010
0001
1000
0010
0200
0000
0310
1000
,  // measure 23
0002
0000
0203
3000
0320
0000
0130
0000
,  // measure 24
0001
0000
0100
0000
0010
0000
1000
0000
1200
0000
0000
1300
0300
0000
0100
0000
,  // measure 25
0010
0000
0001
0000
0100
0000
0001
0000
1002
0000
0000
1003
0000
0000
0010
0000
,  // measure 26
0100
0000
0001
0000
0010
0000
0100
0300
0210
0000
0000
0310
0000
0000
0100
0000
,  // measure 27
1000
0000
0000
0000
0000
0000
0010
0000
0000
0000
1000
0000
0001
1000
3100
1000
,  // measure 28
0010
0000
0100
0000
0001
0000
0010
0000
0210
0000
0000
0310
0000
0000
0100
0000
,  // measure 29
0010
0000
0001
0000
0100
0000
0001
0000
0012
0000
0000
1003
0000
0000
0100
0000
,  // measure 30
1000
0000
0010
0000
0100
0000
0001
0000
2001
0000
0000
3010
0000
0000
0100
0000
,  // measure 31
1001
0110
1001
0010
,  // measure 32
1001
0000
0000
1010
0000
1000
0100
0010
,  // measure 33
0011
0000
0000
1100
0000
0001
0100
1000
,  // measure 34
1100
0000
0000
0101
0000
0001
0100
0010
,  // measure 35
1010
0000
0000
0101
0000
0001
0010
1000
,  // measure 36
1010
0010
0000
0010
0011
0001
0000
0100
,  // measure 37
0110
0010
0000
0010
1010
1000
0200
0000
,  // measure 38
0310
0010
0100
0100
1000
1000
0001
0001
,  // measure 39
0100
0100
1000
1000
0100
0020
2000
3030
,  // measure 40
0011
1200
0001
1300
,  // measure 41
1000
0100
0010
0000
0100
1000
0010
0100
,  // measure 42
0001
0100
0210
0000
0001
0000
0010
0000
,  // measure 43
0301
0010
0100
0000
0011
0000
0000
0000
,  // measure 44
1001
0021
1300
0001
,  // measure 45
1030
0010
0001
0000
0010
0001
0100
0001
,  // measure 46
2000
0000
3100
0020
0000
0130
2000
0000
,  // measure 47
3001
0000
1000
0010
0000
0100
0010
1000
0001
0000
1000
0000
0100
0000
0010
0000
,  // measure 48
1001
0002
0103
0020
1030
0002
0103
0002
,  // measure 49
1003
0200
0301
0200
1300
0200
0301
0200
,  // measure 50
1300
0020
0130
0002
1003
0002
1003
0002
,  // measure 51
1003
0001
0110
0000
1000
0001
0110
0000
,  // measure 52
1001
0000
0001
0200
0301
0020
0130
2000
,  // measure 53
3001
0020
1030
0020
0031
0020
1030
0020
,  // measure 54
0031
0200
0310
2000
3010
0200
0301
2000
,  // measure 55
3200
0300
0020
0030
0002
0003
1001
0000
,  // measure 56
0002
0100
2003
0100
,  // measure 57
3020
0100
2030
3200
,  // measure 58
0320
0100
0032
0100
,  // measure 59
3023
0100
0032
3203
,  // measure 60
0320
0100
2030
3020
,  // measure 61
0230
0001
0320
2030
,  // measure 62
3002
0010
2003
3002
,  // measure 63
0013
0000
0010
0000
0010
0000
0010
0030
,  // measure 64
1001
0000
1000
0000
0100
0000
0010
0000
0001
0000
0000
1100
0000
0000
0000
0000
,  // measure 65
0001
0000
0010
0000
0100
0000
1000
0000
0100
0000
0000
0011
0000
0000
0000
0000
,  // measure 66
1000
0000
0100
0000
0010
0000
0001
0000
0010
0000
0000
1100
0000
0000
0001
0000
,  // measure 67
0101
0000
0000
0000
0000
0000
1010
0000
0000
0000
0001
0000
0100
0010
1000
0001
,  // measure 68
0100
0000
0010
0000
1000
0000
0001
0010
0001
0000
1000
0000
0100
0000
0010
0000
,  // measure 69
0100
0000
1000
0000
0001
0000
0100
0010
0100
0000
0010
0000
1000
0000
0001
0000
,  // measure 70
0010
0100
0010
0100
0010
0100
0010
0100
0010
0100
0010
0100
0010
0100
0010
0100
,  // measure 71
0010
0000
0001
0010
0000
0010
0001
0100
0010
0000
1000
0000
0100
0000
0010
0000
,  // measure 72
0100
0000
0000
1000
0000
0000
0010
0000
0110
0000
0000
0000
0100
0010
1000
0001
,  // measure 73
0013
0000
0000
0100
0000
0000
0010
0000
0011
0000
0010
0000
0001
0000
1000
0000
,  // measure 74
0010
0000
0000
1000
0000
0000
0100
0000
0110
0000
0000
0000
0100
0000
1000
0000
,  // measure 75
1001
0000
0000
1000
0000
0000
0010
0000
1000
0001
1000
0001
0010
0100
0010
0100
,  // measure 76
1000
0000
0000
0010
0000
0000
0100
0000
0101
0000
0000
0000
1000
0100
0010
0100
,  // measure 77
1000
0000
0000
0100
0000
0000
0010
0000
0110
0000
0100
0000
1000
0000
0001
0000
,  // measure 78
1001
0000
0000
0010
0000
0000
0100
0000
0101
0000
0000
1000
0000
0000
0010
0000
,  // measure 79
0110
0000
0000
1010
0000
0000
0101
0000
1001
0000
0000
0000
0001
0100
0001
0013
,  // measure 80
0100
0000
0010
0001
0000
0100
0010
0000
1001
0000
0000
0000
1000
0010
1000
0001
,  // measure 81
0010
0000
0100
0010
0000
0010
0001
0000
1001
0000
0001
0000
0001
0000
1000
0000
,  // measure 82
0001
0000
0100
0010
0000
1000
0100
0000
0110
0000
0000
0000
0001
1000
3010
1030
,  // measure 83
3100
0000
0010
0100
0000
0010
0001
0000
1000
0100
1300
0010
1000
0001
1000
0001
,  // measure 84
1300
0000
0001
0010
0000
0001
1000
0000
0110
0000
0000
0000
0100
0001
0010
0100
,  // measure 85
1000
0000
0100
1000
0000
0100
0010
0000
0110
0000
0100
0000
0100
0000
0010
0000
,  // measure 86
0110
1001
0110
1001
,  // measure 87
0110
1001
0110
1001
,  // measure 88
1000
0000
0000
0001
0000
0000
0001
1000
0000
0000
0000
0000
0000
1000
0000
1000
,  // measure 89
3001
0000
0000
1000
0000
0000
0001
1000
0000
0000
0001
0000
0000
1000
0000
0001
,  // measure 90
1000
0000
0000
0001
0000
0000
1000
0001
0000
0000
1000
0000
0000
0001
0000
1000
,  // measure 91
0010
3000
0100
0001
0000
1000
0010
0100
0010
0000
1000
0000
0001
0000
0010
0000
,  // measure 92
1001
0000
0000
0000
;

//---------------dance-single - ----------------
#NOTEDATA:;
#CHARTNAME:;
#STEPSTYPE:dance-single;
#DESCRIPTION:;
#CHARTSTYLE:;
#DIFFICULTY:Medium;
#METER:12;
#RADARVALUES:0.538621,0.623123,0.421436,0.120410,0.071494,501.000000,445.000000,56.000000,16.000000,0.000000,0.000000,0.000000,0.000000,0.000000,0.538621,0.623123,0.421436,0.120410,0.071494,501.000000,445.000000,56.000000,16.000000,0.000000,0.000000,0.000000,0.000000,0.000000;
#CREDIT:Pandemonium X;
#NOTES:
0000
0000
0000
0000
,
0000
0000
0000
0000
,
0000
0000
0000
0000
,
0000
0000
0000
0000
,
0000
0000
0000
0000
,
0000
0000
0000
0000
,
0000
0000
0000
0000
,
0000
0000
0000
0000
,
0001
0100
0010
0000
0100
0001
1000
0000
,
0100
0010
0001
0000
0010
0001
0100
0010
,
1000
0001
0010
0000
0100
0010
0001
0000
,
0010
0001
0100
0000
0010
1000
0010
1000
,
0010
0100
0001
0000
0010
0001
1000
0000
,
0001
0100
0010
0000
0100
0010
1000
0000
,
0100
0010
0001
0000
1000
0010
0100
0000
,
0010
0000
0000
1000
0000
0000
0100
0000
0010
0000
0001
0000
1000
0000
0010
0000
,
0100
0001
0100
0001
0100
0000
0101
0000
,
1000
0010
1000
0010
1000
0000
1010
0000
,
1000
0100
1000
0100
1000
0000
1100
0000
,
1000
0000
0000
0001
0000
0100
0010
0000
,
0100
0001
0100
0001
0100
0000
0101
0000
,
0001
0010
0001
0010
0001
0000
0011
0000
,
1000
0010
1000
0010
1000
0000
1010
0000
,
1000
1000
1000
0110
,
0001
0010
0001
0100
0010
0000
0110
0000
,
0010
1000
0100
0010
0100
0000
0110
0000
,
0010
0001
0100
0001
1000
0000
1001
0000
,
1000
0000
0000
0010
0000
0100
0010
1000
,
0001
0010
1000
0010
0001
0000
1001
0000
,
0001
0100
1000
0100
0001
0000
0101
0000
,
0001
0010
0100
0010
0001
0000
0011
0000
,
0100
0100
0100
0110
,
1001
0000
0000
1010
0000
1000
0010
0100
,
0101
0000
0000
0011
0000
0001
0010
0100
,
1100
0000
0000
0110
0000
0100
1000
0010
,
0110
0000
0000
0101
0000
0000
0001
0000
,
1000
0001
0000
0100
0001
0100
0000
0010
,
0100
0010
0000
1000
0010
1000
0002
0000
,
1003
1000
0001
0001
0100
0100
0010
0010
,
1000
0010
0100
0001
1000
0100
0001
0000
,
1100
0001
0100
0010
,
1000
0010
1000
0000
0010
0100
0001
0000
,
0100
0010
1000
0000
0001
0000
0010
0000
,
0100
0000
0010
0100
1000
0000
0000
0000
,
1001
1000
0010
0001
,
0010
0100
0001
0000
0010
0100
1300
3000
,
0100
0000
1000
0010
0000
0100
0001
0000
,
0010
0000
0000
0100
0000
0000
0010
0000
0001
0000
0100
0000
0010
0000
1000
0000
,
0001
0010
0110
0000
0011
0000
0110
0000
,
0010
0001
0101
0000
0001
0100
0010
1000
,
0001
1000
1010
0000
1100
0000
1010
0000
,
1000
0001
1001
0000
1000
0001
1001
0000
,
0110
1010
1100
1010
,
1000
0010
0110
0000
0010
0100
0001
0010
,
0100
0000
0010
0001
0000
0010
0100
0000
,
0010
0001
0100
0110
,
2010
0000
3002
0000
,
0023
0000
0032
0203
,
0320
0000
0230
0000
,
0001
0000
0010
0000
,
0302
0000
2003
0000
,
3200
0000
0320
0230
,
2300
0000
0100
0000
,
0010
0010
0010
3010
,
0100
0010
0100
0001
1000
0000
1001
0000
,
0001
0010
0100
1000
0100
0000
1100
0000
,
1000
0100
0010
0001
1000
0000
1001
0000
,
0101
0000
0000
1010
0000
0001
0100
0001
,
1000
0010
1000
0010
1000
0000
0101
0000
,
0001
0010
0001
0010
0001
0000
1100
0000
,
0100
0010
0001
1000
0010
0000
0100
0000
,
0001
0000
0100
0010
2000
0200
3300
0000
,
0010
0000
0000
0010
0000
0000
0001
0003
1000
0000
0000
0000
0001
0000
0100
0000
,
0001
0000
0000
0001
0000
0000
0100
0000
0001
0000
0100
0000
0010
0000
0000
0000
,
0100
0000
0000
0100
0000
0000
0010
0000
1000
0000
0000
0000
0001
0000
0010
0000
,
0100
0000
0000
0100
0000
0000
0100
0000
0010
0000
0001
0000
0010
0000
0100
0000
,
1000
0000
0000
1000
0000
0000
0100
0000
1000
0000
0000
0000
0100
0000
1000
0000
,
0010
0000
0000
0010
0000
0000
0100
0000
0001
0000
1000
0000
0010
0000
0100
0000
,
0001
0000
0000
0001
0000
0000
1000
0000
0001
0000
0000
1000
0000
0000
0001
0000
,
0100
0000
0000
0010
0000
0000
1000
0000
0001
0000
0000
0000
1000
0000
0100
0000
,
0010
0000
0000
0100
0000
0000
1000
0000
0100
0000
0000
0000
1000
0000
0010
0000
,
0100
0000
0000
0010
0000
0000
0100
0000
0001
0000
0001
0000
0100
0000
0000
0000
,
0001
0000
0000
0100
0000
0000
0010
0000
1000
0000
0000
0000
0001
0000
1000
0000
,
0100
0000
0000
1000
0000
0000
0100
0000
1000
0000
0100
0000
0010
0000
0001
0000
,
0010
0000
0000
0001
0000
0000
0100
0000
0010
0000
0000
0000
0100
0000
0010
0000
,
1000
0000
0000
0001
0000
0000
1000
0000
0010
0000
0100
0000
0001
0000
1000
0000
,
1001
0110
1001
0110
,
1001
0110
1001
0010
,
1001
0000
0000
1000
0000
0000
0000
0000
,
0001
0000
0000
1000
0000
0000
0000
0000
,
0001
0000
0000
1000
0000
0000
0000
0000
,
0001
0000
0000
0100
0000
0000
0010
0000
1000
0000
0010
0000
0100
0000
0001
0000
,
1001
0000
0000
0000
;

//---------------dance-single - ----------------
#NOTEDATA:;
#CHARTNAME:;
#STEPSTYPE:dance-single;
#DESCRIPTION:;
#CHARTSTYLE:;
#DIFFICULTY:Easy;
#METER:8;
#RADARVALUES:0.338654,0.588505,0.218244,0.188141,0.000000,315.000000,286.000000,29.000000,25.000000,0.000000,0.000000,0.000000,0.000000,0.000000,0.338654,0.588505,0.218244,0.188141,0.000000,315.000000,286.000000,29.000000,25.000000,0.000000,0.000000,0.000000,0.000000,0.000000;
#CREDIT:Pandemonium X;
#NOTES:
0000
0000
0000
0000
,
0000
0000
0000
0000
,
0000
0000
0000
0000
,
0000
0000
0000
0000
,
0000
0000
0000
0000
,
0000
0000
0000
0000
,
0000
0000
0000
0000
,
0000
0000
0000
0000
,
1000
0100
1000
0100
,
0010
0100
0010
0100
,
0010
0001
0010
0001
,
1000
0001
0100
0100
,
0100
0010
1000
0010
,
0100
0001
0100
0001
,
0010
0001
0010
0100
,
2000
0000
0000
3000
,
0001
0100
0020
0030
,
0100
0001
2000
3000
,
0001
0100
0020
0030
,
1000
0000
0000
0001
0000
0000
1000
0000
,
0100
0010
0002
0003
,
0010
0100
2000
3000
,
0100
0010
0002
0003
,
0100
0100
0100
0110
,
1001
0001
2000
3000
,
0001
0100
0020
0030
,
0100
0001
2000
3000
,
0100
0000
0000
1000
0000
0000
0010
0000
,
0100
0001
0020
0030
,
0100
0010
0002
0003
,
0010
0001
2000
3000
,
0001
0001
0001
0001
,
1001
0000
0000
0110
0000
0000
0001
0000
,
1010
0000
0000
1100
0000
0000
0100
0000
,
0110
0000
0000
0011
0000
0000
0001
0000
,
0101
0000
0000
1010
0000
0000
0010
0000
,
1001
0000
0110
0000
,
1001
0000
0110
0000
,
0001
0100
0010
1000
,
0001
0000
0100
0000
0010
0100
0001
0000
,
1010
0001
1000
0100
,
1000
0010
1000
0000
0010
1000
0010
0000
,
0100
0001
1000
0001
,
0001
0000
1000
0001
0100
0000
0000
0000
,
1001
0001
0010
0100
,
1000
0100
0010
0000
0100
1000
0010
0000
,
0100
0000
0000
0010
0000
0000
1000
0000
,
0200
0000
0000
0300
,
1001
0001
0010
0100
,
0010
0001
0100
0010
,
1000
0001
0010
0100
,
1000
0001
1000
0000
1000
0001
1000
0000
,
0110
0001
0100
0010
,
1000
0010
0100
0000
0010
0000
1000
0000
,
0001
0000
0000
0010
0000
0000
0001
0000
,
1000
0100
0010
0001
,
2000
0000
0001
0000
,
0010
0000
0100
0000
,
0002
0000
0000
0000
,
0000
0000
0000
3003
,
0002
0000
1000
0000
,
0100
0000
0010
0000
,
2000
0000
0000
0000
,
0000
0000
0000
3003
,
0001
0100
0020
0030
,
1000
0100
0020
0030
,
0100
1000
0020
0030
,
0100
0000
0000
0001
0000
0010
0100
0000
,
0010
0001
0020
0030
,
0100
1000
0200
0300
,
1000
0001
0200
0300
,
0001
0000
0100
0010
0100
0001
0000
0000
,
0101
0001
1000
0001
,
0010
0001
1000
0100
,
0010
0100
1000
0010
,
0100
0000
0001
0000
1000
0100
0010
0001
,
0010
0001
0100
0010
,
1000
0010
0100
0001
,
1000
0100
0010
0001
,
0010
0000
0100
0000
1000
0000
0001
1000
,
0001
1000
1010
1000
,
0010
0000
0100
0000
0001
0100
0001
0000
,
0100
0001
0011
0001
,
0010
0000
0100
0000
1000
0100
0010
0001
,
0010
0100
0110
0010
,
0001
0000
0100
0000
0010
0100
0001
0000
,
1010
0101
1010
0101
,
1010
0101
1010
0001
,
1000
0000
0000
0001
0000
0000
0000
0000
,
1000
0000
0000
0001
0000
0000
0000
0000
,
1000
0000
0000
0001
0000
0000
0000
0000
,
0200
0000
0000
0000
,
0310
0000
0000
0000
;

//---------------dance-single - ----------------
#NOTEDATA:;
#CHARTNAME:;
#STEPSTYPE:dance-single;
#DESCRIPTION:;
#CHARTSTYLE:;
#DIFFICULTY:Beginner;
#METER:4;
#RADARVALUES:0.135462,0.242326,0.075256,0.000000,0.000000,126.000000,116.000000,10.000000,0.000000,0.000000,0.000000,0.000000,0.000000,0.000000,0.135462,0.242326,0.075256,0.000000,0.000000,126.000000,116.000000,10.000000,0.000000,0.000000,0.000000,0.000000,0.000000,0.000000;
#CREDIT:Pandemonium X;
#NOTES:
0000
0000
0000
0000
,
0000
0000
0000
0000
,
0000
0000
0000
0000
,
0000
0000
0000
0000
,
0000
0000
0000
0000
,
0000
0000
0000
0000
,
0000
0000
0000
0000
,
0000
0000
0000
0000
,
0001
0000
0000
0000
,
1000
0000
0000
0000
,
0010
0000
0000
0000
,
1000
0000
0001
0000
,
1000
0000
0000
0000
,
0100
0000
0000
0000
,
0010
0000
0000
0000
,
0100
0000
0000
0000
,
1001
0000
0000
0000
,
0001
0000
0000
0000
,
1000
0000
0000
0000
,
0010
0000
0000
0000
,
0100
0000
0000
0000
,
0001
0000
0000
0000
,
0010
0000
0000
0000
,
0100
0100
0100
0000
,
1001
0000
0000
0000
,
1000
0000
0000
0000
,
0010
0000
0000
0000
,
1000
0000
0000
0000
,
0100
0000
0000
0000
,
1000
0000
0000
0000
,
0010
0000
0000
0000
,
0100
0100
0100
0000
,
1001
0000
0000
0000
,
0010
0000
0000
0000
,
1001
0000
0000
0000
,
0100
0000
0000
0000
,
1001
0000
0001
0000
,
1000
0000
0001
0000
,
1000
0000
0100
0000
,
0010
0000
0001
0000
,
1001
0001
0000
0000
,
0100
0000
0000
0000
,
0010
0000
0000
0000
,
1000
0000
0001
0000
,
1001
0000
0000
0000
,
0010
0000
0000
0000
,
0001
0000
0000
0000
,
0100
0000
0000
0000
,
0110
0000
0010
0000
,
1000
0000
0000
0000
,
0001
0000
1000
0000
,
0100
0000
0100
0000
,
1001
0000
0000
0000
,
0001
0000
0000
0000
,
0010
0000
0001
0000
,
1000
0000
0000
0000
,
0001
0000
0000
0000
,
0100
0000
0000
0000
,
1000
0000
0000
0000
,
0000
0000
0000
0000
,
1000
0000
0000
0000
,
0100
0000
0000
0000
,
0001
0000
0000
0000
,
0000
0000
0000
0000
,
1000
1000
1000
0000
,
0001
0001
0001
0000
,
1000
1000
1000
0000
,
0001
0000
0000
0000
,
0100
0100
0100
0000
,
0010
0010
0010
0000
,
0100
0100
0100
0000
,
0010
0000
0000
0000
,
1000
0000
0000
0000
,
0100
0000
0000
0000
,
1000
0000
0000
0000
,
0010
0000
0100
0000
,
0010
0000
0000
0000
,
0100
0000
0000
0000
,
0001
0000
1000
0000
,
0001
0000
1000
0000
,
0010
0000
0000
0000
,
1000
0000
0000
0000
,
0100
0000
0000
0000
,
1000
0000
0001
0000
,
1000
0000
0000
0000
,
0010
0000
0000
0000
,
1000
0000
1000
0000
,
0001
0000
0001
0000
,
0100
0000
0000
0000
,
0010
0000
0000
0000
,
0100
0000
0000
0000
,
0010
0000
0000
0000
,
1001
0000
0000
0000
;
