#TITLE:GO OVER WITH GLARE -ROOTAGE 26-;
#SUBTITLE:;
#ARTIST:L.E.D.-G;
#TITLETRANSLIT:;
#SUBTITLETRANSLIT:;
#ARTISTTRANSLIT:;
#GENRE:HARDSTYLE;
#CREDIT:;
#BANNER:GO OVER WITH GLARE -ROOTAGE 26-.png;
#BACKGROUND:GO OVER WITH GLARE -ROOTAGE 26--bg.png;
#LYRICSPATH:;
#CDTITLE:CDTitle.png;
#MUSIC:GO OVER WITH GLARE -ROOTAGE 26-.ogg;
#OFFSET:-1.000000;
#SAMPLESTART:97.000000;
#SAMPLELENGTH:11.294121;
#SELECTABLE:YES;
#BPMS:0.000000=170.000000
;
#STOPS:
;
#BGCHANGES:0.000=GO OVER WITH GLARE -ROOTAGE 26-.avi=1.000=1=0=1===CrossFade==,
99999=-nosongbg-=1.000=0=0=0 // don't automatically add -songbackground-
;
#KEYSOUNDS:;
#ATTACKS:;

//---------------dance-single - ----------------
#NOTES:
     dance-single:
     :
     Hard:
     14:
     0.551505,0.888728,0.410182,0.410182,0.776129,480.000000,429.000000,51.000000,51.000000,0.000000,0.000000,0.551505,0.888728,0.410182,0.410182,0.776129,480.000000,429.000000,51.000000,51.000000,0.000000,0.000000:
// measure 0
0000
0000
0000
0000
,  // measure 1
0000
0000
0000
0000
,  // measure 2
0000
0000
0000
0000
,  // measure 3
0000
0000
0000
0000
,  // measure 4
0000
0000
0000
0000
,  // measure 5
0000
0000
0000
0000
,  // measure 6
0000
0000
0000
0000
,  // measure 7
0000
0000
0000
0000
,  // measure 8
0002
1003
0100
1000
,  // measure 9
0002
1003
0200
0310
,  // measure 10
0002
0103
0001
0010
,  // measure 11
0200
0310
0002
1003
,  // measure 12
0020
1030
0100
0010
,  // measure 13
0200
1300
0020
0130
,  // measure 14
0002
1003
0001
0010
,  // measure 15
0200
0310
0002
0103
,  // measure 16
0000
0000
0000
0000
0000
0000
2020
0000
0000
0000
0000
3030
,  // measure 17
0202
0000
0000
0000
0000
0303
2020
0000
0000
0000
0000
0000
,  // measure 18
3030
0000
0000
0000
0000
0000
2200
0000
0000
0000
0000
3300
,  // measure 19
0220
0000
0000
0000
0000
0330
0022
0000
0000
0000
0000
0000
,  // measure 20
0033
0000
0000
0000
0000
0000
0202
0000
0000
0000
0000
0303
,  // measure 21
0022
0000
0000
0000
0000
0033
0202
0000
0000
0000
0000
0000
,  // measure 22
0303
0000
0000
0000
0000
0000
0022
0000
0000
0000
0000
0033
,  // measure 23
0220
0000
0000
0000
0000
0330
2200
0000
0000
0000
0000
3300
,  // measure 24
1002
0013
0001
0100
,  // measure 25
0020
1030
0200
0310
,  // measure 26
0012
0103
0001
1000
,  // measure 27
1002
0000
0000
0103
0000
0000
0002
0000
0000
0103
0000
0010
,  // measure 28
1010
0010
0100
0001
,  // measure 29
1001
1000
0001
0010
,  // measure 30
1100
0110
0011
0101
,  // measure 31
0001
1000
0010
1000
0001
0010
0100
0010
0001
0100
0010
1000
,  // measure 32
0100
0000
0000
0000
,  // measure 33
1002
0010
0100
1003
,  // measure 34
1001
0001
0100
0010
,  // measure 35
1000
0000
0000
0001
0000
0000
0100
0000
0000
0001
0000
1000
,  // measure 36
0001
0010
0100
0010
,  // measure 37
0001
0000
0000
1000
0000
0001
0010
1000
0010
0001
0100
0010
,  // measure 38
1000
0100
1000
0001
,  // measure 39
0100
0000
0000
0001
0000
0000
0010
0000
0000
0100
0000
0010
,  // measure 40
0100
0000
0000
0010
0000
0001
0000
1000
0000
0010
0000
1000
,  // measure 41
0001
0000
0001
0000
0001
1000
0100
0000
0100
0000
0020
0000
,  // measure 42
0130
0010
0001
1000
0000
0000
0010
0000
0000
0100
0000
0001
,  // measure 43
0010
0001
2000
0010
,  // measure 44
3001
0100
0001
0010
,  // measure 45
0100
0000
0000
0010
0000
0001
0100
0000
0010
1000
0000
0001
,  // measure 46
1000
0100
0010
0100
,  // measure 47
1000
0000
0000
0001
0000
0000
0002
0000
0000
0013
0000
0010
,  // measure 48
0100
0000
0000
1000
0000
0000
0100
0010
0001
0010
0000
0100
,  // measure 49
1000
0000
0000
0000
0000
0000
0000
0000
0000
0000
0000
0000
0010
0000
0000
0000
0000
0000
0000
0000
0000
0000
0000
0000
0100
0000
0000
0000
0001
0000
0000
0000
0100
0000
0000
0000
0010
0000
0000
0000
1000
0000
0001
0000
0000
1000
0000
0000
,  // measure 50
0001
0000
0001
0000
1000
0000
0010
0000
0010
0000
1000
0000
,  // measure 51
0100
0000
0001
0000
0100
0000
0010
0000
0001
0000
1000
0000
,  // measure 52
0010
0000
0010
0000
0100
0000
0001
0000
0001
0000
1000
0000
,  // measure 53
0001
0000
0010
0000
1000
0000
0010
0000
0100
0000
0010
0000
,  // measure 54
0001
0000
0001
0000
0100
0000
1000
0000
1000
0000
0100
0000
,  // measure 55
0010
0000
1000
0000
0001
0000
0100
0000
0001
0000
0010
0000
,  // measure 56
0100
0000
0100
0000
0001
0000
0100
0000
0100
0000
0010
0000
,  // measure 57
0001
0000
0010
0000
0100
0000
0010
0000
0001
0000
1000
0000
,  // measure 58
1001
0000
0000
1000
0001
0010
0100
0000
0010
0000
0001
0000
,  // measure 59
1000
0000
0000
0000
0001
0000
0000
0000
0200
0000
0000
0000
0020
0000
0000
0000
0000
0000
0000
0000
0000
0330
0000
0000
,  // measure 60
1001
0000
0000
0001
0010
0001
1000
0000
0100
0000
0001
0000
,  // measure 61
0100
0000
0010
0000
0100
0000
1000
0000
0010
0000
0100
0000
,  // measure 62
0101
0000
0001
0000
0010
0000
0110
0000
1000
0000
0100
0000
,  // measure 63
0110
0000
0010
0000
0100
0000
1100
0000
0001
0000
1000
0000
,  // measure 64
1010
0000
1000
0000
0001
0000
0011
0000
0010
0000
0100
0000
,  // measure 65
1100
0000
0011
0000
0001
0100
0110
0000
1010
0000
1000
0001
,  // measure 66
0011
0000
0000
0000
,  // measure 67
2001
0100
0010
3001
,  // measure 68
0001
1000
0010
1000
0001
0010
0001
1000
0100
0010
0100
1000
,  // measure 69
0001
0000
0000
0100
0000
0000
0010
0000
1000
0010
0000
0100
,  // measure 70
0001
0010
0100
0010
0001
1000
0010
1000
0100
0010
0001
1000
,  // measure 71
0001
0000
0000
1000
0000
0000
0010
0000
0100
0010
0000
1000
,  // measure 72
0001
0010
0001
1000
0010
1000
0001
0010
0100
1000
0100
0010
,  // measure 73
0001
0010
0100
0010
0001
0100
0010
1000
0100
0010
0100
1000
,  // measure 74
0001
0000
1000
0010
0100
0010
0100
0000
0101
0000
0001
0010
,  // measure 75
0100
0000
1100
0000
0100
0010
0001
0000
1001
0000
0110
0000
,  // measure 76
1001
1000
0001
0010
0100
0010
0001
0100
0010
1000
0100
0010
,  // measure 77
0100
0000
0000
1000
0000
0000
0010
0000
0100
0001
0000
0010
,  // measure 78
0100
0010
0001
0100
0010
1000
0001
0010
0100
0010
0001
1000
,  // measure 79
0010
0000
0000
0100
0000
0000
0001
0000
1000
0010
0000
0100
,  // measure 80
0001
0000
0001
0000
0001
0010
0100
0000
0100
0000
0100
1000
,  // measure 81
0010
0000
0010
0000
0010
0100
0001
0000
0001
0000
0001
1000
,  // measure 82
1100
0000
0011
0000
0001
0100
0110
0000
1010
0000
0100
0001
,  // measure 83
0011
0000
0110
0000
0010
0001
1001
0000
1010
0000
0001
1000
,  // measure 84
0220
0000
0000
0000
,  // measure 85
0330
0000
0000
0000
;

//---------------dance-single - ----------------
#NOTES:
     dance-single:
     :
     Medium:
     11:
     0.404437,0.683637,0.233241,0.184984,0.305626,352.000000,323.000000,29.000000,23.000000,0.000000,0.000000,0.404437,0.683637,0.233241,0.184984,0.305626,352.000000,323.000000,29.000000,23.000000,0.000000,0.000000:
0000
0000
0000
0000
,
0000
0000
0000
0000
,
0000
0000
0000
0000
,
0000
0000
0000
0000
,
0000
0000
0000
0000
,
0000
0000
0000
0000
,
0000
0000
0000
0000
,
0000
0000
0000
0000
,
1000
0001
0010
0001
,
0100
0001
0010
0100
,
1000
0100
1000
0010
,
1000
0001
1000
0100
,
0010
0001
0100
0001
,
0010
0100
1000
0100
,
0010
0100
1000
0010
,
0100
0010
1000
0001
,
0000
0000
2000
0000
,
3020
0000
0200
0000
,
0330
0000
0200
0000
,
0302
0000
0020
0000
,
0033
0000
0020
0000
,
0230
0000
2000
0000
,
3300
0000
0200
0000
,
2300
0000
0002
3003
,
0110
0010
1000
0001
,
0010
0001
1000
0100
,
1001
0001
1000
0010
,
0110
0010
1000
0001
,
1001
0001
1001
1000
,
0110
0010
0110
0100
,
0110
1001
0110
1001
,
0010
0000
1000
0010
0000
0100
0001
0000
0010
0100
0000
0100
,
0020
0000
0000
0000
,
0001
0001
0001
0031
,
1100
1000
0001
0001
,
0100
0000
0000
0010
0000
0000
1000
0000
0000
0010
0000
0100
,
0010
0010
1000
1000
,
0100
0000
0000
0010
0000
0100
0010
0001
1000
0001
0000
0000
,
1000
0010
0100
0001
,
0010
0000
0000
0100
0000
0000
0010
0000
0000
0001
0000
1000
,
0100
0000
0000
0010
0000
0100
0000
1000
0000
0001
0000
1000
,
0001
0000
0001
0000
0001
1000
0010
0000
0100
0000
0001
0000
,
0010
0100
0010
0001
0000
0000
1000
0000
0000
0010
0000
0100
,
0001
0010
2002
3003
,
0001
1000
0010
1000
,
0010
0000
0000
0100
0000
0001
0010
0000
0010
0100
0000
0100
,
1000
0001
0100
0001
,
0010
0000
0000
0001
0000
0000
1000
0000
0000
0100
0000
0010
,
0100
0000
0000
1000
0000
0000
0001
0100
0010
1000
0000
0100
,
0010
0000
0000
0000
0000
0100
0010
0001
0010
0001
0010
0001
,
1000
0000
1000
0000
0000
0000
0001
0000
0001
0000
0000
0000
,
1001
0000
0110
0000
,
1000
0000
1000
0000
0000
0000
0010
0000
0010
0000
0000
0000
,
0101
0000
0011
0000
,
0010
0000
0010
0000
0000
0000
0100
0000
0100
0000
0000
0000
,
1000
0000
1000
0000
0000
0000
0001
0000
0001
0000
0000
0000
,
1000
0000
0010
0000
0000
0000
0100
0000
0001
0000
0000
0000
,
0010
0000
0100
0000
0000
0000
0100
0000
0010
0000
0000
0000
,
0011
0001
0100
0010
,
1000
0010
2000
0000
,
3001
0010
0001
1000
,
0100
0010
0100
1000
,
1001
0100
1001
0010
,
1001
0100
1001
0010
,
1001
0110
1001
0110
,
0001
0000
0100
0000
0010
0000
1000
0000
0010
0000
0100
0000
,
0001
0000
0000
0000
,
0220
0000
0000
0300
,
1030
0000
0000
0010
0000
0000
0100
0000
0000
0001
0000
0010
,
0100
0000
0000
0010
0000
0000
0001
0000
1000
0010
0000
0100
,
0010
0000
0000
1000
0000
0000
0100
0000
0000
0010
0000
0100
,
1000
0000
0000
0001
0000
0000
0100
0000
0000
0010
0000
1000
,
0100
0000
0000
0010
0000
0000
0001
0000
0000
0001
0000
1000
,
0100
0000
0000
0010
0000
0000
0100
0000
0000
0100
0000
1000
,
0010
0000
0100
0001
0000
1000
0100
0000
0010
0001
0000
0010
,
0100
0000
1000
0000
0010
0100
0001
0000
1000
0000
0001
0000
,
0020
0001
0100
0001
,
0130
0010
0001
0100
,
0020
1000
0100
1000
,
0130
0010
1000
0001
,
2000
0010
0100
3010
,
0002
0100
0010
0100
,
0013
0000
0100
0010
0001
1000
0001
0000
1000
0000
0010
1000
,
0010
0000
0101
0000
0001
0010
0100
0000
1100
0000
0100
0010
,
0002
0000
0000
0000
,
0003
0000
0000
0000
;

//---------------dance-single - ----------------
#NOTES:
     dance-single:
     :
     Easy:
     6:
     0.272306,0.341818,0.184984,0.233241,0.000000,237.000000,214.000000,23.000000,29.000000,0.000000,0.000000,0.272306,0.341818,0.184984,0.233241,0.000000,237.000000,214.000000,23.000000,29.000000,0.000000,0.000000:
0000
0000
0000
0000
,
0000
0000
0000
0000
,
0000
0000
0000
0000
,
0000
0000
0000
0000
,
0000
0000
0000
0000
,
0000
0000
0000
0000
,
0000
0000
0000
0000
,
0000
0000
0000
0000
,
1000
0001
1000
0001
,
0100
0001
0010
0001
,
1000
0001
1000
0001
,
0100
0001
1000
0100
,
0010
0100
0010
0100
,
0010
0001
1000
0010
,
0100
0001
0100
0001
,
0100
0010
1000
0001
,
0000
0000
1001
0000
,
0110
0000
2002
0000
,
3003
0000
0110
0000
,
1001
0000
0220
0000
,
0330
0000
0110
0000
,
1001
0000
0220
0000
,
0330
0000
1001
0000
,
0110
0000
2002
3003
,
0200
0000
0000
0000
,
0010
0000
0010
0000
,
0302
0000
0000
0000
,
2003
0000
0100
0000
,
3002
0000
0000
0000
,
2003
0000
3020
0000
,
0230
0000
0000
0000
,
0320
0000
2030
0000
,
3001
0000
0000
0000
,
0220
0000
0000
0330
,
0001
0100
0010
1000
,
0010
0100
0001
1000
,
0100
1000
0010
0100
,
0001
1000
0010
1001
,
0001
1000
0100
1000
,
0010
0100
0001
0010
,
0100
0010
0001
1000
,
0200
0000
0000
0000
,
0310
0010
0100
1000
,
0010
0100
0002
0003
,
1000
0001
0100
0001
,
0010
0100
0020
0030
,
0100
0010
0001
1000
,
0010
0100
0002
0003
,
1000
0001
1000
0010
,
1000
0010
0100
0001
,
1001
0000
0001
0000
,
1000
0000
0000
0000
,
0100
0000
1000
0000
,
0010
0000
0000
0000
,
0100
0000
0001
0000
,
0010
0000
0000
0000
,
0100
0000
0010
0000
,
0001
0000
0000
0000
,
1001
0000
0001
0000
,
1000
1000
2000
0000
,
3001
0000
1000
0000
,
0010
0010
0020
0130
,
0110
0000
1001
0000
,
1010
0000
0101
0000
,
0001
1000
0010
0100
,
0001
0100
0010
1000
,
1001
0000
0000
0000
,
0220
0000
0000
0330
,
0001
0001
0001
0001
,
1000
0001
0100
0010
,
1000
1000
1000
1000
,
0100
0001
0100
0010
,
0100
0100
0100
0100
,
0010
0010
0010
0010
,
0100
0010
0001
1000
,
0010
0100
0001
0100
,
0010
0010
0010
0010
,
0100
0001
1000
0010
,
0100
0100
0100
0100
,
0001
0010
1000
0010
,
0100
0000
0010
0000
,
0001
0000
1000
0000
,
0001
1000
0010
0100
,
0001
1000
0010
0100
,
2002
0000
0000
0000
,
3003
0000
0000
0000
;

//---------------dance-single - ----------------
#NOTES:
     dance-single:
     :
     Beginner:
     4:
     0.164303,0.608035,0.184984,0.000000,0.000000,143.000000,120.000000,23.000000,0.000000,0.000000,0.000000,0.164303,0.608035,0.184984,0.000000,0.000000,143.000000,120.000000,23.000000,0.000000,0.000000,0.000000:
0000
0000
0000
0000
,
0000
0000
0000
0000
,
0000
0000
0000
0000
,
0000
0000
0000
0000
,
0000
0000
0000
0000
,
0000
0000
0000
0000
,
0000
0000
0000
0000
,
0000
0000
0000
0000
,
1000
0000
0000
0000
,
0010
0000
0010
0000
,
0100
0000
0000
0000
,
0001
0000
1000
0000
,
0001
0000
0000
0000
,
0010
0000
0001
0000
,
0100
0000
0000
0000
,
0010
0000
1000
0000
,
0000
0000
0001
0000
,
0001
0000
0001
0000
,
0000
0000
1000
0000
,
1000
0000
1000
0000
,
0000
0000
0010
0000
,
0010
0000
0010
0000
,
0000
0000
0100
0000
,
0100
0000
0100
0000
,
1001
0000
0000
0000
,
1000
0000
0001
0000
,
0010
0000
0000
0000
,
0001
0000
1000
0000
,
0100
0000
0000
0000
,
1000
0000
0010
0000
,
0100
0000
0000
0000
,
0010
0000
1000
0000
,
1001
0000
0000
0000
,
0110
0000
0000
0000
,
1000
0000
0000
0000
,
0001
0000
0000
0000
,
0010
0000
0000
0000
,
0001
0000
1001
0110
,
1001
0000
0000
0000
,
1000
0000
0000
0000
,
0100
0000
1000
0000
,
0010
0000
0000
0000
,
0100
0100
0100
0000
,
0010
0000
1000
0000
,
0001
0000
0000
0000
,
1000
0000
0001
1000
,
0001
0000
0000
0000
,
0010
0000
0000
0000
,
0100
0000
0010
0000
,
0001
0000
1001
0110
,
1001
0000
0000
0000
,
1000
0000
0000
0000
,
0001
0000
0000
0000
,
0100
0000
0000
0000
,
0010
0000
0000
0000
,
1000
0000
0000
0000
,
0100
0000
0000
0000
,
1000
0000
0000
0000
,
1001
0000
0001
0000
,
1000
0000
0010
0000
,
1001
0000
1000
0000
,
0001
0000
0100
0000
,
1001
0000
0010
0000
,
1001
0000
0100
0000
,
1001
1001
1001
1001
,
0110
0110
1001
0110
,
1001
0000
0000
0000
,
0010
0000
0000
0000
,
1000
0000
0001
0000
,
0010
0000
0000
0000
,
0100
0000
0010
0000
,
0001
0000
0000
0000
,
1000
0000
1000
0000
,
0001
0000
0001
0000
,
0100
0000
0010
0000
,
1000
0000
0001
0000
,
1000
0000
0000
0000
,
0001
0000
0000
0000
,
0010
0000
0000
0000
,
0001
0000
0000
0000
,
1000
0000
0000
0000
,
0001
0000
0000
0000
,
0100
0000
0010
0000
,
1000
0000
0001
0000
,
0110
0000
0000
0000
;
