#TITLE:Force of Quartz;
#SUBTITLE:;
#ARTIST:The 4th;
#TITLETRANSLIT:;
#SUBTITLETRANSLIT:;
#ARTISTTRANSLIT:;
#GENRE:;
#CREDIT:;
#BANNER:Force of Quartz.png;
#BACKGROUND:Force of Quartz-bg.png;
#LYRICSPATH:;
#CDTITLE:CDTitle.png;
#MUSIC:Force of Quartz.ogg;
#OFFSET:-0.028000;
#SAMPLESTART:69.828003;
#SAMPLELENGTH:17.455000;
#SELECTABLE:YES;
#BPMS:0.000000=220.000000
;
#STOPS:
;
#BGCHANGES:;
#KEYSOUNDS:;
#ATTACKS:;

//---------------dance-single - ----------------
#NOTES:
     dance-single:
     :
     Beginner:
     7:
     0.263684,0.449409,0.136428,0.000000,0.000000,230.000000,213.000000,17.000000,0.000000,0.000000,0.000000,0.263684,0.449409,0.136428,0.000000,0.000000,230.000000,213.000000,17.000000,0.000000,0.000000,0.000000:
// measure 0
0000
0000
0000
0000
,  // measure 1
0000
0000
0000
0000
,  // measure 2
0000
0000
0000
0000
,  // measure 3
0000
0000
0000
0000
,  // measure 4
0000
0000
0000
0000
,  // measure 5
0000
0000
0000
0000
,  // measure 6
0000
0000
0000
0000
,  // measure 7
0000
0000
0000
0000
,  // measure 8
1000
0000
0000
0000
,  // measure 9
0000
0000
0000
0000
,  // measure 10
0001
0000
0000
0000
,  // measure 11
0000
0000
0000
0000
,  // measure 12
0100
0000
0010
0000
,  // measure 13
1000
0000
0001
0000
,  // measure 14
0100
0000
0010
0000
,  // measure 15
1001
0000
0000
0000
,  // measure 16
0001
0001
0001
0000
,  // measure 17
1000
0000
0001
0000
,  // measure 18
1000
1000
1000
0000
,  // measure 19
0001
0000
1001
0000
,  // measure 20
0100
0100
0100
0000
,  // measure 21
0010
0000
0100
0000
,  // measure 22
0010
0010
0010
0000
,  // measure 23
0100
0000
0110
0000
,  // measure 24
0001
0100
0010
0000
,  // measure 25
0100
0000
0010
0000
,  // measure 26
1000
0010
0100
0000
,  // measure 27
0010
0000
1001
0000
,  // measure 28
1000
0001
0010
0000
,  // measure 29
0100
0000
1000
0000
,  // measure 30
0010
0000
0000
0000
,  // measure 31
0000
0000
0000
0000
,  // measure 32
0110
0000
0000
0000
,  // measure 33
0000
0000
0000
0000
,  // measure 34
0001
0000
0000
0000
,  // measure 35
1000
0100
0010
0001
,  // measure 36
1000
0000
0000
0000
,  // measure 37
0000
0000
0000
0000
,  // measure 38
0001
0000
0000
0000
,  // measure 39
0100
0010
1000
0001
,  // measure 40
0010
0000
0000
0000
,  // measure 41
0000
0000
0000
0000
,  // measure 42
0100
0000
0000
0000
,  // measure 43
0010
0001
0100
0010
,  // measure 44
0100
0000
0000
0000
,  // measure 45
0010
0000
0000
0000
,  // measure 46
1000
0000
0001
0000
,  // measure 47
0010
0000
0000
0000
,  // measure 48
0100
0000
0000
0000
,  // measure 49
1000
0000
0000
0000
,  // measure 50
0010
0000
0000
0000
,  // measure 51
0100
0000
0000
0000
,  // measure 52
0001
0000
0000
0000
,  // measure 53
0010
0000
0000
0000
,  // measure 54
0100
0000
0000
0000
,  // measure 55
1000
0000
0110
0000
,  // measure 56
1001
0000
0001
0000
,  // measure 57
1000
0000
0010
0000
,  // measure 58
1000
0000
0001
0000
,  // measure 59
0100
0000
0001
0000
,  // measure 60
1000
0000
0100
0000
,  // measure 61
0010
0000
0001
0000
,  // measure 62
0100
0000
0010
0000
,  // measure 63
1000
1000
1000
1000
,  // measure 64
0001
1000
0001
0000
,  // measure 65
0100
0010
0100
0010
,  // measure 66
1000
0010
1000
0000
,  // measure 67
0100
0000
0010
0000
,  // measure 68
0001
0010
0001
0000
,  // measure 69
0010
0100
0010
0100
,  // measure 70
0010
0000
0001
0000
,  // measure 71
0100
0010
1000
0001
,  // measure 72
0010
0000
0100
0000
,  // measure 73
1000
0100
1000
0100
,  // measure 74
1000
0000
0010
0000
,  // measure 75
0100
0010
1000
0001
,  // measure 76
0010
0000
0100
0000
,  // measure 77
0010
0001
0010
0000
,  // measure 78
1001
0000
0110
0000
,  // measure 79
1001
0000
0000
0000
,  // measure 80
0001
0000
1000
0000
,  // measure 81
0010
1000
0100
0000
,  // measure 82
0010
0000
0100
0000
,  // measure 83
0010
0001
0100
0001
,  // measure 84
1000
0000
0001
0000
,  // measure 85
0010
0100
0010
0000
,  // measure 86
0100
0000
1000
0000
,  // measure 87
0010
1000
0001
0100
,  // measure 88
0010
0000
1000
0000
,  // measure 89
0001
0010
0100
0000
,  // measure 90
0010
0000
0001
0000
,  // measure 91
1000
0100
1000
0010
,  // measure 92
0100
0000
0010
0000
,  // measure 93
1000
0000
0001
0000
,  // measure 94
1001
0000
0110
0000
,  // measure 95
1001
0000
0000
0000
,  // measure 96
1000
0000
0000
0000
,  // measure 97
0001
0000
0000
0000
,  // measure 98
0010
0000
0000
0000
,  // measure 99
0100
0000
0000
0000
,  // measure 100
0110
0000
0000
0000
,  // measure 101
0100
0000
0000
0000
,  // measure 102
0010
0000
0001
0000
,  // measure 103
0100
0010
1000
0001
,  // measure 104
1001
0000
1000
0000
,  // measure 105
0001
0000
0010
0000
,  // measure 106
0001
0000
1000
0000
,  // measure 107
0100
0000
0010
0000
,  // measure 108
1001
0000
1000
0000
,  // measure 109
0001
0000
0100
0000
,  // measure 110
0010
0100
0001
1000
,  // measure 111
0100
0010
0001
0010
,  // measure 112
1001
0000
0000
0000
;

//---------------dance-single - ----------------
#NOTES:
     dance-single:
     :
     Easy:
     10:
     0.494121,0.719055,0.505585,0.008025,0.000000,431.000000,368.000000,63.000000,1.000000,0.000000,0.000000,0.494121,0.719055,0.505585,0.008025,0.000000,431.000000,368.000000,63.000000,1.000000,0.000000,0.000000:
// measure 0
0000
0000
0000
0000
,  // measure 1
0000
0000
0000
0000
,  // measure 2
0000
0000
0000
0000
,  // measure 3
0000
0000
0000
0000
,  // measure 4
0000
0000
0000
0000
,  // measure 5
0000
0000
0000
0000
,  // measure 6
0000
0000
0000
0000
,  // measure 7
0000
0000
0000
0000
,  // measure 8
1000
0000
0001
0000
,  // measure 9
0100
0000
0010
1000
,  // measure 10
0100
0000
1000
0000
,  // measure 11
0010
0000
0100
0001
,  // measure 12
1000
0001
0010
0000
,  // measure 13
0100
0010
0100
0000
,  // measure 14
0010
0001
0010
0100
,  // measure 15
1000
0000
1000
0100
1000
0000
0011
0000
,  // measure 16
1001
0001
1000
0010
,  // measure 17
1000
0100
1000
0010
,  // measure 18
0100
0001
0010
0100
,  // measure 19
0010
0001
1000
1001
,  // measure 20
0100
0001
1000
0100
,  // measure 21
1000
0010
0100
0001
,  // measure 22
0010
0100
0010
0001
,  // measure 23
1000
0010
0110
1001
,  // measure 24
0010
1000
0001
0010
,  // measure 25
0001
1000
0100
1000
,  // measure 26
0010
0100
0001
0010
,  // measure 27
0100
1000
0010
1001
,  // measure 28
0001
1000
0010
1000
,  // measure 29
0001
0010
0001
1000
,  // measure 30
0200
0000
0000
0000
,  // measure 31
0000
0000
0000
0000
,  // measure 32
0310
0000
0000
0001
0000
0001
0000
1000
,  // measure 33
0000
0010
0000
0010
,  // measure 34
0000
0000
0100
0000
0000
0010
0000
0100
,  // measure 35
0000
0001
1000
0000
0000
0000
0000
0000
,  // measure 36
0001
0000
0000
0010
0000
0010
0000
0001
,  // measure 37
0000
0100
0000
0100
,  // measure 38
0000
0010
0000
0000
1000
0000
0000
0100
,  // measure 39
0000
1000
0000
0000
,  // measure 40
0001
0000
0000
0010
0000
0010
0000
0100
,  // measure 41
0000
1000
0000
1000
,  // measure 42
0000
0000
0001
0000
0000
0100
0000
0010
,  // measure 43
0000
0100
0001
0000
0000
0000
0000
0000
,  // measure 44
0010
0000
0000
0100
0000
0100
0000
1000
,  // measure 45
0000
0001
0000
0001
,  // measure 46
0000
1000
0000
0000
0100
0000
0000
0001
,  // measure 47
0000
0100
0000
0000
,  // measure 48
1001
0000
0000
1000
0000
1000
0000
0001
,  // measure 49
0000
0100
0010
0000
0000
0000
0000
1000
,  // measure 50
0000
0001
0100
0000
0000
0000
0000
0010
,  // measure 51
0000
1000
0100
0000
0000
0000
0000
0010
,  // measure 52
0000
0001
0100
0000
0000
0000
0000
0010
,  // measure 53
0000
1000
0001
0000
0000
0000
0000
0010
,  // measure 54
0000
0100
1000
0000
0000
0000
0000
0001
,  // measure 55
0000
0100
0010
0000
1001
0000
0000
0000
,  // measure 56
1000
0100
1000
0010
,  // measure 57
1000
0001
0010
0100
,  // measure 58
0010
0001
0100
0010
,  // measure 59
1000
0100
1000
0010
,  // measure 60
1000
0100
0010
0001
,  // measure 61
1000
0100
0010
0001
,  // measure 62
0010
0100
1000
0010
,  // measure 63
1001
0110
1001
0110
,  // measure 64
1001
0001
0010
0001
,  // measure 65
1000
0100
1000
0010
,  // measure 66
0100
0001
0010
0100
,  // measure 67
1100
0110
0011
0110
,  // measure 68
1100
0100
1000
0010
,  // measure 69
0100
0001
0010
0100
,  // measure 70
1000
0100
0010
0001
,  // measure 71
1001
0110
1001
0110
,  // measure 72
1001
0001
1000
0010
,  // measure 73
1000
0001
0010
0100
,  // measure 74
0010
0001
0010
0100
,  // measure 75
1100
0110
0011
0110
,  // measure 76
1100
0100
1000
0010
,  // measure 77
0100
0001
1000
0010
,  // measure 78
1001
0000
0110
0000
,  // measure 79
1001
0110
1001
0110
,  // measure 80
0001
0100
0010
1000
,  // measure 81
0010
0001
0010
1000
,  // measure 82
0010
0100
0001
0010
,  // measure 83
0110
0011
0110
1100
,  // measure 84
1001
0001
1000
0010
,  // measure 85
0001
0010
1000
0100
,  // measure 86
0001
0100
1000
0010
,  // measure 87
0110
1001
0110
1001
,  // measure 88
0101
0001
0010
1000
,  // measure 89
0010
0100
1000
0100
,  // measure 90
0001
0100
1000
0010
,  // measure 91
1010
0110
0101
0011
,  // measure 92
0110
0100
0010
0001
,  // measure 93
0010
1000
0010
0001
,  // measure 94
0101
0000
1010
0000
,  // measure 95
1001
0110
1001
0110
,  // measure 96
0001
0001
0001
0001
,  // measure 97
0001
0001
0001
0001
,  // measure 98
1000
1000
1000
1000
,  // measure 99
1000
1000
1000
0000
,  // measure 100
0010
0010
0010
0010
,  // measure 101
0010
0010
0010
0010
,  // measure 102
0100
0010
1000
0001
,  // measure 103
0010
1000
0010
0001
,  // measure 104
1001
0001
1000
0001
,  // measure 105
1000
0001
1000
0001
,  // measure 106
0100
0010
0100
0010
,  // measure 107
0100
0010
0100
0000
,  // measure 108
0010
1000
0010
1000
,  // measure 109
0001
0100
0001
0100
,  // measure 110
0001
0011
1000
1100
,  // measure 111
1001
0110
1001
1010
,  // measure 112
0101
0000
0000
0000
;

//---------------dance-single - ----------------
#NOTES:
     dance-single:
     :
     Medium:
     13:
     0.628256,0.763996,0.633988,0.032101,0.004013,548.000000,469.000000,79.000000,4.000000,0.000000,0.000000,0.628256,0.763996,0.633988,0.032101,0.004013,548.000000,469.000000,79.000000,4.000000,0.000000,0.000000:
// measure 0
0000
0000
0000
0000
,  // measure 1
0000
0000
0000
0000
,  // measure 2
0000
0000
0000
0000
,  // measure 3
0000
0000
0000
0000
,  // measure 4
0000
0000
0000
0000
,  // measure 5
0000
0000
0000
0000
,  // measure 6
0000
0000
0000
0000
,  // measure 7
0000
0000
0000
0000
,  // measure 8
1000
0001
0010
0001
,  // measure 9
1000
0010
1000
0001
,  // measure 10
1000
0001
0100
0001
,  // measure 11
1000
0100
1000
0001
,  // measure 12
1001
1000
0100
0010
,  // measure 13
0001
1000
0100
0010
,  // measure 14
0001
1000
0100
0010
,  // measure 15
0001
0000
1000
0001
1000
0000
0001
0000
1001
0000
0000
0000
0110
0000
0000
0000
,  // measure 16
0001
0100
0001
0010
0001
0000
1000
0010
,  // measure 17
1000
0100
1000
0000
0001
1000
0001
0000
,  // measure 18
1000
0001
0100
0001
1000
0000
0001
1000
,  // measure 19
0100
1000
0001
0000
1000
0100
0010
0001
,  // measure 20
0100
0001
0010
0100
1000
0000
0010
0100
,  // measure 21
1000
0100
0010
0000
0100
1000
0010
0000
,  // measure 22
0100
0001
0010
0001
1000
0000
0001
1000
,  // measure 23
0100
0010
0100
0000
0010
0001
1000
0100
,  // measure 24
0010
0001
0100
0001
1000
0000
0001
1000
,  // measure 25
0010
1000
0100
0000
0010
0100
1000
0000
,  // measure 26
0100
1000
0010
0100
0010
0000
0100
0001
,  // measure 27
0010
0100
0010
0000
0100
0010
0001
1000
,  // measure 28
0100
1000
0010
0100
0001
0000
0010
0100
,  // measure 29
0010
0001
1000
0000
0001
0100
0010
0000
,  // measure 30
2000
3100
0002
0103
,  // measure 31
0020
1030
0200
0301
,  // measure 32
1001
0000
0000
1000
0000
1000
0000
0001
,  // measure 33
0000
1000
0010
0000
0000
0000
0010
0000
,  // measure 34
0000
0000
0100
0000
0000
0010
0000
1000
,  // measure 35
0000
0001
0010
0000
0000
0000
0000
0000
,  // measure 36
0100
0000
0000
1000
0000
1000
0000
0100
,  // measure 37
0000
1000
0010
0000
0000
0000
0010
0000
,  // measure 38
0000
0100
0000
0000
0010
0000
0000
1000
,  // measure 39
0000
0001
0000
0000
,  // measure 40
0010
0000
0000
0001
0000
0001
0000
0010
,  // measure 41
0000
0100
1000
0000
0000
0000
1000
0000
,  // measure 42
0000
0000
0100
0000
0000
1000
0000
0010
,  // measure 43
0000
0100
0001
0000
0000
0000
0000
0000
,  // measure 44
1000
0000
0000
0010
0000
0010
0000
0100
,  // measure 45
0000
0001
0010
0000
0000
0000
0010
0000
,  // measure 46
0000
0100
0000
0000
0010
0000
0000
0001
,  // measure 47
0000
1000
0001
0100
,  // measure 48
1001
0001
0010
0001
,  // measure 49
1000
0010
1000
0001
,  // measure 50
0010
0001
1000
0010
,  // measure 51
1000
0001
0100
0001
,  // measure 52
1000
0100
1000
0001
,  // measure 53
0100
0001
1000
0100
,  // measure 54
0010
0001
0010
0100
,  // measure 55
1000
0010
1001
0000
,  // measure 56
0001
0000
0100
0010
0100
0000
0010
1000
,  // measure 57
0010
0000
1000
0100
1000
0000
0100
0010
,  // measure 58
0100
0000
0010
0001
0010
0000
0001
0100
,  // measure 59
0001
0000
0100
0010
0100
0000
0010
1000
,  // measure 60
0010
0010
1000
1000
,  // measure 61
0001
0001
0100
0100
,  // measure 62
0001
0010
0100
1000
,  // measure 63
1001
1001
1001
1001
,  // measure 64
0001
0000
0100
0010
0100
0000
0001
0000
,  // measure 65
1000
0000
0010
0100
0010
0000
0100
0000
,  // measure 66
0001
0000
0010
0100
0010
0000
0100
0000
,  // measure 67
0110
0011
0110
1100
,  // measure 68
1001
0000
0001
0010
0001
0000
0010
0000
,  // measure 69
0100
0000
1000
0100
1000
0000
0100
0000
,  // measure 70
1000
0000
0010
1000
0010
0000
1000
0000
,  // measure 71
1010
0101
0011
0110
,  // measure 72
1100
0000
1000
0010
1000
0000
0010
0000
,  // measure 73
0100
0000
0001
0010
0001
0000
0010
0000
,  // measure 74
0100
0000
1000
0001
1000
0000
0001
0000
,  // measure 75
0101
0011
0101
1001
,  // measure 76
1100
0000
0100
0010
0100
0000
0010
0000
,  // measure 77
0001
0000
0100
0010
0100
0000
0010
0000
,  // measure 78
1001
0000
0110
0000
,  // measure 79
1001
0110
1001
0000
,  // measure 80
0110
0000
0100
0001
0010
0000
0100
0000
,  // measure 81
1100
0000
1000
0010
0100
0000
0001
0000
,  // measure 82
1001
0000
0001
1000
0010
0000
0100
0000
,  // measure 83
0101
0011
1100
0110
,  // measure 84
0011
0000
0001
0100
0010
0000
1010
0000
,  // measure 85
1000
0000
0001
1000
0100
0000
1100
0000
,  // measure 86
1000
0000
0010
1000
0001
0000
0011
0000
,  // measure 87
1001
0110
1001
0110
,  // measure 88
1001
0000
0001
0100
0010
0000
1010
0000
,  // measure 89
1000
0000
0100
1000
0010
0000
0110
0000
,  // measure 90
0100
0000
0010
1000
0001
0000
0011
0000
,  // measure 91
1001
0110
1001
1010
,  // measure 92
1001
0000
0001
1000
0100
0000
0110
0000
,  // measure 93
0010
0000
0100
1000
0010
0000
0110
0000
,  // measure 94
0101
0000
1010
0000
,  // measure 95
1001
0110
1001
0110
,  // measure 96
1001
1000
0010
1000
,  // measure 97
0001
0000
0010
0000
0100
0010
0100
0000
,  // measure 98
0010
0001
0100
0010
,  // measure 99
1000
0001
0010
0100
,  // measure 100
1001
0010
0001
0100
,  // measure 101
0010
0000
1000
0000
0001
0010
0100
0000
,  // measure 102
0010
0011
1000
1010
,  // measure 103
1001
0110
1001
0110
,  // measure 104
1001
1000
0001
0100
,  // measure 105
0010
0000
1000
0000
0100
0010
0001
0000
,  // measure 106
0010
0100
1000
0010
,  // measure 107
0100
0001
0010
0100
,  // measure 108
1001
1000
0001
0010
,  // measure 109
0001
0100
0010
1000
,  // measure 110
1001
0010
1001
0100
,  // measure 111
0101
1010
1100
0110
,  // measure 112
0011
0000
0000
0000
;

//---------------dance-single - ----------------
#NOTES:
     dance-single:
     :
     Hard:
     17:
     0.800224,1.213405,0.545711,0.000000,0.216679,698.000000,630.000000,68.000000,0.000000,0.000000,0.000000,0.800224,1.213405,0.545711,0.000000,0.216679,698.000000,630.000000,68.000000,0.000000,0.000000,0.000000:
// measure 0
0000
0000
0000
0000
,  // measure 1
0000
0000
0000
0000
,  // measure 2
0000
0000
0000
0000
,  // measure 3
0000
0000
0000
0000
,  // measure 4
0000
0000
0000
0000
,  // measure 5
0000
0000
0000
0000
,  // measure 6
0000
0000
0000
0000
,  // measure 7
0000
0000
0000
0000
,  // measure 8
1000
0001
0011
1000
,  // measure 9
0001
1100
0001
1001
,  // measure 10
0001
0010
0101
0001
,  // measure 11
0010
0000
0110
0000
0001
0010
0100
1000
,  // measure 12
0001
1000
0100
0010
0001
0010
0100
1000
,  // measure 13
0001
0100
0010
1000
0001
0100
0010
1000
,  // measure 14
0001
1000
0001
1000
0001
1000
0001
1000
0001
1000
0001
1000
0001
1000
0001
1000
,  // measure 15
0001
0000
1000
0010
1000
0000
0100
0000
0110
0000
0000
0000
1001
0000
0000
0000
,  // measure 16
1000
0100
0010
0100
1000
0000
0001
0010
,  // measure 17
0100
0010
0001
0000
1000
0001
0101
0000
,  // measure 18
0001
0010
0100
0010
0001
0000
1000
0100
,  // measure 19
0010
0100
1000
0000
0001
0100
1000
0100
,  // measure 20
0010
0100
0001
0010
0100
0000
0010
0001
,  // measure 21
0100
0010
0100
0000
0010
1000
1001
0000
,  // measure 22
1000
0010
0100
0010
1000
0000
0100
1000
,  // measure 23
0010
0100
0010
0000
0110
0000
1001
0000
,  // measure 24
0001
0100
1000
0100
0001
0000
1000
0100
,  // measure 25
0001
0100
1000
0000
0010
1000
1001
0000
,  // measure 26
0001
0010
1000
0010
0001
0000
1000
0010
,  // measure 27
0001
0010
1000
0000
0010
0001
1000
0010
,  // measure 28
0100
0001
0010
0100
1000
0000
0001
1000
,  // measure 29
0100
0010
0001
0000
1000
0001
1001
0000
,  // measure 30
0010
0000
1000
0010
1000
0000
0010
1000
0010
0000
1000
0010
1000
0000
0001
0000
,  // measure 31
0100
0000
0010
0100
0010
0000
0100
0010
0100
0000
0010
0100
0010
0000
0000
0000
,  // measure 32
1001
0000
0000
0001
0000
0001
0000
1000
,  // measure 33
0000
0001
0100
0000
0000
0000
0100
0000
,  // measure 34
0000
0000
0010
0000
0000
1000
0000
0001
,  // measure 35
0000
1000
0001
0000
0000
0000
0000
0000
,  // measure 36
0100
0000
0000
0010
0000
0010
0000
1000
,  // measure 37
0000
0001
0010
0000
0000
0000
0010
0000
,  // measure 38
0000
0100
0000
1000
0010
0000
0100
0001
,  // measure 39
0000
0010
0100
0000
1000
0000
0001
0000
,  // measure 40
0100
0000
0000
0010
0000
0010
0000
1000
,  // measure 41
0000
0001
0100
0000
0000
0000
0100
0000
,  // measure 42
0000
0000
0010
0000
0000
0100
0000
0010
,  // measure 43
0000
1000
0001
0000
0000
0000
0000
0000
,  // measure 44
0010
0000
0000
0100
0000
0100
0000
0010
,  // measure 45
0000
0001
1000
0000
0000
0000
1000
0000
,  // measure 46
0000
0001
0000
1000
0010
0000
0100
0001
,  // measure 47
0000
0010
0100
0000
0010
0000
0001
0000
,  // measure 48
1001
0000
0001
0100
0000
0010
0000
1000
,  // measure 49
0000
0100
0010
0000
0010
0000
0100
1000
,  // measure 50
0000
0010
0100
0000
0100
0000
0010
1000
,  // measure 51
0000
0001
0010
0000
0010
0000
0001
0010
,  // measure 52
0000
0100
1000
0000
1000
0000
0001
0100
,  // measure 53
0000
0010
0100
0000
0100
0000
0010
1000
,  // measure 54
0000
0001
0010
0000
0010
0000
0100
0010
,  // measure 55
0000
0010
0001
0000
1001
0000
0000
0000
,  // measure 56
1000
0010
0100
0000
0001
0010
0100
0000
,  // measure 57
0010
0001
1000
0000
0100
1000
0010
0000
,  // measure 58
0100
0010
1000
0000
0001
0010
0100
0000
,  // measure 59
0010
0001
1000
0000
0010
0100
0001
0000
,  // measure 60
1000
1000
0100
0100
,  // measure 61
0010
0010
0001
0001
,  // measure 62
0100
0010
1000
0001
,  // measure 63
1001
1001
1001
1001
,  // measure 64
1010
0000
0000
0001
0100
0000
0010
0000
1000
0000
0100
0000
0010
0000
0000
0000
,  // measure 65
0110
0000
0000
0100
0010
0000
0001
0000
1000
0000
0010
0000
0001
0000
0010
0000
,  // measure 66
1000
0000
0000
0001
0100
0000
0001
0000
0010
0000
0001
0000
1000
0000
0001
0000
,  // measure 67
1000
0100
0001
0100
1000
0010
0100
0001
,  // measure 68
1000
0000
0000
0010
0100
0000
0001
0000
0010
0000
0100
0000
1100
0000
0000
0000
,  // measure 69
0011
0000
0000
0010
0001
0000
0100
0000
0001
0000
1000
0000
0010
0000
0001
0000
,  // measure 70
0010
0000
0000
1000
0010
0000
0100
0000
0010
0000
1000
0000
0001
0000
0010
0000
,  // measure 71
0110
0100
1100
1000
1010
0010
0110
0100
,  // measure 72
0101
0000
0001
0100
0001
0000
0010
0000
0100
0000
0000
0000
1100
0000
0000
0000
,  // measure 73
0110
0000
0100
1000
0010
0000
0100
0000
0101
0000
0000
0000
1001
0000
0000
0000
,  // measure 74
0011
0000
1000
0100
0010
0000
0001
0000
0011
0000
0000
0000
0101
0000
0000
0000
,  // measure 75
0001
0010
1000
0010
0001
0010
0100
1000
,  // measure 76
1100
0000
0001
0100
0010
0000
1000
0000
1001
0000
0000
0000
0101
0000
0000
0000
,  // measure 77
0011
0000
0100
1000
0010
0000
0100
0000
0101
0000
0000
0000
1010
0000
0000
0000
,  // measure 78
0101
0010
1100
0010
,  // measure 79
1001
0110
1001
0110
,  // measure 80
0001
1000
0010
1000
0001
0010
0001
1000
,  // measure 81
0001
0000
0010
0000
0100
0000
1000
0000
0100
0000
1000
0000
0010
0000
0100
0010
,  // measure 82
1000
0100
0010
0001
0100
0010
1000
0001
,  // measure 83
1000
0000
0001
0010
0001
0000
0010
0100
0010
0000
0100
1000
0100
0000
1000
0010
,  // measure 84
1000
0000
0010
0000
0100
0000
0001
0000
0010
0000
0100
0000
0010
0000
0001
1000
,  // measure 85
0100
0000
0010
0000
0100
0000
1000
0000
0010
0000
0100
0000
0001
0000
0010
0100
,  // measure 86
1000
0100
0010
0001
0010
0100
0010
0001
,  // measure 87
1000
0000
0010
1000
0100
0000
0010
0001
0100
0000
0010
1000
0001
0000
0010
0100
,  // measure 88
1000
0000
0100
1000
0010
0000
0100
0000
0001
0000
1000
0000
0100
0000
0000
0000
,  // measure 89
0010
0000
0100
1000
0010
0000
0100
0000
0001
0000
0010
0000
0100
0000
0000
0000
,  // measure 90
0010
0000
0001
0100
0010
0000
0100
0000
0010
0000
1000
0000
0001
0000
0000
0000
,  // measure 91
1000
0000
0100
1000
0010
0000
0100
0001
0010
0000
0100
1000
0010
0000
0100
0001
,  // measure 92
1000
0000
0001
0100
0001
0000
0100
0000
0010
0000
1000
0000
1100
0000
0000
0000
,  // measure 93
0011
0000
0010
0001
0100
0000
0010
0000
1000
0000
0001
0000
1001
0000
0000
0000
,  // measure 94
1010
0000
0101
0000
,  // measure 95
1001
0110
1001
0110
,  // measure 96
1000
0001
0010
0001
,  // measure 97
1000
0000
0010
0000
1000
0100
0010
0000
,  // measure 98
0100
1000
0010
0100
,  // measure 99
0001
1000
0001
0100
,  // measure 100
1001
0001
0010
0001
,  // measure 101
1000
0010
0100
0001
,  // measure 102
0010
1100
0001
1010
,  // measure 103
0100
0101
1010
1100
,  // measure 104
1001
0001
0010
0001
,  // measure 105
0100
0000
0010
0000
1000
0001
0100
0000
,  // measure 106
0010
1000
0001
0010
,  // measure 107
0001
1000
0100
1000
,  // measure 108
0011
0001
0100
0010
,  // measure 109
1000
0000
0001
0000
0010
0100
1000
0000
,  // measure 110
0001
1000
0001
1000
0001
1000
0001
1000
0001
1000
0001
1000
0001
1000
0001
1000
,  // measure 111
0001
1100
0001
0110
,  // measure 112
1001
0000
0000
0000
;

//---------------dance-single - ----------------
#NOTES:
     dance-single:
     :
     Challenge:
     19:
     1.049004,1.483051,0.625963,0.224705,0.617938,915.000000,837.000000,78.000000,28.000000,0.000000,0.000000,1.049004,1.483051,0.625963,0.224705,0.617938,915.000000,837.000000,78.000000,28.000000,0.000000,0.000000:
// measure 0
0000
0000
0000
0000
,  // measure 1
0000
0000
0000
0000
,  // measure 2
0000
0000
0000
0000
,  // measure 3
0000
0000
0000
0000
,  // measure 4
0000
0000
0000
0000
,  // measure 5
0000
0000
0000
0000
,  // measure 6
0000
0000
0000
0000
,  // measure 7
0000
0000
0000
0000
,  // measure 8
1000
0100
0001
0100
1000
0000
0001
0100
,  // measure 9
1000
0001
0100
0000
0010
1000
0001
0000
,  // measure 10
1000
0010
0001
0010
1000
0000
0100
0001
,  // measure 11
0100
0010
0001
0000
1000
0001
0100
0010
,  // measure 12
1000
0100
0010
0001
1000
0010
0100
0001
,  // measure 13
1000
0100
0010
0001
1000
0010
0100
0001
,  // measure 14
1000
0001
1000
0001
1000
0001
1000
0001
1000
0001
1000
0001
1000
0001
1000
0001
,  // measure 15
1000
0000
0000
0010
0100
0010
0100
0000
0000
0100
0000
0000
1001
0000
0000
0000
0000
0000
0110
0000
0000
0000
0000
0000
,  // measure 16
0011
1000
0011
1000
0101
0000
1010
0001
,  // measure 17
1010
0001
1100
0000
0001
1000
0110
0000
,  // measure 18
1100
0001
1100
0001
1010
0000
0101
1000
,  // measure 19
0101
1000
0011
0000
1000
0001
0010
0100
,  // measure 20
1100
0001
1100
0001
1010
0000
0011
1000
,  // measure 21
0011
1000
0101
0000
0001
1000
0110
0000
,  // measure 22
0101
1000
0101
1000
0011
0000
1010
0001
,  // measure 23
1010
0001
1100
0000
1000
0001
0110
0000
,  // measure 24
0101
1000
0101
1000
0011
0000
0011
1000
,  // measure 25
0011
1000
0101
0000
0001
1000
0110
0000
,  // measure 26
1010
0001
1010
0001
1100
0000
1100
0001
,  // measure 27
1100
0001
1010
0000
0001
0010
0100
1000
,  // measure 28
0101
0010
0101
0010
0101
0000
1100
0010
,  // measure 29
1100
0010
1100
0000
1000
0001
0110
0000
,  // measure 30
1000
0001
1000
0001
0100
0010
0100
0010
1000
0001
1000
0001
0100
0010
0100
0010
,  // measure 31
1000
0010
1000
0010
0100
0001
0100
0001
0010
0001
0010
0001
1000
0100
1000
0100
,  // measure 32
1000
0000
0000
0100
0000
0001
0000
0100
,  // measure 33
0000
1000
0020
0000
0030
0000
0020
0030
,  // measure 34
0000
0000
0100
0000
0000
0010
0000
1000
,  // measure 35
0000
0001
0010
0100
1000
0100
0010
0001
,  // measure 36
1000
0000
0010
0001
0000
0010
0000
0100
,  // measure 37
0000
0001
0020
0000
0030
0010
0020
0030
,  // measure 38
0000
0200
0000
1300
0020
0000
0031
0020
,  // measure 39
0000
0130
0002
0000
1003
0100
0010
0001
,  // measure 40
0100
0000
0010
1000
0000
0100
0000
0001
,  // measure 41
0000
0100
0020
0000
0030
0000
0020
0030
,  // measure 42
0000
0000
0100
0000
0000
1000
0000
0010
,  // measure 43
0100
0010
1000
0001
0100
0010
1000
0001
,  // measure 44
0010
0000
1000
0010
0000
0001
0000
0100
,  // measure 45
0000
0010
2000
0000
3000
1000
2000
0000
,  // measure 46
3000
0002
0000
0013
2000
0000
3010
0200
,  // measure 47
0000
1300
0020
0000
0130
0000
0001
0000
,  // measure 48
1000
0000
0000
0000
0100
0000
0000
0000
0010
0001
0010
0000
0001
0000
0000
0000
,  // measure 49
0100
0000
0000
0000
0010
0000
0000
0000
1000
0001
1000
0000
0001
0000
0000
0000
,  // measure 50
0010
0000
0000
0000
0100
0000
0000
0000
1000
0010
1000
0000
0010
0000
0000
0000
,  // measure 51
0100
0000
0000
0000
0001
0000
0000
0000
0010
0100
0010
0000
0100
0000
0000
0000
,  // measure 52
1000
0000
0000
0000
0100
0000
0000
0000
0010
0001
0010
0000
0001
0000
0000
0000
,  // measure 53
0100
0000
0000
0000
0010
0000
0000
0000
1000
0001
1000
0000
0001
0000
0000
0000
,  // measure 54
0010
0000
0000
0000
0100
0000
0000
0000
1000
0010
1000
0000
0001
0000
0000
0000
,  // measure 55
1000
0000
0001
0000
0220
0000
0000
0330
,  // measure 56
1001
0000
0000
0001
0100
0000
0010
0000
1000
0000
0000
0100
0010
0000
0001
0000
,  // measure 57
1000
0000
0000
0100
1000
0000
0010
0000
0100
0000
0000
0010
0100
0000
0001
0000
,  // measure 58
0010
0000
0000
0100
0010
0000
0001
0000
1000
0000
0000
0001
0100
0000
0001
0000
,  // measure 59
1000
0000
0000
0100
0010
0000
0100
0000
1000
0000
0000
0010
1000
0000
0001
0000
,  // measure 60
0010
0100
1100
1000
0010
0100
0101
0001
,  // measure 61
0010
0100
1100
1000
0010
0100
0101
0001
,  // measure 62
0010
0100
0010
0100
0010
0100
0010
0100
0010
0100
0010
0100
0010
0100
0010
0000
,  // measure 63
1001
0010
1001
0100
1001
0010
1001
0000
,  // measure 64
1001
0000
0001
0100
0001
0000
0100
0000
0010
0000
1000
0000
0100
0000
0010
0000
,  // measure 65
0001
0000
1000
0010
1000
0000
0010
0000
0100
0000
0001
0000
0010
0000
0100
0000
,  // measure 66
1000
0000
0100
1000
0100
0000
1000
0000
0010
0000
0100
0000
0001
0000
1000
0000
,  // measure 67
0001
0000
1000
0001
0100
0000
0010
1000
0100
0000
0010
0001
0100
0000
0010
1000
,  // measure 68
0001
0000
0010
0100
0010
0000
0100
0000
1000
0000
0010
0000
1000
0000
0001
0000
,  // measure 69
0010
0000
0100
1000
0100
0000
1000
0000
0010
0000
1000
0000
0001
0000
0010
0000
,  // measure 70
0100
0000
1000
0100
1000
0000
0100
0000
1000
0000
0001
0000
0100
0000
0010
0000
,  // measure 71
1000
0000
0001
0010
0100
0000
0010
0001
0100
0000
0010
1000
0100
0000
0010
0100
,  // measure 72
1000
0000
0001
0100
0001
0000
0100
0000
0010
0000
0001
0000
0010
0000
1000
0000
,  // measure 73
0100
0000
0010
0001
0010
0000
0001
0000
0100
0000
1000
0000
0100
0000
0010
0000
,  // measure 74
1000
0000
0001
0010
0001
0000
0010
0000
1000
0000
0010
0000
0001
0000
0100
0000
,  // measure 75
0010
0000
1000
0001
0010
0000
0100
1000
0010
0000
0100
0001
1000
0000
0001
0010
,  // measure 76
0100
0000
0010
0001
0010
0000
0001
0000
0100
0000
1000
0000
0100
0000
0010
0000
,  // measure 77
1000
0000
0100
0010
0100
0000
0001
0000
0100
0000
1000
0000
0010
0000
0100
0000
,  // measure 78
0201
0310
2100
3010
,  // measure 79
1001
0000
0110
0000
1001
0000
0001
0001
,  // measure 80
1000
0001
1000
0000
1000
0001
1000
0000
1000
0001
1000
0000
1000
0001
1000
0000
,  // measure 81
0001
1000
0001
0000
0001
1000
0001
0000
0001
1000
0001
0000
0001
1000
0001
0000
,  // measure 82
0100
0010
0100
0000
0100
0010
0100
0000
0100
0010
0100
0000
0100
0010
0100
0000
,  // measure 83
0010
1000
0001
0000
0010
0100
1000
0000
0100
0010
0001
0000
0010
0100
1000
0000
,  // measure 84
0001
0100
0001
0000
0001
0100
0001
0000
0001
0100
0001
0000
0001
0100
0001
0000
,  // measure 85
1000
0010
1000
0000
1000
0010
1000
0000
1000
0010
1000
0000
1000
0010
1000
0000
,  // measure 86
0001
1000
0001
0000
0001
1000
0001
0000
1000
0001
1000
0000
1000
0001
1000
0000
,  // measure 87
0001
0100
0010
0000
1000
0100
0010
0000
0100
1000
0010
0000
0100
0001
1000
0000
,  // measure 88
0001
0100
0001
0000
0100
0010
0100
0000
0010
1000
0010
0000
1000
0100
1000
0000
,  // measure 89
0100
0010
0100
0000
0010
0001
0010
0000
0001
0100
0001
0000
0100
0010
0100
0000
,  // measure 90
0010
1000
0010
0000
1000
0001
1000
0000
0001
0010
0001
0000
0010
0100
0010
0000
,  // measure 91
0100
1000
0010
0000
0100
0001
0010
0000
0100
1000
0010
0000
0100
0001
1000
0000
,  // measure 92
0001
0100
0001
0000
0100
0010
0100
0000
0010
1000
0010
0000
1000
0001
1000
0000
,  // measure 93
0001
1000
0001
0000
0010
0001
0010
0000
1000
0100
1000
0000
0001
1000
0001
0000
,  // measure 94
1001
0001
0000
0100
0110
0000
1000
0100
,  // measure 95
1001
0001
0100
0000
1100
0000
0101
0000
,  // measure 96
1000
0001
1000
0001
0010
0001
1000
0010
,  // measure 97
1000
0010
0100
0001
0100
0100
0100
0010
,  // measure 98
0100
0010
1000
0001
1000
0001
0010
0001
,  // measure 99
1000
0100
1000
0100
1000
0010
1000
0000
,  // measure 100
0110
0010
0100
0001
0100
0001
0100
0010
,  // measure 101
1000
0001
1000
0001
1000
0001
0010
0100
,  // measure 102
1100
0000
0022
0033
0101
0010
0220
0330
,  // measure 103
1000
0000
0202
0303
2000
0000
3200
0000
,  // measure 104
0310
0000
0000
0100
1000
0000
0000
1000
0100
0000
0010
0000
0001
0000
0100
0000
,  // measure 105
0010
0000
0000
1000
0010
0000
0000
0010
0100
0000
0001
0000
0010
0000
0001
0000
,  // measure 106
1000
0000
0000
0001
0100
0000
0000
0010
1000
0000
0100
0000
0010
0000
0001
0000
,  // measure 107
1000
0000
0000
0001
1000
0000
0000
0010
0100
0000
0000
0001
1000
0000
0000
0000
,  // measure 108
1010
0000
0000
0100
0010
0000
0000
0010
1000
0000
0010
0000
0100
0000
0001
0000
,  // measure 109
0010
0000
0000
0100
0010
0000
0000
0010
0001
0000
0010
0000
0100
0000
1000
0000
,  // measure 110
0001
1000
0001
1000
0001
1000
0001
1000
0001
1000
0001
1000
0001
1000
0001
1000
,  // measure 111
0001
0100
0010
1000
0001
0100
0010
1000
0100
0010
0001
0100
0010
0000
0000
0000
,  // measure 112
1001
0000
0000
0000
;
