#TITLE:Empire of Fury;
#SUBTITLE:;
#ARTIST:kors k;
#TITLETRANSLIT:;
#SUBTITLETRANSLIT:;
#ARTISTTRANSLIT:;
#GENRE:;
#CREDIT:;
#BANNER:Empire of Fury.png;
#BACKGROUND:Empire of Fury-bg.png;
#LYRICSPATH:;
#CDTITLE:;
#MUSIC:Empire of Fury.ogg;
#OFFSET:-0.010000;
#SAMPLESTART:18.849529;
#SAMPLELENGTH:14.117649;
#SELECTABLE:YES;
#BPMS:0.000000=204.000000
;
#STOPS:
;
#BGCHANGES:0.000=Empire of Fury.avi=1.000=1=0=1===CrossFade==,
99999=-nosongbg-=1.000=0=0=0 // don't automatically add -songbackground-
;
#KEYSOUNDS:;
#ATTACKS:;

//---------------dance-single - ----------------
#NOTES:
     dance-single:
     :
     Challenge:
     17:
     0.930506,1.292914,0.873370,0.277519,0.726448,798.000000,691.000000,107.000000,34.000000,0.000000,0.000000,0.930506,1.292914,0.873370,0.277519,0.726448,798.000000,691.000000,107.000000,34.000000,0.000000,0.000000:
// measure 0
0000
0000
0000
0000
,  // measure 1
0000
0000
0000
0000
,  // measure 2
0000
0000
0000
0000
,  // measure 3
0000
0000
0000
0000
,  // measure 4
0000
0000
0000
0000
,  // measure 5
0000
0000
0000
0000
,  // measure 6
0000
0000
0000
0000
,  // measure 7
0000
0000
0000
0000
,  // measure 8
1001
0000
0001
0010
0000
0100
1000
0000
,  // measure 9
0011
1010
0011
0000
,  // measure 10
1001
0000
1000
0100
0000
0010
0001
0000
,  // measure 11
1100
0101
1100
0000
,  // measure 12
1001
0000
0001
0100
1000
0000
0100
0010
,  // measure 13
1000
0000
1000
0100
0001
0000
0001
0100
,  // measure 14
0010
0000
0001
0000
0100
0000
0010
0000
1000
0001
1000
0001
1000
0001
1000
0001
,  // measure 15
1000
1000
0001
2000
0000
3002
0000
0103
,  // measure 16
0120
0000
0000
0000
0000
0000
0000
0000
1030
0001
1000
0000
0001
0000
0100
0000
,  // measure 17
0001
0000
1000
0001
1000
0000
0100
0000
0010
0000
0001
0010
0001
0000
0010
0000
,  // measure 18
0100
1000
0100
0000
0010
0000
0001
1000
0001
0000
0100
0000
0010
1000
0010
0000
,  // measure 19
0100
0000
0001
1000
0001
0000
0010
0000
0100
0000
0010
0000
0001
0000
1000
0000
,  // measure 20
1002
0000
0000
0000
0000
0000
0000
0000
0013
0100
0010
0000
0100
0000
1000
0001
,  // measure 21
1000
0000
0001
0100
0001
0000
0100
0000
0010
0000
1000
0001
1000
0000
0001
0010
,  // measure 22
0001
0000
1000
0000
0100
1000
0100
0000
1000
0000
0010
1000
0010
0000
0100
0000
,  // measure 23
0001
0100
0010
1000
0001
0000
1000
0000
1001
0000
0000
0000
0110
0000
0000
0000
,  // measure 24
1001
0000
0000
1100
0100
0010
0110
0010
,  // measure 25
0001
0100
0110
1000
1001
0010
0100
0010
,  // measure 26
1001
0100
0010
1001
0001
0010
1100
0010
,  // measure 27
0001
1010
1010
1000
0001
0100
1000
0100
,  // measure 28
0002
0000
0003
0000
1100
0100
0010
0110
,  // measure 29
0100
0010
1001
1000
0110
0100
0010
0100
,  // measure 30
0110
0101
0011
1010
,  // measure 31
1001
0110
1010
1001
,  // measure 32
0021
0000
0100
0000
0130
0000
0000
0000
1000
0001
1000
0001
1000
0000
0001
1000
,  // measure 33
0001
0000
1000
0001
1000
0000
0001
1000
0001
1000
0001
1000
0001
0000
1000
0001
,  // measure 34
1000
0001
1000
0000
0001
0000
1000
0001
1000
0000
0001
1000
0001
1000
0001
0000
,  // measure 35
1000
0000
0001
1000
0001
0000
1000
0000
0100
0000
0001
0000
0200
0000
0000
0000
,  // measure 36
2300
0000
0010
0000
3010
0000
0000
0000
1000
0000
0001
1000
0001
0000
1000
0001
,  // measure 37
1000
0001
1000
0001
1000
0001
1000
0001
1000
0001
1000
0001
1000
0000
0001
1000
,  // measure 38
0001
1000
0001
0000
1000
0001
1000
0001
1000
0000
0001
1000
0001
1000
0001
0000
,  // measure 39
1000
0000
0001
1000
0001
1000
0001
0000
0010
0000
1000
0000
0010
0000
0001
0000
,  // measure 40
2000
0000
0100
0000
3100
0000
0000
0000
0010
0100
0010
0100
0010
0000
0100
0010
,  // measure 41
0100
0000
0010
0100
0010
0000
0100
0010
0100
0010
0100
0010
0100
0000
0010
0100
,  // measure 42
0010
0100
0010
0000
0100
0000
0010
0100
0010
0000
0100
0010
0100
0010
0100
0000
,  // measure 43
0010
0000
0100
0010
0100
0000
0010
0000
0001
0000
1000
0000
0002
0000
0000
0000
,  // measure 44
0013
0000
0100
0000
0100
0000
0000
0000
0010
0000
0100
0010
0100
0000
0010
0100
,  // measure 45
0010
0100
0010
0000
0100
0000
0010
0100
0010
0000
0100
0010
0100
0010
0100
0010
,  // measure 46
0100
0010
0100
0010
0100
0010
0100
0010
0100
0010
0100
0010
0100
0010
0100
0010
,  // measure 47
0100
0010
0100
0010
0100
0010
0100
0010
0100
0010
0100
0010
0100
0000
0000
0000
,  // measure 48
1001
0000
0001
0002
0000
0010
0023
0000
,  // measure 49
0100
0001
0130
0000
,  // measure 50
0200
0000
1000
2300
0000
0001
3002
0000
,  // measure 51
0100
0010
1003
0000
,  // measure 52
0200
0000
0010
0320
0000
0100
0230
0000
,  // measure 53
1000
0010
1300
0000
,  // measure 54
0002
0000
1000
2003
0000
0010
3020
0000
,  // measure 55
0030
0000
0100
0000
1000
0001
0000
0001
,  // measure 56
0021
0000
0130
2100
0000
3010
1020
0000
,  // measure 57
0100
1000
0130
0000
,  // measure 58
2010
0000
3001
2001
0000
3100
0120
0000
,  // measure 59
0001
0100
0031
0000
,  // measure 60
2100
0000
3010
1020
0000
0130
0210
0000
,  // measure 61
0001
0010
0301
1000
,  // measure 62
0001
0010
0100
0010
0001
1000
0010
0100
,  // measure 63
0001
0001
1000
0001
0000
0100
0000
0001
,  // measure 64
1001
0000
1100
0000
0011
0000
0101
0000
1010
0000
1001
0000
,  // measure 65
0001
0100
0010
1000
0001
0010
0100
0010
0001
1000
0100
0010
,  // measure 66
0001
0000
0110
0000
1100
0000
1010
0000
1001
0000
1010
0000
,  // measure 67
0001
0000
1000
0001
1000
0000
0001
1000
0010
0100
0001
0010
0100
0010
0001
1000
,  // measure 68
0001
0000
1100
0000
1010
0000
1001
0000
0011
0000
0110
0000
,  // measure 69
1100
1000
0100
0010
0001
0010
0100
0000
1100
0000
1001
0000
,  // measure 70
0101
0000
1010
0000
1001
0000
0011
0000
0110
0000
1100
0000
,  // measure 71
1001
0000
0000
1001
0000
0000
1001
0000
1001
0000
0000
0000
0110
0000
0000
0000
,  // measure 72
1001
0000
1010
0000
1100
0000
0110
0000
0011
0000
0110
0000
,  // measure 73
0001
1000
0001
0010
0100
0010
0001
1000
0010
1000
0001
0010
,  // measure 74
0100
0000
1100
0000
0011
0000
0101
0000
1010
0000
1001
0000
,  // measure 75
1100
0000
0100
1000
0010
0000
0100
0010
1000
0001
0010
0001
1000
0010
1000
0001
,  // measure 76
0100
0000
0101
0000
1010
0000
1100
0000
0110
0000
0011
0000
,  // measure 77
1001
1000
0001
0010
0100
0010
0001
1000
0010
1000
0100
0010
,  // measure 78
0011
1100
0101
1010
,  // measure 79
1001
0110
1010
0101
,  // measure 80
0001
0000
0010
0000
0001
0000
0100
0000
0010
0000
1000
0001
0010
0000
0100
1000
,  // measure 81
0001
0000
1000
0001
1000
0000
0001
0000
1000
0001
1000
0000
0001
1000
0001
0000
,  // measure 82
0100
0000
0010
0000
1000
0000
0000
0000
0001
0000
0010
0100
1000
0000
0100
1000
,  // measure 83
0020
1030
2000
3001
,  // measure 84
0010
0100
1000
0000
0100
0010
0011
0001
,  // measure 85
0100
0000
0010
0100
0010
0000
0100
0000
0010
0100
0010
0000
0100
0000
0010
0100
,  // measure 86
0010
0000
1000
0000
0001
0000
0000
0000
1000
0000
0000
0000
0001
0100
0001
0100
,  // measure 87
0001
0010
1000
0010
0001
0000
1001
0000
,  // measure 88
0110
0000
0100
0000
0001
0000
0010
0000
0100
0000
0010
0000
0001
1000
0010
1000
,  // measure 89
0100
0000
0010
0000
0100
0000
1000
0000
0001
0000
1000
0000
0010
1000
0010
0100
,  // measure 90
0001
0000
0010
0000
0100
0000
1000
0000
0001
0000
0010
0000
0100
0010
0001
1000
,  // measure 91
0001
0200
0000
0310
2000
0000
0100
0000
,  // measure 92
3010
0000
0100
0000
0010
0000
1000
0000
0100
0000
0010
0000
0100
0010
0001
1000
,  // measure 93
0100
0000
1000
0000
0010
0000
0100
0000
0001
0000
0010
0000
0100
0010
0001
1000
,  // measure 94
0010
0000
0100
0000
0001
0000
0010
0000
0001
0000
1000
0000
0100
0010
0100
1000
,  // measure 95
0001
0010
1000
0010
0001
0000
1100
0000
,  // measure 96
1001
0000
0000
0000
;

//---------------dance-single - ----------------
#NOTES:
     dance-single:
     :
     Hard:
     15:
     0.736942,0.783584,0.693798,0.048974,0.289763,632.000000,547.000000,85.000000,6.000000,0.000000,0.000000,0.736942,0.783584,0.693798,0.048974,0.289763,632.000000,547.000000,85.000000,6.000000,0.000000,0.000000:
// measure 0
0000
0000
0000
0000
,  // measure 1
0000
0000
0000
0000
,  // measure 2
0000
0000
0000
0000
,  // measure 3
0000
0000
0000
0000
,  // measure 4
0000
0000
0000
0000
,  // measure 5
0000
0000
0000
0000
,  // measure 6
0000
0000
0000
0000
,  // measure 7
0000
0000
0000
0000
,  // measure 8
1001
0000
0001
0010
0000
1000
0010
0000
,  // measure 9
1001
0110
1001
0000
,  // measure 10
1001
0000
1000
0100
0000
0001
0100
0000
,  // measure 11
1001
0110
1001
0000
,  // measure 12
0110
0000
0001
0100
0010
0000
1000
0010
,  // measure 13
0100
0000
0010
0100
0001
0000
1000
0100
,  // measure 14
0010
0000
0001
0000
0100
0000
0010
0000
1000
0001
1000
0001
1000
0001
1000
0001
,  // measure 15
0100
1000
0100
0001
0000
1000
0000
0100
,  // measure 16
0120
0000
0000
0000
0130
1000
0100
0010
,  // measure 17
0100
1000
1000
0001
0100
0100
0001
0010
,  // measure 18
0010
0001
1000
1000
0001
0100
0100
0001
,  // measure 19
0010
0010
0001
1000
0100
1000
0001
0010
,  // measure 20
0210
0000
0000
0000
1300
0010
0100
0010
,  // measure 21
1000
0001
0001
1000
0010
0010
1000
0100
,  // measure 22
0100
1000
0001
0001
1000
0010
0010
1000
,  // measure 23
0001
0100
0010
1000
0001
0000
1000
0000
1001
0000
0000
0000
0110
0000
0000
0000
,  // measure 24
1010
0000
1000
1100
0000
0001
0011
0000
,  // measure 25
0000
0100
0101
0000
1010
0000
0000
0000
,  // measure 26
1001
0000
0001
0011
0000
1000
1100
0000
,  // measure 27
0000
1001
1001
0000
1001
0000
0010
0000
,  // measure 28
0101
0000
0001
0011
0000
1000
1100
0000
,  // measure 29
0000
1010
0101
0000
,  // measure 30
0011
0110
1100
1010
,  // measure 31
0110
0101
1010
0101
,  // measure 32
1001
0001
0001
0000
1000
0010
0001
0010
,  // measure 33
1000
0010
0001
0010
1000
0010
0001
0010
,  // measure 34
1000
0010
0001
0010
1000
0010
0001
0010
,  // measure 35
1000
0010
0001
0010
0100
0010
1000
0000
,  // measure 36
1001
1000
1000
0000
1000
0100
0001
0100
,  // measure 37
1000
0100
0001
0100
1000
0100
0001
0100
,  // measure 38
1000
0100
0001
0100
1000
0100
0001
0100
,  // measure 39
1000
0100
0001
0100
0010
0001
1000
0000
,  // measure 40
0110
0100
0100
0000
0010
1000
1000
0010
,  // measure 41
1000
1000
0010
1000
1000
0010
1000
1000
,  // measure 42
0010
1000
1000
0010
1000
1000
0010
1000
,  // measure 43
1000
0010
1000
0100
0001
0100
1000
0000
,  // measure 44
0110
0010
0010
0000
0100
0010
0010
0100
,  // measure 45
0010
0010
0100
0010
0010
0100
0010
0010
,  // measure 46
0001
0000
0000
1000
0100
0000
0000
0100
0010
0000
0000
0010
0001
0000
0000
0001
,  // measure 47
0100
0000
0000
0100
0010
0000
0000
0010
1000
0000
0000
1000
0001
0000
0000
0001
,  // measure 48
1000
0000
0010
1000
0000
1000
0100
0000
,  // measure 49
0110
1100
0110
0000
,  // measure 50
1100
0000
1000
0100
0000
0100
0010
0000
,  // measure 51
0110
0011
0110
0000
,  // measure 52
1001
0000
0001
0100
0000
0001
1000
0000
,  // measure 53
1100
0011
1100
0000
,  // measure 54
0001
0000
1000
0010
0000
0100
0001
0000
,  // measure 55
0000
1001
0110
0000
,  // measure 56
0001
0000
0100
0010
0000
1000
0100
0000
,  // measure 57
0010
0100
0000
1000
0000
0001
1000
0000
,  // measure 58
0010
0000
1000
0001
0000
0010
0100
0000
,  // measure 59
0010
0001
0000
1000
0000
0100
0010
0001
,  // measure 60
1000
1000
0001
0001
,  // measure 61
0100
0100
0010
0010
,  // measure 62
1000
0010
0100
0001
0010
0100
0010
0001
,  // measure 63
1000
1000
0001
2000
0000
3020
0000
0130
,  // measure 64
0001
0000
1000
0000
0100
0000
0010
0000
0001
0000
1000
0000
,  // measure 65
0001
1000
0001
0010
0100
0010
0001
0000
1000
0000
0001
0000
,  // measure 66
0010
0000
0100
0000
0010
0000
0001
0000
1000
0000
0010
0000
,  // measure 67
0100
0000
0001
0100
0010
0000
0100
0010
1000
0000
0001
0000
1001
0000
1000
0000
,  // measure 68
0001
0000
0010
0000
0001
0000
1000
0000
0100
0000
0010
0000
,  // measure 69
0100
1000
0010
0100
0001
0010
0100
0000
0010
0000
0001
0000
,  // measure 70
1000
0000
0100
0000
1000
0000
0010
0000
0100
0000
0001
0000
,  // measure 71
0010
0000
0000
0010
0000
0000
0010
0000
0110
0000
0000
0000
1001
0000
0000
0000
,  // measure 72
0110
0000
1000
0000
0001
0000
0010
0000
0001
0000
1000
0000
,  // measure 73
0100
0010
0100
1000
0010
0100
0001
0000
0010
0000
0001
0000
,  // measure 74
1000
0000
0001
0000
0100
0000
0010
0000
1000
0000
0001
0000
,  // measure 75
1000
0000
0100
0010
0001
0000
0010
0100
1000
0000
0100
0000
1000
0000
0001
0000
,  // measure 76
0100
0000
0001
0000
0010
0000
0001
0000
1000
0000
0100
0000
,  // measure 77
0010
0100
1000
0010
0100
0001
1000
0000
0100
0000
0010
0000
,  // measure 78
0011
0110
0011
1100
,  // measure 79
0101
1100
1001
1010
,  // measure 80
1001
0001
0100
0010
1000
0010
1010
0000
,  // measure 81
1000
0100
0010
0001
0010
0100
1100
0000
,  // measure 82
0100
0010
0100
1000
0001
0100
0101
0000
,  // measure 83
2100
3010
0102
0013
,  // measure 84
0100
1000
0010
1000
0001
0010
0110
0000
,  // measure 85
0010
0001
1000
0010
1000
0100
1100
0000
,  // measure 86
0100
0010
0001
0100
0001
0010
0011
0000
,  // measure 87
0001
0100
1000
0100
0001
0000
1000
0000
,  // measure 88
0100
1000
0010
0100
0010
1000
1001
0000
,  // measure 89
0001
0010
0100
1000
0010
1000
1001
0000
,  // measure 90
0001
0100
0001
0010
0100
1000
1100
0000
,  // measure 91
1001
0010
1001
0100
,  // measure 92
0001
0100
0010
1000
0100
0010
0011
0000
,  // measure 93
0010
0001
1000
0010
1000
0100
0110
0000
,  // measure 94
0100
1000
0001
0100
0001
0010
0110
0000
,  // measure 95
1000
0100
0001
0100
1000
0000
1100
0000
,  // measure 96
0011
0000
0000
0000
;

//---------------dance-single - ----------------
#NOTES:
     dance-single:
     :
     Medium:
     13:
     0.573695,0.705226,0.489740,0.000000,0.257113,492.000000,432.000000,60.000000,0.000000,0.000000,0.000000,0.573695,0.705226,0.489740,0.000000,0.257113,492.000000,432.000000,60.000000,0.000000,0.000000,0.000000:
// measure 0
0000
0000
0000
0000
,  // measure 1
0000
0000
0000
0000
,  // measure 2
0000
0000
0000
0000
,  // measure 3
0000
0000
0000
0000
,  // measure 4
0000
0000
0000
0000
,  // measure 5
0000
0000
0000
0000
,  // measure 6
0000
0000
0000
0000
,  // measure 7
0000
0000
0000
0000
,  // measure 8
1000
0001
0010
0001
,  // measure 9
1000
1000
1000
0000
,  // measure 10
0001
1000
0010
1000
,  // measure 11
0001
0001
0001
0000
,  // measure 12
1000
0000
0001
0100
0001
0000
0100
0010
,  // measure 13
0100
0000
0010
1000
0010
0000
1000
0001
,  // measure 14
1000
0000
1000
0000
1000
0100
0010
0001
,  // measure 15
1000
1000
0001
1000
0000
1000
0000
0001
,  // measure 16
1001
0000
0001
0100
,  // measure 17
1010
1000
0100
0010
,  // measure 18
0011
0001
0100
0010
,  // measure 19
1010
1000
1100
0100
,  // measure 20
0110
0000
0100
1000
,  // measure 21
1100
0100
1000
0010
,  // measure 22
1010
0010
1000
0001
,  // measure 23
1000
0001
1000
0001
1000
0000
0001
0000
1000
0000
0000
0000
0110
0000
0000
0000
,  // measure 24
1001
0000
0000
0101
0000
0000
0011
0000
,  // measure 25
0000
1001
1100
0000
,  // measure 26
1001
0000
0000
1001
0000
0000
1001
0000
,  // measure 27
0000
0110
0110
0000
1010
0000
1000
0000
,  // measure 28
1010
0000
0000
0101
0000
0000
0011
0000
,  // measure 29
0000
1001
1001
0000
,  // measure 30
1000
0100
0001
0100
,  // measure 31
1000
0010
0001
0010
,  // measure 32
1000
0001
0001
0000
1000
0000
0001
0000
,  // measure 33
0100
0001
1000
0100
,  // measure 34
1000
0001
0100
0001
,  // measure 35
1000
0000
0001
0010
0100
1000
0001
0000
,  // measure 36
1000
0001
1000
0000
0001
0000
1000
0000
,  // measure 37
0010
1000
0001
0010
,  // measure 38
0001
1000
0010
1000
,  // measure 39
0001
0000
0010
0100
0010
0001
1000
0000
,  // measure 40
0010
1000
0001
0000
0010
0000
1000
0000
,  // measure 41
0010
0001
0100
1000
,  // measure 42
0100
0001
0100
0010
,  // measure 43
1000
0000
0010
0100
0010
1000
0001
0000
,  // measure 44
0010
1000
0100
0000
0010
0000
0001
0000
,  // measure 45
0010
1000
0010
0001
,  // measure 46
0011
0011
1100
1100
,  // measure 47
0101
1010
1100
0110
,  // measure 48
0011
0000
0001
0100
0000
0100
0001
0000
,  // measure 49
0100
0010
0100
0000
,  // measure 50
0010
0000
1000
0010
0000
0010
1000
0000
,  // measure 51
0001
1000
0001
0000
,  // measure 52
1000
0000
0100
1000
0000
1000
0100
0000
,  // measure 53
0010
0100
0010
0000
,  // measure 54
0100
0000
0100
1000
0000
1000
0010
0000
,  // measure 55
0000
0000
0100
0000
0010
0100
0000
0001
,  // measure 56
1000
0000
0001
0100
0000
0001
1000
0000
,  // measure 57
0010
1000
1010
0000
,  // measure 58
1000
0000
0100
1000
0000
0010
0100
0000
,  // measure 59
0001
1000
1100
0000
,  // measure 60
1100
0100
0110
0010
,  // measure 61
0011
0001
0101
0100
,  // measure 62
0010
0100
0010
0100
0010
0100
0010
0100
,  // measure 63
0010
0010
0100
0010
0000
0010
0000
0100
,  // measure 64
0001
0000
0100
0000
0001
0000
0010
0000
0100
0000
0010
0000
,  // measure 65
0001
0010
0100
1000
0001
0010
0100
0000
1000
0000
0010
0000
,  // measure 66
0100
0000
0001
0000
0010
0000
0001
0000
1000
0000
0100
0000
,  // measure 67
0010
0000
0000
0100
1000
0000
0000
1000
0001
0000
0000
0000
1010
0000
0000
0000
,  // measure 68
1000
0000
0001
0000
0010
0000
0001
0000
0100
0000
0010
0000
,  // measure 69
1000
0010
0100
0001
1000
0010
0100
0000
0001
0000
0010
0000
,  // measure 70
0100
0000
0010
0000
0001
0000
0010
0000
0100
0000
1000
0000
,  // measure 71
1100
0000
0000
1100
0000
0000
0001
0000
0101
0000
0000
0000
1010
0000
0000
0000
,  // measure 72
1001
0000
1000
0000
0010
0000
1000
0000
0001
0000
0010
0000
,  // measure 73
0100
0010
0001
0010
0100
1000
0100
0000
1000
0000
0010
0000
,  // measure 74
0100
0000
0001
0000
0010
0000
0001
0000
1000
0000
0100
0000
,  // measure 75
0010
0100
1000
0010
0100
0010
1000
0001
0010
0100
0000
0000
,  // measure 76
0010
0000
0001
0000
0100
0000
0001
0000
1000
0000
0100
0000
,  // measure 77
0010
0100
1000
0001
0100
0001
1000
0100
0010
0001
0000
0000
,  // measure 78
1000
1001
0001
1001
,  // measure 79
0010
0110
0100
0110
,  // measure 80
1000
0000
0010
0000
0100
0010
1000
0000
,  // measure 81
0001
0000
0010
0000
0100
0010
0001
0000
,  // measure 82
0010
0000
0100
0000
1000
0100
0010
0000
,  // measure 83
1001
0010
0100
1001
,  // measure 84
0001
0000
1000
0000
0010
1000
0001
0000
,  // measure 85
0010
0000
0100
0000
0010
0001
0100
0000
,  // measure 86
0010
0000
0100
0000
0010
0100
0001
0000
,  // measure 87
1000
0100
0010
0001
0010
0000
0000
0000
,  // measure 88
0100
0000
0010
0000
0001
1000
1001
0000
,  // measure 89
1000
0000
0001
0000
0100
0010
0110
0000
,  // measure 90
0010
0000
1000
0000
0100
0010
0110
0000
,  // measure 91
0100
1000
0000
0100
0000
0010
0001
0100
,  // measure 92
0010
0000
1000
0000
0001
0010
0110
0000
,  // measure 93
0100
0000
1000
0000
0001
0100
0110
0000
,  // measure 94
0010
0000
0100
0000
0001
0010
0110
0000
,  // measure 95
0001
0010
0100
1000
0001
0000
1001
0000
,  // measure 96
0110
0000
0000
0000
;

//---------------dance-single - ----------------
#NOTES:
     dance-single:
     :
     Easy:
     9:
     0.369637,0.509330,0.204058,0.000000,0.000000,317.000000,292.000000,25.000000,0.000000,0.000000,0.000000,0.369637,0.509330,0.204058,0.000000,0.000000,317.000000,292.000000,25.000000,0.000000,0.000000,0.000000:
// measure 0
0000
0000
0000
0000
,  // measure 1
0000
0000
0000
0000
,  // measure 2
0000
0000
0000
0000
,  // measure 3
0000
0000
0000
0000
,  // measure 4
0000
0000
0000
0000
,  // measure 5
0000
0000
0000
0000
,  // measure 6
0000
0000
0000
0000
,  // measure 7
0000
0000
0000
0000
,  // measure 8
1000
0000
0001
0000
,  // measure 9
1000
0000
0001
0000
,  // measure 10
0100
0000
0010
0000
,  // measure 11
0100
0000
0010
0000
,  // measure 12
1000
1000
0010
0010
,  // measure 13
0100
0100
0001
0001
,  // measure 14
1000
0010
0100
0001
,  // measure 15
0010
0100
0010
0100
0000
0000
0000
0000
,  // measure 16
0110
0000
0000
0001
0000
0000
0001
0000
,  // measure 17
1100
0000
0000
1000
0000
0000
1000
0000
,  // measure 18
0011
0000
0000
0001
0000
0000
0001
0000
,  // measure 19
0101
0000
1010
0000
,  // measure 20
1001
0000
0000
1000
0000
0000
0100
0000
,  // measure 21
1100
0000
0000
0010
0000
0000
0001
0000
,  // measure 22
0011
0000
0000
0001
0000
0000
1000
0000
,  // measure 23
0001
0100
0010
1000
0001
0000
1000
0000
,  // measure 24
1001
0000
0000
1001
0000
0000
1001
0000
,  // measure 25
0000
0110
0110
0000
,  // measure 26
1001
0000
0000
1001
0000
0000
1001
0000
,  // measure 27
0000
0010
0010
0000
0010
0000
0000
0000
,  // measure 28
1001
0000
0000
1001
0000
0000
1001
0000
,  // measure 29
0000
0110
0110
0000
,  // measure 30
0001
0100
0010
1000
,  // measure 31
0001
0010
0100
1000
,  // measure 32
0001
1000
0001
0000
1000
0000
0010
0000
,  // measure 33
1000
0001
0010
0100
,  // measure 34
0010
0001
0100
0001
,  // measure 35
1000
0100
1000
0010
,  // measure 36
0100
0001
1000
0000
0001
0000
0010
0000
,  // measure 37
0001
0100
0001
1000
,  // measure 38
0100
1000
0010
0100
,  // measure 39
0001
0000
1000
0000
0100
1000
0010
0000
,  // measure 40
0100
0010
0100
0000
0010
0000
0100
0000
,  // measure 41
0001
0010
0001
1000
,  // measure 42
0100
1000
0010
0100
,  // measure 43
0001
0000
1000
0000
0001
0100
0010
0000
,  // measure 44
0100
0010
1000
0000
0010
0000
0100
0000
,  // measure 45
0001
1000
0001
0010
,  // measure 46
0100
0100
0010
0010
,  // measure 47
0001
0001
1000
1000
,  // measure 48
0001
0000
1000
0000
,  // measure 49
0010
1000
0010
0000
,  // measure 50
1000
0000
0100
0000
,  // measure 51
0010
0100
0010
0000
,  // measure 52
0100
0000
1000
0000
,  // measure 53
0001
0100
0001
0000
,  // measure 54
0100
0000
0010
0000
,  // measure 55
0000
0000
0100
0000
0010
0100
0000
0100
,  // measure 56
0010
0000
1000
0000
,  // measure 57
0001
1000
0001
0000
,  // measure 58
0010
0000
0001
0000
,  // measure 59
1000
0100
1000
0000
,  // measure 60
0100
0100
1000
1000
,  // measure 61
0010
0010
0100
0100
,  // measure 62
0010
0100
0001
1000
,  // measure 63
1001
0000
0000
0000
,  // measure 64
0001
0000
0001
0000
,  // measure 65
1000
0000
1000
0000
,  // measure 66
0010
0000
0010
0000
,  // measure 67
0100
0100
0100
0000
,  // measure 68
0010
0000
1000
0000
,  // measure 69
0001
0000
0010
0000
,  // measure 70
0001
0000
1000
0000
,  // measure 71
0001
0001
0001
0000
,  // measure 72
1000
0000
0001
0000
,  // measure 73
0100
0000
0001
0000
,  // measure 74
0010
0000
0001
0000
,  // measure 75
1000
1000
1000
0000
,  // measure 76
0001
0000
1000
0000
,  // measure 77
0010
0000
1000
0000
,  // measure 78
0001
0010
0100
1000
,  // measure 79
0001
0010
0100
1000
,  // measure 80
0001
0100
0010
1000
,  // measure 81
0010
0100
0001
1000
,  // measure 82
0001
0010
0100
1000
,  // measure 83
1001
0000
0000
0000
,  // measure 84
1000
0001
0010
0001
,  // measure 85
1000
0100
0010
0100
,  // measure 86
1000
0010
0100
0001
,  // measure 87
1000
0100
0010
0001
1000
0000
0000
0000
,  // measure 88
0001
1000
0010
1000
,  // measure 89
0001
0010
0100
0010
,  // measure 90
0001
0100
0010
1000
,  // measure 91
0001
1000
0100
0010
,  // measure 92
0100
1000
0010
0100
,  // measure 93
0001
0010
0100
0010
,  // measure 94
0001
1000
0010
0100
,  // measure 95
0010
0100
0001
1000
0001
0000
0110
0000
,  // measure 96
1001
0000
0000
0000
;

//---------------dance-single - ----------------
#NOTES:
     dance-single:
     :
     Beginner:
     5:
     0.214553,0.352613,0.244870,0.057136,0.000000,184.000000,154.000000,30.000000,7.000000,0.000000,0.000000,0.214553,0.352613,0.244870,0.057136,0.000000,184.000000,154.000000,30.000000,7.000000,0.000000,0.000000:
// measure 0
0000
0000
0000
0000
,  // measure 1
0000
0000
0000
0000
,  // measure 2
0000
0000
0000
0000
,  // measure 3
0000
0000
0000
0000
,  // measure 4
0000
0000
0000
0000
,  // measure 5
0000
0000
0000
0000
,  // measure 6
0000
0000
0000
0000
,  // measure 7
0000
0000
0000
0000
,  // measure 8
1000
0000
0000
0000
,  // measure 9
0001
0000
0000
0000
,  // measure 10
0010
0000
0000
0000
,  // measure 11
0001
0000
0000
0000
,  // measure 12
1000
0000
0100
0000
,  // measure 13
0010
0000
0001
0000
,  // measure 14
1000
1000
0001
0001
,  // measure 15
1000
0000
0000
0000
,  // measure 16
0110
0000
0000
0000
,  // measure 17
1001
0000
0000
0000
,  // measure 18
0110
0000
0000
0000
,  // measure 19
1001
0000
0110
0000
,  // measure 20
1001
0000
0000
0000
,  // measure 21
0110
0000
0000
0000
,  // measure 22
1001
0000
0000
0000
,  // measure 23
0020
0000
0030
0000
,  // measure 24
1001
0000
0000
1000
0000
0000
1000
0000
,  // measure 25
0000
1000
1000
0000
,  // measure 26
1000
0000
0000
1000
0000
0000
1000
0000
,  // measure 27
0000
1000
1000
0000
,  // measure 28
1001
0000
0000
0001
0000
0000
0001
0000
,  // measure 29
0000
0001
0001
0000
,  // measure 30
1000
0000
0001
0000
,  // measure 31
0100
0000
0010
0000
,  // measure 32
1001
0000
1000
0000
,  // measure 33
0001
0000
1000
0000
,  // measure 34
0001
0000
1000
0000
,  // measure 35
0001
0000
0000
0000
,  // measure 36
0110
0000
0010
0000
,  // measure 37
0100
0000
0010
0000
,  // measure 38
0100
0000
0010
0000
,  // measure 39
0100
0000
0010
0000
,  // measure 40
1001
0000
0001
0000
,  // measure 41
1000
0000
0001
0000
,  // measure 42
1000
0000
0001
0000
,  // measure 43
1000
0000
0001
0000
,  // measure 44
0110
0000
0100
0000
,  // measure 45
0010
0000
0100
0000
,  // measure 46
0010
0010
0100
0100
,  // measure 47
0001
0001
1000
1000
,  // measure 48
0002
0000
0000
0000
,  // measure 49
0000
0000
0003
0000
,  // measure 50
2000
0000
0000
0000
,  // measure 51
0000
0000
3000
0000
,  // measure 52
0020
0000
0000
0000
,  // measure 53
0000
0000
0030
0000
,  // measure 54
0200
0000
0000
0000
,  // measure 55
0300
0000
0000
0000
,  // measure 56
0010
0000
0000
0000
,  // measure 57
1000
0000
0000
0000
,  // measure 58
0001
0000
0000
0000
,  // measure 59
0010
0000
0000
0000
,  // measure 60
0001
0000
0000
0000
,  // measure 61
1000
0000
0000
0000
,  // measure 62
0010
0000
0100
0000
,  // measure 63
1001
0000
0000
0000
,  // measure 64
1001
0000
0000
0000
,  // measure 65
0110
0000
0000
0000
,  // measure 66
1001
0000
0000
0000
,  // measure 67
0010
0010
0010
0000
,  // measure 68
1001
0000
0000
0000
,  // measure 69
0110
0000
0000
0010
0000
0000
0000
0000
,  // measure 70
0110
0000
0000
0000
,  // measure 71
0100
0100
0100
0000
,  // measure 72
1001
0000
0000
0000
,  // measure 73
0110
0000
0000
0000
,  // measure 74
0110
0000
0000
0000
,  // measure 75
1001
1000
1000
0000
,  // measure 76
1001
0000
0000
0000
,  // measure 77
0110
0000
0000
0000
,  // measure 78
0020
0000
0000
0000
,  // measure 79
0000
0000
0000
0030
,  // measure 80
1000
1000
1000
0000
,  // measure 81
0001
0001
0001
0000
,  // measure 82
1000
1000
1000
0000
,  // measure 83
0110
0000
0000
0000
,  // measure 84
0100
0100
0100
0000
,  // measure 85
0010
0010
0010
0000
,  // measure 86
0100
0100
0100
0000
,  // measure 87
0002
0000
0003
0000
,  // measure 88
1000
0100
0010
0000
,  // measure 89
0100
1000
0010
0000
,  // measure 90
0100
0001
0010
0000
,  // measure 91
0110
0000
0000
0000
,  // measure 92
0100
1000
0010
0000
,  // measure 93
0100
0001
0010
0000
,  // measure 94
0100
0010
0001
0000
,  // measure 95
1000
0001
0100
0000
,  // measure 96
0110
0000
0000
0000
;
